osu file format v14

[General]
AudioFilename: HoneyCome.mp3
AudioLeadIn: 0
PreviewTime: 44463
Countdown: 0
SampleSet: Normal
StackLeniency: 0.7
Mode: 1
LetterboxInBreaks: 0
WidescreenStoryboard: 0

[Editor]
DistanceSpacing: 0.6
BeatDivisor: 4
GridSize: 16
TimelineZoom: 3.2

[Metadata]
Title:Honey Come!! (TV size)
TitleUnicode:Honey♥Come!! (TV size)
Artist:Ogura Yui
ArtistUnicode:小倉唯
Creator:toara_fict
Version:Lundle's Oni
Source:城下町のダンデライオン
Tags:YuiKaori ゆいかおり Kaori Ishihara 石原夏織 lolicon Oomori Shouko 大森祥子 Shunryu 俊龍 Ookuba Kaoru 大久保薫 Hikari Sakurada 櫻田光Castle Town Dandelion Joukamachi no Dandelion TVsize ending Charlotte Nardoxyribonucleic Lundlerol
BeatmapID:743742
BeatmapSetID:336032

[Difficulty]
HPDrainRate:6
CircleSize:6
OverallDifficulty:5
ApproachRate:5
SliderMultiplier:1.4
SliderTickRate:1

[Events]
//Background and Video events
0,0,"BG.jpg",0,30
//Break Periods
//Storyboard Layer 0 (Background)
//Storyboard Layer 1 (Fail)
//Storyboard Layer 2 (Pass)
//Storyboard Layer 3 (Foreground)
//Storyboard Sound Samples

[TimingPoints]
605,326.086956521739,4,1,0,70,1,0
5822,-100,4,1,0,90,0,0
11039,-100,4,1,0,80,0,0
31909,-100,4,1,0,70,0,0
37126,-100,4,1,0,80,0,0
44952,-100,4,1,0,100,0,1
54083,-100,4,1,0,90,0,0
55387,-100,4,1,0,100,0,1
64518,-100,4,1,0,90,0,0
65822,-100,4,1,0,100,0,1
78865,-100,4,1,0,70,0,0

[HitObjects]
256,192,605,5,0,0:0:0:0:
256,192,1909,1,0,0:0:0:0:
240,192,2398,1,0,0:0:0:0:
240,192,2561,1,8,0:0:0:0:
256,192,2887,1,8,0:0:0:0:
256,192,3213,1,0,0:0:0:0:
192,160,4028,1,8,0:0:0:0:
176,160,4191,1,8,0:0:0:0:
256,192,4518,1,0,0:0:0:0:
272,192,5170,1,0,0:0:0:0:
256,192,5822,1,4,0:0:0:0:
256,176,6474,1,4,0:0:0:0:
256,176,7126,1,4,0:0:0:0:
256,176,7778,1,4,0:0:0:0:
256,176,8431,1,4,0:0:0:0:
272,208,8594,1,8,0:0:0:0:
272,208,8757,1,0,0:0:0:0:
272,208,8920,1,8,0:0:0:0:
272,208,9083,1,0,0:0:0:0:
272,208,9246,1,8,0:0:0:0:
272,208,9409,1,0,0:0:0:0:
272,208,9735,1,4,0:0:0:0:
256,192,10061,1,4,0:0:0:0:
256,192,10387,1,4,0:0:0:0:
272,192,10713,1,0,0:0:0:0:
272,192,10876,1,0,0:0:0:0:
256,192,10958,1,0,0:0:0:0:
256,192,11039,1,8,0:0:0:0:
256,192,11365,1,8,0:0:0:0:
256,192,11691,1,0,0:0:0:0:
256,192,11854,1,0,0:0:0:0:
256,192,12018,1,8,0:0:0:0:
240,192,12181,1,0,0:0:0:0:
240,192,12507,1,8,0:0:0:0:
224,176,12588,1,8,0:0:0:0:
240,192,12670,1,8,0:0:0:0:
224,192,12833,1,0,0:0:0:0:
224,192,12996,1,0,0:0:0:0:
224,208,13159,1,8,0:0:0:0:
224,208,13322,1,0,0:0:0:0:
224,192,13648,1,0,0:0:0:0:
240,192,13974,1,8,0:0:0:0:
240,192,14300,1,0,0:0:0:0:
240,192,14463,1,8,0:0:0:0:
240,192,14626,1,8,0:0:0:0:
240,192,14789,1,0,0:0:0:0:
240,192,15115,1,0,0:0:0:0:
240,192,15278,1,8,0:0:0:0:
240,192,15441,1,0,0:0:0:0:
240,192,15604,1,0,0:0:0:0:
256,160,15686,1,0,0:0:0:0:
256,192,15768,1,0,0:0:0:0:
192,176,15931,1,8,0:0:0:0:
272,144,16257,1,4,0:0:0:0:
240,176,16583,1,8,0:0:0:0:
240,176,16746,1,8,0:0:0:0:
192,176,17072,1,0,0:0:0:0:
224,176,17235,1,8,0:0:0:0:
240,192,17561,1,0,0:0:0:0:
240,192,17724,1,0,0:0:0:0:
224,192,17887,1,8,0:0:0:0:
224,192,18050,1,8,0:0:0:0:
240,192,18376,1,0,0:0:0:0:
224,192,18539,1,8,0:0:0:0:
240,192,18865,1,0,0:0:0:0:
224,192,19191,1,8,0:0:0:0:
224,192,19354,1,8,0:0:0:0:
224,192,19681,1,0,0:0:0:0:
208,160,19844,1,8,0:0:0:0:
224,176,20170,1,4,0:0:0:0:
256,144,20496,1,8,0:0:0:0:
256,144,20659,1,0,0:0:0:0:
256,144,20740,1,0,0:0:0:0:
272,160,20822,1,0,0:0:0:0:
272,144,20985,1,8,0:0:0:0:
272,144,21066,1,8,0:0:0:0:
272,144,21148,1,0,0:0:0:0:
272,144,21229,1,0,0:0:0:0:
272,144,21311,1,8,0:0:0:0:
288,144,21393,1,8,0:0:0:0:
288,144,21474,1,0,0:0:0:0:
288,128,21800,1,8,0:0:0:0:
272,144,22126,1,0,0:0:0:0:
272,144,22289,1,0,0:0:0:0:
272,144,22452,1,8,0:0:0:0:
272,160,22615,1,0,0:0:0:0:
288,144,22941,1,0,0:0:0:0:
272,144,23104,1,8,0:0:0:0:
288,144,23268,1,0,0:0:0:0:
272,144,23431,1,0,0:0:0:0:
272,144,23512,1,0,0:0:0:0:
272,144,23594,1,0,0:0:0:0:
272,144,23757,1,8,0:0:0:0:
272,144,24083,1,0,0:0:0:0:
272,144,24409,1,8,0:0:0:0:
272,144,24735,1,0,0:0:0:0:
272,144,24898,1,0,0:0:0:0:
272,144,25061,1,8,0:0:0:0:
272,144,25224,1,0,0:0:0:0:
272,144,25306,1,0,0:0:0:0:
272,144,25387,1,0,0:0:0:0:
272,144,25550,1,0,0:0:0:0:
272,144,25713,1,8,0:0:0:0:
256,128,25876,1,8,0:0:0:0:
256,128,26039,1,0,0:0:0:0:
272,144,26202,1,0,0:0:0:0:
272,144,26284,1,0,0:0:0:0:
272,144,26365,1,8,0:0:0:0:
288,144,26528,1,8,0:0:0:0:
288,144,26691,1,4,0:0:0:0:
272,144,27018,1,8,0:0:0:0:
272,144,27262,1,8,0:0:0:0:
288,144,27344,1,0,0:0:0:0:
288,144,27507,1,0,0:0:0:0:
272,144,27670,1,8,0:0:0:0:
272,144,27996,1,0,0:0:0:0:
256,144,28159,1,0,0:0:0:0:
272,144,28322,1,8,0:0:0:0:
272,160,28566,1,8,0:0:0:0:
256,144,28648,1,0,0:0:0:0:
256,144,28811,1,0,0:0:0:0:
272,144,28974,1,8,0:0:0:0:
256,144,29300,1,4,0:0:0:0:
272,144,29626,1,8,0:0:0:0:
256,144,29952,1,0,0:0:0:0:
256,144,30115,1,0,0:0:0:0:
272,144,30278,1,8,0:0:0:0:
256,144,30441,1,0,0:0:0:0:
240,144,30604,1,8,0:0:0:0:
288,176,30768,1,0,0:0:0:0:
272,144,30931,1,8,0:0:0:0:
272,128,31094,1,8,0:0:0:0:
192,160,31175,1,8,0:0:0:0:
224,128,31257,1,0,0:0:0:0:
272,176,31420,1,0,0:0:0:0:
208,128,31501,1,0,0:0:0:0:
288,160,31583,1,8,0:0:0:0:
192,144,31664,1,8,0:0:0:0:
192,144,31746,1,0,0:0:0:0:
192,144,31827,1,0,0:0:0:0:
192,144,31909,1,8,0:0:0:0:
256,160,32724,1,0,0:0:0:0:
256,160,32887,1,0,0:0:0:0:
240,144,33050,1,8,0:0:0:0:
240,144,33213,1,0,0:0:0:0:
240,160,33702,1,0,0:0:0:0:
144,112,34191,1,8,0:0:0:0:
240,160,34354,1,8,0:0:0:0:
224,160,34518,1,0,0:0:0:0:
224,160,35007,1,0,0:0:0:0:
224,160,35170,1,0,0:0:0:0:
208,160,35333,1,8,0:0:0:0:
208,160,35496,1,8,0:0:0:0:
192,144,35659,1,8,0:0:0:0:
240,144,35822,1,0,0:0:0:0:
240,144,36474,1,0,0:0:0:0:
224,144,36800,1,8,0:0:0:0:
224,144,36963,1,8,0:0:0:0:
224,144,37045,1,8,0:0:0:0:
224,144,37126,1,0,0:0:0:0:
192,176,37289,1,8,0:0:0:0:
224,144,37452,1,0,0:0:0:0:
224,176,37615,1,8,0:0:0:0:
224,160,37778,1,0,0:0:0:0:
224,144,37941,1,0,0:0:0:0:
224,144,38023,1,0,0:0:0:0:
224,144,38104,1,8,0:0:0:0:
208,176,38268,1,8,0:0:0:0:
224,144,38431,1,0,0:0:0:0:
208,128,38512,1,0,0:0:0:0:
240,144,38594,1,0,0:0:0:0:
224,144,38757,1,8,0:0:0:0:
224,144,38920,1,0,0:0:0:0:
224,144,39083,1,8,0:0:0:0:
224,128,39164,1,0,0:0:0:0:
224,128,39246,1,8,0:0:0:0:
224,144,39409,1,8,0:0:0:0:
192,128,39572,1,0,0:0:0:0:
224,144,39735,1,4,0:0:0:0:
224,144,40061,1,8,0:0:0:0:
224,144,40224,1,0,0:0:0:0:
224,160,40387,1,8,0:0:0:0:
208,144,40469,1,8,0:0:0:0:
224,144,40550,1,0,0:0:0:0:
224,160,40713,1,8,0:0:0:0:
224,144,40876,1,0,0:0:0:0:
224,160,41039,1,4,0:0:0:0:
224,160,41365,1,0,0:0:0:0:
224,144,41528,1,0,0:0:0:0:
224,160,41691,1,8,0:0:0:0:
224,144,41854,1,0,0:0:0:0:
224,160,42018,1,8,0:0:0:0:
224,160,42099,1,8,0:0:0:0:
224,160,42181,1,0,0:0:0:0:
272,192,42344,1,4,0:0:0:0:
272,176,42507,1,4,0:0:0:0:
272,176,42833,1,4,0:0:0:0:
256,176,43159,1,12,0:0:0:0:
256,176,43485,1,4,0:0:0:0:
256,160,43974,1,4,0:0:0:0:
256,144,44463,1,8,0:0:0:0:
240,160,44545,1,8,0:0:0:0:
240,160,44626,1,8,0:0:0:0:
240,160,44708,1,8,0:0:0:0:
240,160,44789,1,8,0:0:0:0:
240,160,44871,1,8,0:0:0:0:
240,144,44952,1,0,0:0:0:0:
256,160,45278,1,8,0:0:0:0:
224,160,45441,1,0,0:0:0:0:
224,176,45604,1,0,0:0:0:0:
224,176,45686,1,0,0:0:0:0:
224,176,45768,1,8,0:0:0:0:
256,160,45931,1,8,0:0:0:0:
224,176,46094,1,0,0:0:0:0:
224,160,46175,1,8,0:0:0:0:
224,160,46257,1,0,0:0:0:0:
256,160,46420,1,0,0:0:0:0:
256,160,46583,1,8,0:0:0:0:
240,160,46746,1,8,0:0:0:0:
256,160,46909,1,0,0:0:0:0:
240,160,47072,1,0,0:0:0:0:
256,144,47153,1,0,0:0:0:0:
256,160,47235,1,8,0:0:0:0:
256,144,47398,1,8,0:0:0:0:
256,160,47561,1,0,0:0:0:0:
256,160,47643,1,0,0:0:0:0:
256,160,47724,1,0,0:0:0:0:
256,160,47887,1,8,0:0:0:0:
240,160,48050,1,0,0:0:0:0:
240,160,48213,1,0,0:0:0:0:
240,144,48295,1,8,0:0:0:0:
240,160,48376,1,0,0:0:0:0:
256,160,48539,1,8,0:0:0:0:
208,144,48702,1,0,0:0:0:0:
144,128,48784,1,0,0:0:0:0:
128,128,48865,1,8,0:0:0:0:
224,112,49028,1,0,0:0:0:0:
256,160,49191,1,8,0:0:0:0:
224,112,49354,1,0,0:0:0:0:
208,96,49518,1,0,0:0:0:0:
128,96,49599,1,8,0:0:0:0:
288,144,49681,1,0,0:0:0:0:
256,160,49844,1,8,0:0:0:0:
208,128,50007,1,0,0:0:0:0:
208,128,50170,1,8,0:0:0:0:
256,176,50251,1,8,0:0:0:0:
256,176,50333,1,0,0:0:0:0:
144,128,50496,1,8,0:0:0:0:
240,176,50659,1,0,0:0:0:0:
288,160,50822,1,8,0:0:0:0:
144,128,51148,1,8,0:0:0:0:
192,176,51311,1,0,0:0:0:0:
272,176,51474,1,0,0:0:0:0:
144,128,51800,1,8,0:0:0:0:
160,144,52126,1,0,0:0:0:0:
144,128,52452,1,8,0:0:0:0:
192,80,52615,1,8,0:0:0:0:
176,80,52778,1,0,0:0:0:0:
176,112,52860,1,0,0:0:0:0:
176,112,52941,1,0,0:0:0:0:
144,128,53104,1,8,0:0:0:0:
176,112,53268,1,0,0:0:0:0:
176,112,53431,1,8,0:0:0:0:
176,112,53512,1,8,0:0:0:0:
176,112,53594,1,0,0:0:0:0:
144,128,53757,1,8,0:0:0:0:
176,112,53920,1,0,0:0:0:0:
128,128,54083,1,4,0:0:0:0:
176,112,54246,1,4,0:0:0:0:
176,112,54409,1,12,0:0:0:0:
144,112,54572,1,4,0:0:0:0:
192,128,54898,1,4,0:0:0:0:
144,128,55061,1,8,0:0:0:0:
256,128,55224,1,8,0:0:0:0:
240,144,55387,1,4,0:0:0:0:
256,160,55713,1,8,0:0:0:0:
224,160,55876,1,0,0:0:0:0:
224,176,56039,1,0,0:0:0:0:
224,176,56121,1,0,0:0:0:0:
224,176,56202,1,8,0:0:0:0:
256,160,56365,1,8,0:0:0:0:
224,176,56528,1,0,0:0:0:0:
224,160,56610,1,8,0:0:0:0:
224,160,56691,1,0,0:0:0:0:
256,160,56854,1,0,0:0:0:0:
256,160,57018,1,8,0:0:0:0:
240,160,57181,1,8,0:0:0:0:
256,176,57262,1,8,0:0:0:0:
256,160,57344,1,0,0:0:0:0:
240,160,57507,1,0,0:0:0:0:
256,144,57588,1,0,0:0:0:0:
256,160,57670,1,8,0:0:0:0:
256,144,57833,1,8,0:0:0:0:
256,160,57996,1,0,0:0:0:0:
256,160,58077,1,0,0:0:0:0:
256,160,58159,1,0,0:0:0:0:
256,160,58322,1,8,0:0:0:0:
240,160,58485,1,0,0:0:0:0:
240,160,58648,1,0,0:0:0:0:
240,144,58729,1,8,0:0:0:0:
240,160,58811,1,0,0:0:0:0:
256,160,58974,1,8,0:0:0:0:
208,144,59137,1,0,0:0:0:0:
144,128,59219,1,0,0:0:0:0:
128,128,59300,1,8,0:0:0:0:
208,128,59382,1,8,0:0:0:0:
224,112,59463,1,0,0:0:0:0:
256,160,59626,1,8,0:0:0:0:
224,112,59789,1,0,0:0:0:0:
208,96,59952,1,0,0:0:0:0:
160,96,60034,1,8,0:0:0:0:
176,96,60115,1,0,0:0:0:0:
256,160,60278,1,8,0:0:0:0:
208,128,60441,1,0,0:0:0:0:
208,128,60604,1,8,0:0:0:0:
256,176,60686,1,8,0:0:0:0:
256,176,60768,1,0,0:0:0:0:
144,128,60931,1,8,0:0:0:0:
240,176,61094,1,0,0:0:0:0:
288,160,61257,1,8,0:0:0:0:
224,176,61338,1,8,0:0:0:0:
224,176,61420,1,0,0:0:0:0:
176,144,61501,1,0,0:0:0:0:
144,128,61583,1,8,0:0:0:0:
128,160,61746,1,0,0:0:0:0:
272,176,61909,1,0,0:0:0:0:
144,128,62235,1,8,0:0:0:0:
160,144,62561,1,0,0:0:0:0:
144,128,62887,1,8,0:0:0:0:
192,80,63050,1,8,0:0:0:0:
176,80,63213,1,0,0:0:0:0:
176,112,63295,1,0,0:0:0:0:
176,112,63376,1,0,0:0:0:0:
144,128,63539,1,8,0:0:0:0:
176,112,63702,1,0,0:0:0:0:
176,112,63865,1,0,0:0:0:0:
176,112,63947,1,0,0:0:0:0:
176,112,64028,1,0,0:0:0:0:
128,96,64110,1,0,0:0:0:0:
144,128,64191,1,8,0:0:0:0:
176,112,64354,1,8,0:0:0:0:
128,128,64518,1,4,0:0:0:0:
176,112,64681,1,4,0:0:0:0:
176,112,64844,1,12,0:0:0:0:
144,112,65007,1,4,0:0:0:0:
192,128,65333,1,4,0:0:0:0:
192,144,65496,1,8,0:0:0:0:
192,144,65577,1,8,0:0:0:0:
192,144,65659,1,8,0:0:0:0:
192,144,65740,1,8,0:0:0:0:
240,144,65822,1,0,0:0:0:0:
256,160,66148,1,8,0:0:0:0:
224,160,66311,1,0,0:0:0:0:
224,176,66474,1,0,0:0:0:0:
224,176,66556,1,0,0:0:0:0:
224,176,66637,1,8,0:0:0:0:
256,160,66800,1,8,0:0:0:0:
224,176,66963,1,0,0:0:0:0:
224,160,67045,1,8,0:0:0:0:
224,160,67126,1,0,0:0:0:0:
256,160,67289,1,8,0:0:0:0:
224,160,67371,1,8,0:0:0:0:
256,160,67452,1,0,0:0:0:0:
224,160,67534,1,0,0:0:0:0:
240,160,67615,1,8,0:0:0:0:
256,160,67778,1,0,0:0:0:0:
240,160,67941,1,0,0:0:0:0:
256,144,68023,1,0,0:0:0:0:
256,160,68104,1,8,0:0:0:0:
256,144,68268,1,8,0:0:0:0:
256,160,68431,1,0,0:0:0:0:
256,160,68512,1,0,0:0:0:0:
256,160,68594,1,0,0:0:0:0:
256,160,68757,1,8,0:0:0:0:
240,160,68920,1,0,0:0:0:0:
240,160,69083,1,0,0:0:0:0:
240,144,69164,1,8,0:0:0:0:
240,160,69246,1,0,0:0:0:0:
256,160,69409,1,8,0:0:0:0:
208,144,69572,1,0,0:0:0:0:
144,128,69653,1,0,0:0:0:0:
128,128,69735,1,8,0:0:0:0:
224,128,69816,1,8,0:0:0:0:
224,112,69898,1,0,0:0:0:0:
256,160,70061,1,8,0:0:0:0:
224,112,70224,1,0,0:0:0:0:
208,144,70387,1,8,0:0:0:0:
256,160,70713,1,8,0:0:0:0:
208,128,70876,1,0,0:0:0:0:
208,128,71039,1,8,0:0:0:0:
256,176,71121,1,8,0:0:0:0:
256,176,71202,1,0,0:0:0:0:
144,128,71365,1,8,0:0:0:0:
240,176,71528,1,0,0:0:0:0:
288,160,71691,1,8,0:0:0:0:
224,176,71773,1,0,0:0:0:0:
224,176,71854,1,8,0:0:0:0:
144,128,72018,1,8,0:0:0:0:
192,176,72181,1,0,0:0:0:0:
272,176,72344,1,8,0:0:0:0:
208,160,72425,1,8,0:0:0:0:
240,160,72507,1,0,0:0:0:0:
240,160,72588,1,0,0:0:0:0:
256,160,72670,1,8,0:0:0:0:
128,112,72833,1,8,0:0:0:0:
112,112,72996,1,0,0:0:0:0:
240,160,73077,1,0,0:0:0:0:
80,80,73159,1,0,0:0:0:0:
256,160,73322,1,8,0:0:0:0:
208,144,73485,1,0,0:0:0:0:
256,144,73566,1,0,0:0:0:0:
208,144,73648,1,8,0:0:0:0:
256,144,73811,1,0,0:0:0:0:
256,144,73974,1,8,0:0:0:0:
256,160,74137,1,0,0:0:0:0:
256,160,74219,1,0,0:0:0:0:
256,144,74300,1,8,0:0:0:0:
256,144,74463,1,8,0:0:0:0:
256,144,74626,1,0,0:0:0:0:
256,144,74789,1,8,0:0:0:0:
240,160,74952,1,4,0:0:0:0:
224,160,75115,1,12,0:0:0:0:
208,160,75441,1,4,0:0:0:0:
240,208,75931,1,8,0:0:0:0:
208,144,76094,1,0,0:0:0:0:
256,144,76175,1,0,0:0:0:0:
208,144,76257,1,8,0:0:0:0:
256,144,76420,1,8,0:0:0:0:
256,144,76583,1,8,0:0:0:0:
192,144,76664,1,8,0:0:0:0:
256,160,76746,1,0,0:0:0:0:
256,160,76827,1,0,0:0:0:0:
256,144,76909,1,8,0:0:0:0:
256,144,77072,1,8,0:0:0:0:
256,144,77235,1,0,0:0:0:0:
256,144,77398,1,8,0:0:0:0:
240,160,77561,1,4,0:0:0:0:
224,160,77724,1,12,0:0:0:0:
208,160,78050,1,4,0:0:0:0:
256,240,78865,1,0,0:0:0:0:
256,256,79191,1,8,0:0:0:0:
256,256,79518,1,0,0:0:0:0:
256,256,79681,1,0,0:0:0:0:
256,256,79844,1,0,0:0:0:0:
256,256,80007,1,8,0:0:0:0:
256,256,80333,1,0,0:0:0:0:
256,256,80496,1,8,0:0:0:0:
256,256,80659,1,8,0:0:0:0:
256,256,80822,1,0,0:0:0:0:
256,256,80985,1,8,0:0:0:0:
256,256,81148,1,0,0:0:0:0:
256,240,81311,1,8,0:0:0:0:
256,176,81474,1,0,0:0:0:0:
256,176,82289,1,0,0:0:0:0:
256,176,82371,1,0,0:0:0:0:
256,176,82452,1,0,0:0:0:0:
256,176,82615,1,8,0:0:0:0:
256,176,82778,1,0,0:0:0:0:
256,176,83431,1,0,0:0:0:0:
240,176,84083,1,4,0:0:0:0:
240,176,84735,1,4,0:0:0:0:
240,176,85387,1,4,0:0:0:0:
240,176,86039,1,4,0:0:0:0:
240,176,86691,1,4,0:0:0:0:
256,192,86854,1,8,0:0:0:0:
256,192,87018,1,0,0:0:0:0:
256,192,87181,1,8,0:0:0:0:
240,192,87344,1,0,0:0:0:0:
240,192,87507,1,8,0:0:0:0:
240,192,87588,1,8,0:0:0:0:
240,192,87670,1,0,0:0:0:0:
240,192,87751,1,0,0:0:0:0:
240,192,87833,1,0,0:0:0:0:
224,192,87996,1,4,0:0:0:0:
224,176,88485,1,12,0:0:0:0:
