osu file format v14

[General]
AudioFilename: HoneyCome.mp3
AudioLeadIn: 0
PreviewTime: 44463
Countdown: 0
SampleSet: Normal
StackLeniency: 0.7
Mode: 1
LetterboxInBreaks: 0
WidescreenStoryboard: 0

[Editor]
Bookmarks: 21466
DistanceSpacing: 0.6
BeatDivisor: 4
GridSize: 4
TimelineZoom: 4.099999

[Metadata]
Title:Honey Come!! (TV size)
TitleUnicode:Honey♥Come!! (TV size)
Artist:Ogura Yui
ArtistUnicode:小倉唯
Creator:toara_fict
Version:Charlotte's Kantan
Source:城下町のダンデライオン
Tags:YuiKaori ゆいかおり Kaori Ishihara 石原夏織 lolicon Oomori Shouko 大森祥子 Shunryu 俊龍 Ookuba Kaoru 大久保薫 Hikari Sakurada 櫻田光Castle Town Dandelion Joukamachi no Dandelion TVsize ending Charlotte Nardoxyribonucleic Lundlerol
BeatmapID:743840
BeatmapSetID:336032

[Difficulty]
HPDrainRate:7
CircleSize:6
OverallDifficulty:4
ApproachRate:10
SliderMultiplier:1.4
SliderTickRate:1

[Events]
//Background and Video events
0,0,"BG.jpg",0,30
//Break Periods
//Storyboard Layer 0 (Background)
//Storyboard Layer 1 (Fail)
//Storyboard Layer 2 (Pass)
//Storyboard Layer 3 (Foreground)
//Storyboard Sound Samples

[TimingPoints]
605,326.086956521739,4,1,0,70,1,0
5822,-100,4,1,0,90,0,0
11039,-100,4,1,0,80,0,0
31909,-100,4,1,0,70,0,0
37126,-100,4,1,0,80,0,0
44952,-100,4,1,0,100,0,1
54083,-100,4,1,0,90,0,0
55387,-100,4,1,0,100,0,1
64518,-100,4,1,0,90,0,0
65822,-100,4,1,0,100,0,1
78865,-100,4,1,0,70,0,0

[HitObjects]
320,256,605,5,4,0:0:0:0:
192,128,1909,1,8,0:0:0:0:
320,256,3213,1,4,0:0:0:0:
192,128,4518,1,8,0:0:0:0:
320,256,5822,1,4,0:0:0:0:
320,256,6474,1,4,0:0:0:0:
320,256,7126,1,4,0:0:0:0:
320,256,7778,1,4,0:0:0:0:
320,256,8431,1,4,0:0:0:0:
192,256,9735,1,12,0:0:0:0:
192,256,10061,1,12,0:0:0:0:
192,256,10387,1,12,0:0:0:0:
320,128,11039,1,0,0:0:0:0:
320,128,11691,1,8,0:0:0:0:
192,160,12996,1,8,0:0:0:0:
320,128,13648,1,0,0:0:0:0:
320,128,14300,1,8,0:0:0:0:
320,128,15604,1,0,0:0:0:0:
192,128,16257,1,8,0:0:0:0:
192,128,17561,1,8,0:0:0:0:
192,128,18865,1,8,0:0:0:0:
192,128,20170,1,8,0:0:0:0:
192,128,20822,1,8,0:0:0:0:
192,128,21474,1,0,0:0:0:0:
320,128,22126,1,8,0:0:0:0:
320,128,23431,1,8,0:0:0:0:
320,128,24083,1,0,0:0:0:0:
320,128,24735,1,8,0:0:0:0:
320,128,26039,1,0,0:0:0:0:
320,256,26692,1,8,0:0:0:0:
320,128,27344,1,8,0:0:0:0:
320,128,27996,1,0,0:0:0:0:
320,128,28648,1,8,0:0:0:0:
320,256,29300,1,4,0:0:0:0:
320,128,29952,1,8,0:0:0:0:
372,216,30604,2,0,L|408:228,8,35
320,128,31909,1,0,0:0:0:0:
192,128,33213,1,0,0:0:0:0:
320,256,34518,1,4,0:0:0:0:
320,256,35822,1,4,0:0:0:0:
200,140,36474,1,8,0:0:0:0:
320,128,37126,1,0,0:0:0:0:
320,128,38431,1,8,0:0:0:0:
320,256,39735,1,0,0:0:0:0:
196,152,40387,1,8,0:0:0:0:
320,128,41039,1,0,0:0:0:0:
320,128,41691,1,8,0:0:0:0:
192,256,42344,1,0,0:0:0:0:
320,256,42833,1,0,0:0:0:0:
320,256,43159,1,0,0:0:0:0:
320,256,43485,1,0,0:0:0:0:
192,256,43974,1,12,0:0:0:0:
320,256,44952,1,4,0:0:0:0:
192,128,45604,1,8,0:0:0:0:
192,128,46257,1,0,0:0:0:0:
192,128,46583,1,0,0:0:0:0:
320,128,46909,1,8,0:0:0:0:
320,256,47561,1,0,0:0:0:0:
192,128,48213,1,8,0:0:0:0:
192,128,48865,1,8,0:0:0:0:
320,128,49191,1,0,0:0:0:0:
320,128,49518,1,8,0:0:0:0:
320,128,50170,1,0,0:0:0:0:
192,128,50822,1,8,0:0:0:0:
192,128,51474,1,0,0:0:0:0:
192,128,52778,1,8,0:0:0:0:
320,128,53431,1,8,0:0:0:0:
320,128,54083,1,0,0:0:0:0:
320,256,55387,1,4,0:0:0:0:
192,128,56039,1,8,0:0:0:0:
320,128,56691,1,0,0:0:0:0:
192,128,57017,1,0,0:0:0:0:
320,128,57344,1,8,0:0:0:0:
320,256,57996,1,0,0:0:0:0:
192,128,58648,1,8,0:0:0:0:
320,128,59300,1,8,0:0:0:0:
320,128,59626,1,0,0:0:0:0:
320,128,59952,1,8,0:0:0:0:
320,128,60605,1,0,0:0:0:0:
192,128,61257,1,8,0:0:0:0:
320,128,61909,1,0,0:0:0:0:
192,128,63213,1,8,0:0:0:0:
192,128,63865,1,0,0:0:0:0:
320,128,64518,1,8,0:0:0:0:
320,256,65822,1,4,0:0:0:0:
192,128,66474,1,8,0:0:0:0:
320,128,67126,1,0,0:0:0:0:
192,128,67452,1,0,0:0:0:0:
320,128,67778,1,8,0:0:0:0:
320,256,68431,1,0,0:0:0:0:
192,128,69083,1,8,0:0:0:0:
192,128,69735,1,8,0:0:0:0:
192,128,70061,1,0,0:0:0:0:
192,128,70387,1,8,0:0:0:0:
320,128,71040,1,0,0:0:0:0:
320,128,71692,1,8,0:0:0:0:
320,128,72344,1,0,0:0:0:0:
320,128,72996,1,8,0:0:0:0:
192,128,73648,1,0,0:0:0:0:
192,128,73974,1,0,0:0:0:0:
192,128,74300,1,8,0:0:0:0:
192,128,74952,1,0,0:0:0:0:
192,128,75441,1,8,0:0:0:0:
192,128,76257,1,8,0:0:0:0:
192,128,76583,1,0,0:0:0:0:
192,128,76909,1,8,0:0:0:0:
192,128,77561,1,0,0:0:0:0:
320,128,78050,1,8,0:0:0:0:
320,256,78865,1,4,0:0:0:0:
192,128,80169,1,8,0:0:0:0:
320,256,81473,1,4,0:0:0:0:
192,128,82778,1,8,0:0:0:0:
320,256,84083,1,4,0:0:0:0:
320,256,84735,1,4,0:0:0:0:
320,256,85387,1,4,0:0:0:0:
320,256,86039,1,4,0:0:0:0:
320,256,86692,1,4,0:0:0:0:
192,256,87996,1,12,0:0:0:0:
192,256,88485,1,12,0:0:0:0:
