osu file format v14

[General]
AudioFilename: Honey.mp3
AudioLeadIn: 1500
PreviewTime: 44455
Countdown: 0
SampleSet: Soft
StackLeniency: 0.7
Mode: 0
LetterboxInBreaks: 0
WidescreenStoryboard: 0

[Editor]
Bookmarks: 1874,2852,9727,10379,21140,34401,69401,76575,88477
DistanceSpacing: 0.5
BeatDivisor: 4
GridSize: 4
TimelineZoom: 3.699998

[Metadata]
Title:Honey Come!! (TV size)
TitleUnicode:Honey♥Come!! (TV size)
Artist:Ogura Yui
ArtistUnicode:小倉唯
Creator:Sekai-nyan
Version:Insane
Source:城下町のダンデライオン
Tags:YuiKaori ゆいかおり Kaori Ishihara 石原夏織 lolicon Oomori Shouko 大森祥子 Shunryu 俊龍 Ookuba Kaoru 大久保薫 Hikari Sakurada 櫻田光Castle Town Dandelion Joukamachi no Dandelion TVsize ending Sekai Kawaiwkyik eINess CelsiusLK KantoKun
BeatmapID:731838
BeatmapSetID:330175

[Difficulty]
HPDrainRate:6.5
CircleSize:4
OverallDifficulty:7
ApproachRate:8.5
SliderMultiplier:1.6
SliderTickRate:1

[Events]
//Background and Video events
Video,195,"Opening.flv"
0,0,"RinkBG.jpg",0,0
//Break Periods
//Storyboard Layer 0 (Background)
//Storyboard Layer 1 (Fail)
//Storyboard Layer 2 (Pass)
//Storyboard Layer 3 (Foreground)
//Storyboard Sound Samples

[TimingPoints]
597,326.086956521739,4,2,1,60,1,0
16086,-100,4,2,2,60,0,0
20162,-100,4,2,1,60,0,0
26683,-100,4,2,2,60,0,0
30596,-100,4,2,1,60,0,0
31901,-133.333333333333,4,2,1,50,0,0
36792,-100,4,2,1,60,0,0
40053,-100,4,2,5,70,0,0
42336,-100,4,2,1,50,0,0
44455,-100,4,2,1,70,0,0
44944,-100,4,2,1,75,0,1
54075,-100,4,2,1,60,0,0
55379,-100,4,2,1,75,0,1
64510,-100,4,2,1,60,0,0
65814,-100,4,2,1,75,0,1
78857,-100,4,2,1,60,0,0

[Colours]
Combo1 : 128,0,255
Combo2 : 255,128,64
Combo3 : 0,128,192
Combo4 : 255,128,192
Combo5 : 255,255,98
Combo6 : 255,53,53
Combo7 : 128,128,255
Combo8 : 140,198,198

[HitObjects]
136,192,597,6,0,P|120:240|128:280,1,80,4|0,0:0|0:0,0:0:0:0:
236,192,923,1,0,0:0:0:0:
160,80,1086,1,0,0:0:0:0:
160,80,1249,2,0,P|112:72|4:124,1,160,2|0,0:0|0:0,0:0:0:0:
236,192,1738,2,0,P|284:200|392:148,1,160,2|0,0:0|0:0,0:0:0:0:
376,276,2227,2,0,L|424:368,1,80,2|0,0:0|0:0,0:0:0:0:
236,192,2553,2,0,L|284:100,1,80,2|0,0:0|0:0,0:0:0:0:
400,256,2879,2,0,L|448:348,1,80,2|0,0:0|0:0,0:0:0:0:
160,280,3205,6,0,P|92:236|0:248,1,160,4|0,0:0|0:0,0:0:0:0:
100,336,3694,1,0,0:0:0:0:
72,152,3857,2,0,P|108:84|188:52,1,160,2|0,0:0|0:0,0:0:0:0:
256,124,4346,1,0,0:0:0:0:
256,124,4510,2,0,L|344:84,1,80,2|0,0:0|0:0,0:0:0:0:
476,192,4836,2,0,L|384:192,1,80,2|0,0:0|0:0,0:0:0:0:
256,260,5162,2,0,L|344:300,2,80,2|0|2,0:0|0:0|0:0,0:0:0:0:
156,192,5651,1,0,0:0:0:0:
156,192,5814,6,0,P|116:228|116:344,1,160,4|0,0:0|0:0,0:0:0:0:
212,356,6303,1,0,0:0:0:0:
312,328,6466,2,0,P|315:249|263:191,1,160,4|0,0:0|0:0,0:0:0:0:
252,84,6955,1,0,0:0:0:0:
252,84,7118,2,0,L|424:64,1,160,4|0,0:0|0:0,0:0:0:0:
408,148,7607,1,0,0:0:0:0:
376,40,7770,2,0,L|217:58,1,160,4|0,0:0|0:0,0:0:0:0:
217,57,8423,6,0,P|176:48|120:56,1,80,4|0,0:0|0:0,0:0:0:0:
32,180,8749,2,0,P|112:176|140:160,1,80,4|0,0:0|0:0,0:0:0:0:
217,57,9075,1,4,0:0:0:0:
304,136,9238,1,0,0:0:0:0:
336,24,9401,1,4,0:0:0:0:
212,144,9564,1,0,0:0:0:0:
396,136,9727,5,4,0:0:0:0:
396,160,10053,1,4,0:0:0:0:
396,184,10379,1,4,0:0:0:0:
256,160,10705,1,0,0:0:0:0:
256,264,10868,5,2,0:0:0:0:
256,264,10950,1,0,0:0:0:0:
256,264,11031,2,0,L|256:356,1,80,4|0,0:0|0:0,0:0:0:0:
344,268,11357,2,0,L|384:192,1,80,8|0,0:0|0:0,0:0:0:0:
168,268,11683,2,0,L|128:192,1,80,2|0,0:0|0:0,0:0:0:0:
120,88,12010,2,0,B|160:88|160:88|212:68,1,80,8|0,0:0|0:0,0:0:0:0:
392,88,12336,6,0,B|352:88|352:88|300:68,1,80,2|0,0:0|0:0,0:0:0:0:
256,168,12662,1,8,0:0:0:0:
256,308,12825,1,0,0:0:0:0:
164,188,12988,1,2,0:0:0:0:
348,188,13151,1,0,0:0:0:0:
256,308,13314,2,0,P|312:328|344:324,1,80,8|0,0:0|0:0,0:0:0:0:
256,148,13640,6,0,P|184:144|104:200,1,160,4|8,0:0|0:0,0:0:0:0:
64,284,14129,1,0,0:0:0:0:
156,332,14292,2,0,P|228:336|308:280,1,160,2|8,0:0|0:0,0:0:0:0:
376,188,14781,5,0,0:0:0:0:
376,188,14944,2,0,P|400:140|408:96,1,80,2|0,0:0|0:0,0:0:0:0:
244,48,15270,2,0,P|254:86|274:121,1,80,8|0,0:0|0:0,0:0:0:0:
384,216,15596,2,0,P|408:168|416:124,1,80,2|0,0:0|0:0,0:0:0:0:
414,142,15841,1,0,0:0:0:0:
414,142,15923,1,8,0:0:0:0:
240,196,16086,5,0,0:0:0:0:
240,196,16167,1,0,0:0:0:0:
240,196,16249,2,0,L|144:208,1,80,4|0,0:0|0:0,0:0:0:0:
56,220,16575,1,8,0:0:0:0:
56,220,16738,1,8,0:0:0:0:
164,116,16901,2,0,L|232:56,1,80,2|0,0:0|0:0,0:0:0:0:
164,268,17227,2,0,L|232:328,1,80,8|0,0:0|0:0,0:0:0:0:
300,356,17471,1,0,0:0:0:0:
300,356,17553,6,0,B|328:324|328:324|328:284,1,80,4|0,0:0|0:0,0:0:0:0:
464,192,17879,1,8,0:0:0:0:
464,192,18042,1,8,0:0:0:0:
376,92,18205,2,0,L|312:44,1,80,2|0,0:0|0:0,0:0:0:0:
136,92,18531,2,0,L|200:44,1,80,8|0,0:0|0:0,0:0:0:0:
256,216,18857,6,0,L|256:136,1,80,4|0,0:0|0:0,0:0:0:0:
152,192,19183,1,8,0:0:0:0:
152,192,19346,1,8,0:0:0:0:
336,100,19510,2,0,L|336:180,1,80,2|0,0:0|0:0,0:0:0:0:
152,192,19836,2,0,L|152:112,1,80,8|0,0:0|0:0,0:0:0:0:
56,192,20162,6,0,P|48:240|144:324,1,160,4|8,0:0|0:0,0:0:0:0:
228,308,20651,1,2,0:0:0:0:
228,308,20732,1,0,0:0:0:0:
228,308,20814,2,0,P|272:316|312:312,1,80,8|2,0:0|0:0,0:0:0:0:
388,328,21058,1,0,0:0:0:0:
388,328,21140,2,0,L|436:260,1,80,8|2,0:0|0:0,0:0:0:0:
432,100,21466,6,0,L|356:240,1,160,4|8,0:0|0:0,0:0:0:0:
300,124,21955,1,0,0:0:0:0:
460,216,22118,2,0,L|504:132,2,80,2|0|8,0:0|0:0|0:0,0:0:0:0:
300,124,22607,1,0,0:0:0:0:
156,80,22770,6,0,P|112:80|64:96,1,80,2|0,0:0|0:0,0:0:0:0:
128,224,23096,1,8,0:0:0:0:
12,176,23260,1,0,0:0:0:0:
128,224,23423,2,0,P|172:224|220:208,1,80,2|0,0:0|0:0,0:0:0:0:
276,172,23667,1,0,0:0:0:0:
276,172,23749,2,0,L|332:240,1,80,8|0,0:0|0:0,0:0:0:0:
448,304,24075,6,0,P|380:304|296:376,1,160,4|8,0:0|0:0,0:0:0:0:
256,256,24564,1,0,0:0:0:0:
256,256,24727,2,0,L|256:168,1,80,2|0,0:0|0:0,0:0:0:0:
256,100,24971,1,0,0:0:0:0:
256,100,25053,2,0,B|216:100|216:100|176:76,1,80,8|0,0:0|0:0,0:0:0:0:
164,192,25379,6,0,L|164:280,1,80,2|0,0:0|0:0,0:0:0:0:
348,192,25705,2,0,L|348:112,1,80,8|0,0:0|0:0,0:0:0:0:
348,112,25950,1,0,0:0:0:0:
348,112,26031,1,2,0:0:0:0:
256,176,26194,1,0,0:0:0:0:
256,176,26276,1,0,0:0:0:0:
256,176,26357,2,0,L|256:256,1,80,8|0,0:0|0:0,0:0:0:0:
456,192,26683,6,0,P|472:148|472:104,1,80,4|0,0:0|0:0,0:0:0:0:
368,32,27010,1,8,0:0:0:0:
368,32,27173,1,8,0:0:0:0:
256,100,27336,2,0,L|168:68,1,80,2|0,0:0|0:0,0:0:0:0:
52,140,27662,2,0,L|144:180,1,80,8|0,0:0|0:0,0:0:0:0:
256,208,27988,6,0,B|256:256|256:256|272:288,1,80,4|0,0:0|0:0,0:0:0:0:
360,352,28314,1,8,0:0:0:0:
360,352,28477,1,8,0:0:0:0:
372,244,28640,2,0,B|386:215|386:215|386:167,1,80,2|0,0:0|0:0,0:0:0:0:
248,236,28966,2,0,B|248:284|248:284|264:316,1,80,8|0,0:0|0:0,0:0:0:0:
256,124,29292,6,0,P|204:120|164:132,1,80,4|0,0:0|0:0,0:0:0:0:
88,232,29618,1,8,0:0:0:0:
56,100,29781,1,8,0:0:0:0:
88,232,29944,2,0,L|72:312,1,80,2|0,0:0|0:0,0:0:0:0:
268,280,30270,2,0,L|252:201,1,80,8|0,0:0|0:0,0:0:0:0:
172,268,30596,5,4,0:0:0:0:
352,216,30760,1,0,0:0:0:0:
292,356,30923,1,8,0:0:0:0:
252,201,31086,1,0,0:0:0:0:
416,288,31249,2,0,P|436:240|440:200,1,80,8|2,0:0|0:0,0:0:0:0:
439,212,31493,1,0,0:0:0:0:
439,212,31575,1,8,0:0:0:0:
280,116,31738,5,2,0:0:0:0:
280,116,31819,1,0,0:0:0:0:
280,116,31901,2,0,P|287:155|300:184,1,60.0000022888184,4|0,0:0|0:0,0:0:0:0:
256,264,32227,1,0,0:0:0:0:
164,192,32390,1,2,0:0:0:0:
164,192,32471,1,2,0:0:0:0:
164,192,32553,2,0,L|88:192,1,60.0000022888184,2|0,0:0|0:0,0:0:0:0:
40,272,32879,2,0,L|112:272,1,60.0000022888184
200,116,33205,6,0,L|76:116,1,120.000004577637,4|0,0:0|0:0,0:0:0:0:
136,28,33694,2,0,L|256:28,1,120.000004577637,4|0,0:0|0:0,0:0:0:0:
324,88,34183,2,0,L|348:48,2,40.000001525879,2|2|2,0:0|0:0|0:0,0:0:0:0:
256,152,34510,6,0,P|292:172|328:176,1,60.0000022888184,4|0,0:0|0:0,0:0:0:0:
424,196,34836,1,0,0:0:0:0:
348,280,34999,1,2,0:0:0:0:
348,280,35080,1,2,0:0:0:0:
348,280,35162,2,0,P|324:312|316:348,1,60.0000022888184,2|0,0:0|0:0,0:0:0:0:
164,280,35488,2,0,P|183:302|194:330,1,60.0000022888184,2|0,0:0|0:0,0:0:0:0:
256,240,35814,6,0,L|256:112,1,120.000004577637,4|0,0:0|0:0,0:0:0:0:
256,32,36303,1,0,0:0:0:0:
168,108,36466,2,0,L|168:176,1,60.0000022888184,4|0,0:0|0:0,0:0:0:0:
236,320,36793,1,8,0:0:0:0:
252,320,36874,1,0,0:0:0:0:
268,320,36956,1,8,0:0:0:0:
284,320,37037,1,8,0:0:0:0:
300,316,37118,6,0,B|342:308|342:308|394:324,1,80,4|0,0:0|0:0,0:0:0:0:
464,252,37444,2,0,L|376:212,1,80,8|0,0:0|0:0,0:0:0:0:
288,160,37770,1,2,0:0:0:0:
288,160,37933,1,0,0:0:0:0:
460,68,38096,2,0,L|372:108,1,80,8|0,0:0|0:0,0:0:0:0:
160,216,38423,6,0,P|156:264|168:300,1,80,4|0,0:0|0:0,0:0:0:0:
256,352,38749,1,8,0:0:0:0:
256,352,38912,1,0,0:0:0:0:
347,294,39075,2,0,P|356:255|352:216,1,80,2|0,0:0|0:0,0:0:0:0:
256,228,39401,1,8,0:0:0:0:
436,188,39564,1,0,0:0:0:0:
336,100,39727,6,0,L|376:20,1,80,4|0,0:0|0:0,0:0:0:0:
256,8,40053,2,0,L|256:96,1,80,8|0,0:0|0:0,0:0:0:0:
176,100,40379,2,0,L|136:20,1,80,8|0,0:0|0:0,0:0:0:0:
371,28,40705,2,0,L|336:100,1,80,8|0,0:0|0:0,0:0:0:0:
208,188,41031,5,8,0:0:0:0:
208,188,41194,1,0,0:0:0:0:
60,192,41357,1,8,0:0:0:0:
144,324,41520,1,0,0:0:0:0:
140,140,41683,2,0,B|140:96|140:96|120:60,1,80,8|0,0:0|0:0,0:0:0:0:
272,28,42010,2,0,B|256:60|256:60|256:104,1,80,8|0,0:0|0:0,0:0:0:0:
256,272,42336,5,4,0:0:0:0:
256,272,42499,2,0,P|328:264|408:316,2,160,4|4|4,0:0|0:0|0:0,0:0:0:0:
228,288,43477,1,4,0:0:0:0:
200,304,43966,5,4,0:0:0:0:
76,192,44455,5,2,0:0:0:0:
76,192,44618,2,0,P|64:144|72:96,1,80
112,44,44863,1,0,0:0:0:0:
112,44,44944,6,0,L|212:16,1,80,4|0,0:0|0:0,0:0:0:0:
364,88,45270,2,0,L|286:109,1,80,8|0,0:0|0:0,0:0:0:0:
168,160,45596,1,2,0:0:0:0:
292,256,45760,1,0,0:0:0:0:
168,160,45923,2,0,P|136:204|128:244,1,80,8|0,0:0|0:0,0:0:0:0:
330,324,46249,6,0,P|316:286|291:255,1,80,2|0,0:0|0:0,0:0:0:0:
256,140,46575,1,8,0:0:0:0:
256,140,46738,1,0,0:0:0:0:
200,256,46901,2,0,L|168:344,1,80,2|0,0:0|0:0,0:0:0:0:
380,192,47227,2,0,L|352:116,1,80,8|0,0:0|0:0,0:0:0:0:
316,44,47471,1,0,0:0:0:0:
316,44,47553,6,0,B|272:44|272:44|232:24,1,80,4|0,0:0|0:0,0:0:0:0:
80,112,47879,2,0,B|124:112|124:112|164:132,1,80,8|0,0:0|0:0,0:0:0:0:
272,200,48205,1,2,0:0:0:0:
204,272,48368,1,0,0:0:0:0:
348,272,48531,2,0,P|360:232|356:180,1,80,8|0,0:0|0:0,0:0:0:0:
204,272,48857,6,0,P|203:311|215:349,1,80,2|0,0:0|0:0,0:0:0:0:
300,360,49102,1,0,0:0:0:0:
300,360,49183,1,8,0:0:0:0:
116,264,49346,1,0,0:0:0:0:
116,264,49428,1,0,0:0:0:0:
116,264,49510,1,2,0:0:0:0:
264,168,49673,1,0,0:0:0:0:
172,140,49836,2,0,P|200:104|256:80,1,80,8|0,0:0|0:0,0:0:0:0:
304,52,50080,1,0,0:0:0:0:
304,52,50162,6,0,L|372:104,1,80,4|0,0:0|0:0,0:0:0:0:
260,192,50488,2,0,L|340:192,1,80,8|0,0:0|0:0,0:0:0:0:
304,332,50814,2,0,L|372:280,2,80,2|0|8,0:0|0:0|0:0,0:0:0:0:
260,192,51303,1,0,0:0:0:0:
260,192,51466,6,0,P|208:212|108:164,1,160,4|10,0:0|0:0,0:0:0:0:
88,80,51955,1,0,0:0:0:0:
192,44,52118,2,2,B|232:44|232:44|280:64,1,80,2|0,0:0|0:0,0:0:0:0:
448,152,52444,2,2,B|408:152|408:152|360:132,1,80,10|0,0:0|0:0,0:0:0:0:
260,192,52770,6,0,L|260:372,1,160,4|8,0:0|0:0,0:0:0:0:
172,264,53260,1,0,0:0:0:0:
340,228,53423,2,0,L|340:140,1,80,8|2,0:0|0:0,0:0:0:0:
340,148,53667,1,0,0:0:0:0:
340,148,53749,1,8,0:0:0:0:
172,184,53912,1,2,0:0:0:0:
172,184,53994,1,0,0:0:0:0:
172,184,54075,2,0,L|172:264,1,80,4|0,0:0|0:0,0:0:0:0:
84,344,54401,5,8,0:0:0:0:
256,320,54564,1,0,0:0:0:0:
256,320,54890,1,0,0:0:0:0:
256,320,54971,1,0,0:0:0:0:
256,320,55053,2,0,P|308:324|352:312,1,80,8|0,0:0|0:0,0:0:0:0:
404,280,55298,1,0,0:0:0:0:
404,280,55379,6,0,L|460:348,1,80,4|0,0:0|0:0,0:0:0:0:
488,192,55705,2,0,P|488:148|468:108,1,80,8|0,0:0|0:0,0:0:0:0:
344,44,56031,2,0,P|328:80|329:120,1,80,2|0,0:0|0:0,0:0:0:0:
392,216,56357,1,8,0:0:0:0:
392,216,56520,1,0,0:0:0:0:
256,296,56683,6,0,L|164:332,1,80,2|0,0:0|0:0,0:0:0:0:
52,192,57010,2,0,L|136:192,1,80,8|0,0:0|0:0,0:0:0:0:
256,88,57336,2,0,L|164:52,1,80,2|2,0:0|0:0,0:0:0:0:
181,58,57580,1,0,0:0:0:0:
181,58,57662,1,8,0:0:0:0:
340,148,57825,5,2,0:0:0:0:
340,148,57906,1,0,0:0:0:0:
340,148,57988,2,0,B|340:192|340:192|356:232,1,80,4|0,0:0|0:0,0:0:0:0:
158,225,58314,2,0,B|172:192|172:192|172:148,1,80,8|0,0:0|0:0,0:0:0:0:
256,296,58640,2,0,L|176:344,1,80,2|0,0:0|0:0,0:0:0:0:
256,124,58966,2,0,L|336:76,1,80,8|0,0:0|0:0,0:0:0:0:
268,312,59292,6,0,L|188:360,1,80,2|0,0:0|0:0,0:0:0:0:
268,140,59618,2,0,L|348:92,1,80,8|0,0:0|0:0,0:0:0:0:
336,98,59863,1,0,0:0:0:0:
336,98,59944,1,2,0:0:0:0:
204,48,60107,1,2,0:0:0:0:
204,48,60189,1,0,0:0:0:0:
204,48,60270,2,0,L|135:89,1,80
72,136,60515,1,0,0:0:0:0:
72,136,60596,6,0,B|72:176|72:176|96:220,1,80,4|0,0:0|0:0,0:0:0:0:
180,292,60923,1,8,0:0:0:0:
180,292,61086,1,0,0:0:0:0:
264,208,61249,2,0,B|283:172|283:172|283:132,2,80,2|0|8,0:0|0:0|0:0,0:0:0:0:
352,244,61738,1,0,0:0:0:0:
208,52,61901,6,0,L|208:132,1,80,2|0,0:0|0:0,0:0:0:0:
364,160,62227,2,0,L|364:80,1,80,10|0,0:0|0:0,0:0:0:0:
184,48,62553,2,0,L|184:128,1,80,2|0,0:0|0:0,0:0:0:0:
396,160,62879,2,0,L|396:80,1,80,10|0,0:0|0:0,0:0:0:0:
256,104,63205,5,4,0:0:0:0:
320,260,63368,1,0,0:0:0:0:
396,160,63531,1,8,0:0:0:0:
256,104,63694,1,0,0:0:0:0:
256,104,63857,2,0,B|212:104|212:104|180:128,1,80,2|0,0:0|0:0,0:0:0:0:
183,258,64183,2,0,B|212:280|212:280|256:280,1,80,8|0,0:0|0:0,0:0:0:0:
256,280,64428,1,0,0:0:0:0:
256,280,64510,5,4,0:0:0:0:
388,192,64673,1,0,0:0:0:0:
388,192,64754,1,0,0:0:0:0:
388,192,64836,2,0,L|416:276,2,80,8|0|2,0:0|0:0|0:0,0:0:0:0:
256,128,65325,1,0,0:0:0:0:
124,192,65488,2,0,L|96:276,1,80,2|0,0:0|0:0,0:0:0:0:
68,340,65732,1,0,0:0:0:0:
68,340,65814,6,0,B|116:340|116:340|148:360,1,80,4|0,0:0|0:0,0:0:0:0:
256,248,66140,2,0,L|256:336,1,80,8|0,0:0|0:0,0:0:0:0:
444,340,66466,2,0,B|396:340|396:340|364:360,2,80,2|0|8,0:0|0:0|0:0,0:0:0:0:
444,220,66955,5,0,0:0:0:0:
444,220,67037,1,0,0:0:0:0:
444,220,67118,2,0,P|456:168|444:128,1,80,2|0,0:0|0:0,0:0:0:0:
316,48,67444,2,0,P|310:87|322:125,1,80,8|0,0:0|0:0,0:0:0:0:
360,232,67770,1,2,0:0:0:0:
236,136,67933,1,0,0:0:0:0:
360,232,68096,1,8,0:0:0:0:
404,76,68260,1,0,0:0:0:0:
268,208,68423,6,0,L|264:296,1,80,4|0,0:0|0:0,0:0:0:0:
148,344,68749,2,0,L|151:264,1,80,8|0,0:0|0:0,0:0:0:0:
368,260,69075,2,0,L|364:339,1,80,2|0,0:0|0:0,0:0:0:0:
128,344,69401,2,0,L|131:264,1,80,8|0,0:0|0:0,0:0:0:0:
144,184,69645,1,0,0:0:0:0:
144,184,69727,6,0,B|100:184|100:184|60:200,1,80,2|0,0:0|0:0,0:0:0:0:
120,72,70053,2,0,B|164:72|164:72|204:56,1,80,8|0,0:0|0:0,0:0:0:0:
197,58,70298,1,0,0:0:0:0:
197,58,70379,1,2,0:0:0:0:
256,152,70542,1,0,0:0:0:0:
314,58,70705,2,0,B|348:72|348:72|392:72,1,80,8|0,0:0|0:0,0:0:0:0:
476,192,71031,6,0,P|488:228|476:288,2,80,4|0|8,0:0|0:0|0:0,0:0:0:0:
376,240,71520,1,0,0:0:0:0:
280,192,71683,2,0,P|271:230|279:269,2,80,2|0|8,0:0|0:0|0:0,0:0:0:0:
160,140,72173,1,0,0:0:0:0:
256,64,72336,6,0,B|296:64|296:64|344:84,2,80,2|0|8,0:0|0:0|0:0,0:0:0:0:
280,192,72825,1,0,0:0:0:0:
160,140,72988,2,0,B|120:140|120:140|72:112,1,80,2|0,0:0|0:0,0:0:0:0:
85,119,73232,1,0,0:0:0:0:
85,119,73314,1,8,0:0:0:0:
68,248,73477,5,0,0:0:0:0:
68,248,73558,1,0,0:0:0:0:
68,248,73640,2,0,L|128:312,1,80,4|0,0:0|0:0,0:0:0:0:
256,296,73966,2,0,L|256:212,1,80,8|0,0:0|0:0,0:0:0:0:
444,248,74292,2,0,L|384:312,1,80,8|0,0:0|0:0,0:0:0:0:
360,192,74618,1,8,0:0:0:0:
388,64,74781,1,0,0:0:0:0:
360,192,74944,6,0,P|320:192|276:164,1,80,4|0,0:0|0:0,0:0:0:0:
192,80,75270,1,0,0:0:0:0:
192,80,75433,2,0,P|152:76|64:164,1,160,4|0,0:0|0:0,0:0:0:0:
64,260,75923,1,8,0:0:0:0:
256,240,76086,5,0,0:0:0:0:
256,240,76167,1,0,0:0:0:0:
256,240,76249,2,0,L|344:252,1,80,4|0,0:0|0:0,0:0:0:0:
335,133,76575,2,0,L|256:144,1,80,8|0,0:0|0:0,0:0:0:0:
276,320,76901,2,0,L|364:332,1,80,8|0,0:0|0:0,0:0:0:0:
276,64,77227,2,0,L|196:74,1,80,8|0,0:0|0:0,0:0:0:0:
120,92,77471,1,0,0:0:0:0:
120,92,77553,6,0,B|120:136|120:136|88:172,1,80,4|0,0:0|0:0,0:0:0:0:
96,268,77879,1,0,0:0:0:0:
96,268,78042,2,0,B|144:268|180:268|180:268|220:268|248:308,1,160,4|0,0:0|0:0,0:0:0:0:
128,348,78531,2,0,L|32:348,1,80,2|0,0:0|0:0,0:0:0:0:
124,192,78857,6,0,L|220:192,1,80,4|0,0:0|0:0,0:0:0:0:
356,188,79183,1,0,0:0:0:0:
256,84,79346,1,0,0:0:0:0:
356,188,79510,2,0,P|380:272|344:336,1,160,2|0,0:0|0:0,0:0:0:0:
164,332,79999,2,0,P|130:261|156:188,1,160,2|0,0:0|0:0,0:0:0:0:
356,188,80488,2,0,L|392:96,1,80,2|0,0:0|0:0,0:0:0:0:
256,132,80814,2,0,L|256:44,1,80,2|0,0:0|0:0,0:0:0:0:
156,188,81140,2,0,L|120:96,1,80,2|0,0:0|0:0,0:0:0:0:
256,132,81466,6,0,L|256:304,1,160,4|0,0:0|0:0,0:0:0:0:
344,188,81955,1,0,0:0:0:0:
216,288,82118,2,0,L|216:128,1,160,2|0,0:0|0:0,0:0:0:0:
256,40,82607,1,0,0:0:0:0:
132,140,82770,6,0,B|132:96|132:96|108:56,1,80,2|0,0:0|0:0,0:0:0:0:
380,140,83096,2,0,B|380:96|380:96|404:56,1,80,2|0,0:0|0:0,0:0:0:0:
160,140,83423,2,0,B|160:96|160:96|136:56,1,80,2|0,0:0|0:0,0:0:0:0:
352,140,83749,2,0,B|352:96|352:96|370:65,1,80,2|0,0:0|0:0,0:0:0:0:
432,248,84075,5,4,0:0:0:0:
396,256,84727,1,4,0:0:0:0:
360,264,85379,1,4,0:0:0:0:
324,276,86031,1,4,0:0:0:0:
324,276,86683,6,0,L|240:312,1,80,4|0,0:0|0:0,0:0:0:0:
104,192,87010,2,0,L|212:192,1,80,4|0,0:0|0:0,0:0:0:0:
324,108,87336,2,0,L|240:72,1,80,4|8,0:0|0:0,0:0:0:0:
250,76,87580,1,0,0:0:0:0:
250,76,87662,1,8,0:0:0:0:
324,276,87825,1,0,0:0:0:0:
324,276,87906,1,0,0:0:0:0:
324,276,87988,2,0,L|240:312,1,80,4|0,0:0|0:0,0:0:0:0:
448,192,88477,5,4,0:0:0:0:
