osu file format v11

[General]
AudioFilename: huwawa.mp3
AudioLeadIn: 2000
PreviewTime: 111459
Countdown: 0
SampleSet: Soft
StackLeniency: 0.5
Mode: 0
LetterboxInBreaks: 0

[Editor]
DistanceSpacing: 1
BeatDivisor: 4
GridSize: 4

[Metadata]
Title:Daisuki Huwawa
TitleUnicode:だいすきふわわ
Artist:Ogura Yui
ArtistUnicode:小倉 唯
Creator:Rotte
Version:reInsane
Source:RO-KYU-BU!
Tags:hakamada hinata
BeatmapID:206789
BeatmapSetID:54425

[Difficulty]
HPDrainRate:7
CircleSize:4
OverallDifficulty:7
ApproachRate:8
SliderMultiplier:1.8
SliderTickRate:2

[Events]
//Background and Video events
0,0,"BG.jpg"
//Break Periods
//Storyboard Layer 0 (Background)
//Storyboard Layer 1 (Fail)
//Storyboard Layer 2 (Pass)
//Storyboard Layer 3 (Foreground)
//Storyboard Sound Samples
//Background Colour Transformations
3,100,163,162,255

[TimingPoints]
541,454.566116641666,4,2,0,50,1,0
60543,-100,4,1,0,65,0,1
74976,-100,4,1,0,65,0,0
75089,-100,4,1,0,75,0,1
89635,-100,4,1,0,75,0,0
147820,-100,4,1,0,65,0,1
162252,-100,4,1,0,65,0,0
162366,-100,4,1,0,80,0,1
176912,-100,4,1,0,80,0,0
211459,-100,4,1,0,65,0,1
225892,-100,4,1,0,65,0,0
226005,-100,4,1,0,85,0,1
240551,-100,4,1,0,65,0,0
269757,-100,4,2,0,20,0,0

[Colours]
Combo1 : 0,128,192
Combo2 : 255,128,192
Combo3 : 255,0,0
Combo4 : 255,128,255

[HitObjects]
256,192,541,12,0,2131,0:0:0
256,192,2359,5,4,0:0:0
216,272,2586,2,0,P|180:292|132:300,1,90
52,264,3041,1,0,0:0:0
92,184,3268,2,0,P|128:164|176:156,1,90
304,196,3722,2,0,P|352:188|388:168,1,90
504,32,4177,1,0,0:0:0
368,36,4404,2,0,P|320:44|284:64,1,90
212,116,4859,1,2,0:0:0
268,188,5086,2,0,P|316:180|352:160,2,90
88,196,5995,6,0,B|57:162|56:114,1,90,2|0,0:0|0:0,0:0:0
104,36,6450,1,0,0:0:0
192,24,6677,1,0,0:0:0
264,76,6904,2,0,B|294:109|295:157,1,90,2|0,0:0|0:0,0:0:0
247,285,7359,2,0,B|217:252|216:204,1,90,2|0,0:0|0:0,0:0:0
264,76,7814,1,0,0:0:0
400,76,8041,2,0,B|430:109|431:158,1,90
380,284,8495,1,0,0:0:0
379,284,8723,2,0,B|348:250|347:201,2,90
432,158,9405,1,0,0:0:0
304,120,9632,6,0,P|260:104|216:124|216:124|216:176|172:204,1,180
72,56,10541,2,0,P|108:88|124:128,1,90
48,172,10996,2,0,P|80:144|124:126,1,90
252,88,11450,1,0,0:0:0
448,272,11905,5,0,0:0:0
320,316,12132,1,0,0:0:0
184,320,12359,2,0,P|136:304|104:280,1,90
176,136,12814,2,0,P|224:152|256:176,1,90
180,228,13268,1,0,0:0:0
24,136,13723,1,0,0:0:0
127,18,13950,1,0,0:0:0
194,78,14177,1,0,0:0:0
41,46,14405,1,0,0:0:0
194,78,14632,5,0,0:0:0
226,82,14746,1,0,0:0:0
258,78,14859,1,0,0:0:0
286,70,14973,1,0,0:0:0
312,56,15087,2,0,P|376:40|436:68,2,135
232,216,16223,5,0,0:0:0
236,248,16337,1,0,0:0:0
248,276,16450,1,0,0:0:0
264,304,16564,1,0,0:0:0
288,324,16678,1,0,0:0:0
316,336,16791,1,0,0:0:0
348,340,16905,1,0,0:0:0
436,336,17132,2,0,P|472:304|484:264,1,90
448,184,17587,2,0,P|402:168|361:178,1,90
312,252,18041,2,0,P|321:299|350:329,1,90
400,256,18496,1,0,0:0:0
248,160,18950,5,0,0:0:0
