osu file format v12

[General]
AudioFilename: Charming Do!.mp3
AudioLeadIn: 0
PreviewTime: 67158
Countdown: 0
SampleSet: Normal
StackLeniency: 0.7
Mode: 1
LetterboxInBreaks: 0
WidescreenStoryboard: 0

[Editor]
DistanceSpacing: 1
BeatDivisor: 4
GridSize: 32
TimelineZoom: 0.9

[Metadata]
Title:Charming Do! (TV Size)
TitleUnicode:Charming Do! (TV Size)
Artist:Ogura Yui
ArtistUnicode:小倉唯
Creator:Nardoxyribonucleic
Version:Oni
Source:最近、妹のようすがちょっとおかしいんだが。
Tags:Taiko Recently my sister is unusual Saikin Imouto no Yousu ga Chotto Okashiin da ga imocho Ending meetmeetdee JUDYDANNY
BeatmapID:354702
BeatmapSetID:142442

[Difficulty]
HPDrainRate:6
CircleSize:5
OverallDifficulty:6
ApproachRate:5
SliderMultiplier:1.4
SliderTickRate:1

[Events]
//Background and Video events
0,0,"imocho_bg.JPG",0,-55
//Break Periods
//Storyboard Layer 0 (Background)
//Storyboard Layer 1 (Fail)
//Storyboard Layer 2 (Pass)
//Storyboard Layer 3 (Foreground)
//Storyboard Sound Samples
//Background Colour Transformations
3,100,163,162,255

[TimingPoints]
1121,344.827586206897,4,1,0,90,1,0
67155,-100,4,1,0,90,0,1
87845,-100,4,1,0,45,0,0
88189,-100,4,1,0,35,0,0
88534,-100,4,1,0,25,0,0
88879,-100,4,1,0,15,0,0
89224,-100,4,1,0,5,0,0

[HitObjects]
256,192,948,5,0,0:0:0:0:
256,192,1293,1,0,0:0:0:0:
256,192,1465,1,8,0:0:0:0:
256,192,1638,1,0,0:0:0:0:
256,192,1810,1,0,0:0:0:0:
256,192,2155,1,0,0:0:0:0:
256,192,2327,1,8,0:0:0:0:
256,192,2672,1,0,0:0:0:0:
256,192,2845,1,8,0:0:0:0:
256,192,3017,1,0,0:0:0:0:
256,192,3189,1,0,0:0:0:0:
256,192,3534,1,0,0:0:0:0:
256,192,3707,1,8,0:0:0:0:
256,192,4052,1,8,0:0:0:0:
256,192,4224,1,0,0:0:0:0:
256,192,4396,1,0,0:0:0:0:
256,192,4569,1,8,0:0:0:0:
256,192,4741,1,8,0:0:0:0:
256,192,4914,1,0,0:0:0:0:
256,192,5086,1,8,0:0:0:0:
256,192,5431,1,8,0:0:0:0:
256,192,5603,1,8,0:0:0:0:
256,192,6121,1,0,0:0:0:0:
256,192,6293,1,8,0:0:0:0:
256,192,6465,1,0,0:0:0:0:
256,192,6810,1,0,0:0:0:0:
256,192,6983,1,8,0:0:0:0:
256,192,7155,1,0,0:0:0:0:
256,192,7327,1,0,0:0:0:0:
256,192,7672,1,0,0:0:0:0:
256,192,7845,1,8,0:0:0:0:
256,192,8189,1,0,0:0:0:0:
256,192,8362,1,8,0:0:0:0:
256,192,8534,1,8,0:0:0:0:
256,192,8707,1,0,0:0:0:0:
256,192,9052,1,0,0:0:0:0:
256,192,9224,1,8,0:0:0:0:
256,192,9569,1,0,0:0:0:0:
256,192,9741,1,8,0:0:0:0:
256,192,9914,1,0,0:0:0:0:
256,192,10086,1,8,0:0:0:0:
256,192,10258,1,8,0:0:0:0:
256,192,10431,1,8,0:0:0:0:
256,192,10603,1,0,0:0:0:0:
256,192,10948,1,0,0:0:0:0:
256,192,11121,1,8,0:0:0:0:
256,192,11293,1,0,0:0:0:0:
256,192,11465,1,0,0:0:0:0:
256,192,11638,1,8,0:0:0:0:
256,192,11724,1,8,0:0:0:0:
256,192,11810,1,8,0:0:0:0:
256,192,11983,1,4,0:0:0:0:
256,192,12327,1,0,0:0:0:0:
256,192,12500,1,8,0:0:0:0:
256,192,12672,1,0,0:0:0:0:
256,192,12758,1,0,0:0:0:0:
256,192,12845,1,8,0:0:0:0:
256,192,13017,1,0,0:0:0:0:
256,192,13189,1,8,0:0:0:0:
256,192,13362,1,0,0:0:0:0:
256,192,13707,1,0,0:0:0:0:
256,192,13879,1,8,0:0:0:0:
256,192,14052,1,0,0:0:0:0:
256,192,14396,1,0,0:0:0:0:
256,192,14569,1,0,0:0:0:0:
256,192,14741,1,12,0:0:0:0:
256,192,15086,1,0,0:0:0:0:
256,192,15258,1,8,0:0:0:0:
256,192,15431,1,8,0:0:0:0:
256,192,15603,1,0,0:0:0:0:
256,192,15689,1,0,0:0:0:0:
256,192,15776,1,0,0:0:0:0:
256,192,15948,1,8,0:0:0:0:
256,192,16121,1,0,0:0:0:0:
256,192,16465,1,8,0:0:0:0:
256,192,16638,1,8,0:0:0:0:
256,192,16983,1,0,0:0:0:0:
256,192,17155,1,0,0:0:0:0:
256,192,17327,1,8,0:0:0:0:
256,192,17500,1,4,0:0:0:0:
256,192,17845,1,0,0:0:0:0:
256,192,18017,1,8,0:0:0:0:
256,192,18189,1,0,0:0:0:0:
256,192,18276,1,0,0:0:0:0:
256,192,18362,1,8,0:0:0:0:
256,192,18534,1,0,0:0:0:0:
256,192,18707,1,8,0:0:0:0:
256,192,18879,1,0,0:0:0:0:
256,192,19224,1,0,0:0:0:0:
256,192,19396,1,8,0:0:0:0:
256,192,19569,1,0,0:0:0:0:
256,192,19914,1,0,0:0:0:0:
256,192,20086,1,0,0:0:0:0:
256,192,20258,1,12,0:0:0:0:
256,192,20603,1,0,0:0:0:0:
256,192,20776,1,8,0:0:0:0:
256,192,20948,1,8,0:0:0:0:
256,192,21121,1,0,0:0:0:0:
256,192,21207,1,0,0:0:0:0:
256,192,21293,1,0,0:0:0:0:
256,192,21465,1,8,0:0:0:0:
256,192,21638,1,0,0:0:0:0:
256,192,21983,1,0,0:0:0:0:
256,192,22155,1,8,0:0:0:0:
256,192,22327,1,0,0:0:0:0:
256,192,22500,1,8,0:0:0:0:
256,192,22586,1,8,0:0:0:0:
256,192,22672,1,0,0:0:0:0:
256,192,22758,1,0,0:0:0:0:
256,192,22845,1,8,0:0:0:0:
256,192,23017,1,0,0:0:0:0:
256,192,23189,1,4,0:0:0:0:
256,192,23362,1,0,0:0:0:0:
256,192,23534,1,8,0:0:0:0:
256,192,23707,1,8,0:0:0:0:
256,192,23879,1,0,0:0:0:0:
256,192,24052,1,0,0:0:0:0:
256,192,24138,1,0,0:0:0:0:
256,192,24224,1,8,0:0:0:0:
256,192,24396,1,0,0:0:0:0:
256,192,24741,1,0,0:0:0:0:
256,192,24914,1,8,0:0:0:0:
256,192,25086,1,0,0:0:0:0:
256,192,25431,1,0,0:0:0:0:
256,192,25603,1,8,0:0:0:0:
256,192,25776,1,0,0:0:0:0:
256,192,25948,1,8,0:0:0:0:
256,192,26121,1,8,0:0:0:0:
256,192,26465,1,0,0:0:0:0:
256,192,26810,1,0,0:0:0:0:
256,192,26983,1,0,0:0:0:0:
256,192,27155,1,8,0:0:0:0:
256,192,27500,1,0,0:0:0:0:
256,192,27672,1,8,0:0:0:0:
256,192,27845,1,0,0:0:0:0:
256,192,27931,1,0,0:0:0:0:
256,192,28017,1,8,0:0:0:0:
256,192,28189,1,0,0:0:0:0:
256,192,28362,1,8,0:0:0:0:
256,192,28534,1,0,0:0:0:0:
256,192,28879,1,0,0:0:0:0:
256,192,29052,1,8,0:0:0:0:
256,192,29224,1,0,0:0:0:0:
256,192,29396,1,8,0:0:0:0:
256,192,29569,1,0,0:0:0:0:
256,192,29655,1,0,0:0:0:0:
256,192,29741,1,8,0:0:0:0:
256,192,29914,1,0,0:0:0:0:
256,192,30258,1,0,0:0:0:0:
256,192,30431,1,8,0:0:0:0:
256,192,30603,1,0,0:0:0:0:
256,192,30948,1,0,0:0:0:0:
256,192,31121,1,8,0:0:0:0:
256,192,31293,1,0,0:0:0:0:
256,192,31465,1,8,0:0:0:0:
256,192,31638,1,8,0:0:0:0:
256,192,31983,1,0,0:0:0:0:
256,192,32327,1,0,0:0:0:0:
256,192,32500,1,8,0:0:0:0:
256,192,32672,1,8,0:0:0:0:
256,192,33017,1,0,0:0:0:0:
256,192,33189,1,8,0:0:0:0:
256,192,33362,1,0,0:0:0:0:
256,192,33534,1,0,0:0:0:0:
256,192,33621,1,8,0:0:0:0:
256,192,33707,1,8,0:0:0:0:
256,192,33879,1,8,0:0:0:0:
256,192,34052,1,4,0:0:0:0:
256,192,34396,1,0,0:0:0:0:
256,192,34569,1,8,0:0:0:0:
256,192,34741,1,0,0:0:0:0:
256,192,34914,1,8,0:0:0:0:
256,192,35086,1,0,0:0:0:0:
256,192,35172,1,0,0:0:0:0:
256,192,35258,1,8,0:0:0:0:
256,192,35431,1,0,0:0:0:0:
256,192,35776,1,0,0:0:0:0:
256,192,35948,1,8,0:0:0:0:
256,192,36121,1,0,0:0:0:0:
256,192,36465,1,0,0:0:0:0:
256,192,36638,1,8,0:0:0:0:
256,192,36810,1,0,0:0:0:0:
256,192,36983,1,8,0:0:0:0:
256,192,37155,1,8,0:0:0:0:
256,192,37500,1,0,0:0:0:0:
256,192,37845,1,8,0:0:0:0:
256,192,38017,1,0,0:0:0:0:
256,192,38189,1,8,0:0:0:0:
256,192,38534,1,0,0:0:0:0:
256,192,38879,1,0,0:0:0:0:
256,192,38965,1,0,0:0:0:0:
256,192,39052,1,0,0:0:0:0:
256,192,39224,1,0,0:0:0:0:
256,192,39396,1,8,0:0:0:0:
256,192,39569,1,0,0:0:0:0:
256,192,39914,1,0,0:0:0:0:
256,192,40086,1,8,0:0:0:0:
256,192,40258,1,0,0:0:0:0:
256,192,40431,1,8,0:0:0:0:
256,192,40517,1,0,0:0:0:0:
256,192,40603,1,8,0:0:0:0:
256,192,40776,1,8,0:0:0:0:
256,192,40948,1,0,0:0:0:0:
256,192,41293,1,0,0:0:0:0:
256,192,41465,1,8,0:0:0:0:
256,192,41638,1,0,0:0:0:0:
256,192,41983,1,0,0:0:0:0:
256,192,42155,1,8,0:0:0:0:
256,192,42327,1,0,0:0:0:0:
256,192,42500,1,8,0:0:0:0:
256,192,42672,1,8,0:0:0:0:
256,192,43017,1,0,0:0:0:0:
256,192,43362,1,8,0:0:0:0:
256,192,43534,1,0,0:0:0:0:
256,192,43707,1,12,0:0:0:0:
256,192,44052,1,0,0:0:0:0:
256,192,44396,1,0,0:0:0:0:
256,192,44569,1,8,0:0:0:0:
256,192,44655,1,0,0:0:0:0:
256,192,44741,1,8,0:0:0:0:
256,192,44827,1,8,0:0:0:0:
256,192,44914,1,8,0:0:0:0:
256,192,45086,1,4,0:0:0:0:
256,192,45431,1,0,0:0:0:0:
256,192,45603,1,8,0:0:0:0:
256,192,45776,1,0,0:0:0:0:
256,192,45948,1,8,0:0:0:0:
256,192,46034,1,8,0:0:0:0:
256,192,46121,1,0,0:0:0:0:
256,192,46293,1,8,0:0:0:0:
256,192,46465,1,0,0:0:0:0:
256,192,46810,1,0,0:0:0:0:
256,192,46983,1,8,0:0:0:0:
256,192,47155,1,0,0:0:0:0:
256,192,47327,1,0,0:0:0:0:
256,192,47500,1,8,0:0:0:0:
256,192,47672,1,8,0:0:0:0:
256,192,47845,1,4,0:0:0:0:
256,192,48189,1,0,0:0:0:0:
256,192,48362,1,8,0:0:0:0:
256,192,48534,1,0,0:0:0:0:
256,192,48707,1,0,0:0:0:0:
256,192,48793,1,0,0:0:0:0:
256,192,48879,1,0,0:0:0:0:
256,192,49052,1,8,0:0:0:0:
256,192,49224,1,0,0:0:0:0:
256,192,49569,1,0,0:0:0:0:
256,192,49741,1,8,0:0:0:0:
256,192,49914,1,8,0:0:0:0:
256,192,50086,1,0,0:0:0:0:
256,192,50258,1,8,0:0:0:0:
256,192,50345,1,8,0:0:0:0:
256,192,50431,1,8,0:0:0:0:
256,192,50603,1,4,0:0:0:0:
256,192,50948,1,0,0:0:0:0:
256,192,51121,1,8,0:0:0:0:
256,192,51293,1,0,0:0:0:0:
256,192,51379,1,0,0:0:0:0:
256,192,51465,1,0,0:0:0:0:
256,192,51638,1,0,0:0:0:0:
256,192,51810,1,8,0:0:0:0:
256,192,51983,1,0,0:0:0:0:
256,192,52327,1,0,0:0:0:0:
256,192,52500,1,8,0:0:0:0:
256,192,52672,1,0,0:0:0:0:
256,192,53017,1,0,0:0:0:0:
256,192,53103,1,0,0:0:0:0:
256,192,53189,1,8,0:0:0:0:
256,192,53362,1,4,0:0:0:0:
256,192,53707,1,0,0:0:0:0:
256,192,53879,1,8,0:0:0:0:
256,192,54224,1,0,0:0:0:0:
256,192,54396,1,0,0:0:0:0:
256,192,54569,1,8,0:0:0:0:
256,192,54741,1,0,0:0:0:0:
256,192,55086,1,0,0:0:0:0:
256,192,55258,1,8,0:0:0:0:
256,192,55603,1,0,0:0:0:0:
256,192,55776,1,0,0:0:0:0:
256,192,55948,1,8,0:0:0:0:
256,192,56121,1,4,0:0:0:0:
256,192,56465,1,0,0:0:0:0:
256,192,56638,1,8,0:0:0:0:
256,192,56724,1,8,0:0:0:0:
256,192,56810,1,0,0:0:0:0:
256,192,56983,1,0,0:0:0:0:
256,192,57155,1,0,0:0:0:0:
256,192,57241,1,0,0:0:0:0:
256,192,57327,1,8,0:0:0:0:
256,192,57500,1,0,0:0:0:0:
256,192,57845,1,0,0:0:0:0:
256,192,58017,1,8,0:0:0:0:
256,192,58362,1,0,0:0:0:0:
256,192,58534,1,0,0:0:0:0:
256,192,58707,1,8,0:0:0:0:
256,192,58879,1,4,0:0:0:0:
256,192,59224,1,0,0:0:0:0:
256,192,59396,1,8,0:0:0:0:
256,192,59569,1,0,0:0:0:0:
256,192,59741,1,0,0:0:0:0:
256,192,60086,1,8,0:0:0:0:
256,192,60431,1,0,0:0:0:0:
256,192,60603,1,0,0:0:0:0:
256,192,60776,1,8,0:0:0:0:
256,192,60948,1,0,0:0:0:0:
256,192,61293,1,0,0:0:0:0:
256,192,61465,1,8,0:0:0:0:
256,192,61810,1,4,0:0:0:0:
256,192,62155,1,8,0:0:0:0:
256,192,62500,1,8,0:0:0:0:
256,192,62672,1,0,0:0:0:0:
256,192,62845,1,8,0:0:0:0:
256,192,63017,1,0,0:0:0:0:
256,192,63362,1,0,0:0:0:0:
256,192,63534,1,8,0:0:0:0:
256,192,63621,1,8,0:0:0:0:
256,192,63707,1,0,0:0:0:0:
256,192,63879,1,0,0:0:0:0:
256,192,64052,1,0,0:0:0:0:
256,192,64138,1,0,0:0:0:0:
256,192,64224,1,8,0:0:0:0:
256,192,64396,1,8,0:0:0:0:
256,192,64569,1,4,0:0:0:0:
256,192,64914,1,8,0:0:0:0:
256,192,65086,1,0,0:0:0:0:
256,192,65258,1,4,0:0:0:0:
256,192,65603,1,8,0:0:0:0:
256,192,65776,1,0,0:0:0:0:
256,192,65862,1,0,0:0:0:0:
256,192,65948,1,8,0:0:0:0:
256,192,66121,1,0,0:0:0:0:
256,192,66293,1,8,0:0:0:0:
256,192,66465,1,0,0:0:0:0:
256,192,66552,1,0,0:0:0:0:
256,192,66638,1,8,0:0:0:0:
256,192,66724,1,8,0:0:0:0:
256,192,66810,1,0,0:0:0:0:
256,192,66983,1,8,0:0:0:0:
256,192,67155,1,4,0:0:0:0:
256,192,67500,1,0,0:0:0:0:
256,192,67672,1,8,0:0:0:0:
256,192,67758,1,8,0:0:0:0:
256,192,67845,1,0,0:0:0:0:
256,192,68017,1,8,0:0:0:0:
256,192,68189,1,0,0:0:0:0:
256,192,68276,1,0,0:0:0:0:
256,192,68362,1,8,0:0:0:0:
256,192,68534,1,0,0:0:0:0:
256,192,68879,1,0,0:0:0:0:
256,192,69052,1,8,0:0:0:0:
256,192,69224,1,0,0:0:0:0:
256,192,69396,1,0,0:0:0:0:
256,192,69483,1,0,0:0:0:0:
256,192,69569,1,8,0:0:0:0:
256,192,69741,1,8,0:0:0:0:
256,192,69914,1,12,0:0:0:0:
256,192,70258,1,0,0:0:0:0:
256,192,70431,1,8,0:0:0:0:
256,192,70603,1,0,0:0:0:0:
256,192,70689,1,0,0:0:0:0:
256,192,70776,1,8,0:0:0:0:
256,192,70948,1,8,0:0:0:0:
256,192,71034,1,0,0:0:0:0:
256,192,71121,1,8,0:0:0:0:
256,192,71293,1,0,0:0:0:0:
256,192,71638,1,8,0:0:0:0:
256,192,71810,1,8,0:0:0:0:
256,192,71983,1,0,0:0:0:0:
256,192,72155,1,0,0:0:0:0:
256,192,72241,1,0,0:0:0:0:
256,192,72327,1,0,0:0:0:0:
256,192,72414,1,0,0:0:0:0:
256,192,72500,1,8,0:0:0:0:
256,192,72672,1,4,0:0:0:0:
256,192,73017,1,0,0:0:0:0:
256,192,73189,1,8,0:0:0:0:
256,192,73276,1,8,0:0:0:0:
256,192,73362,1,0,0:0:0:0:
256,192,73534,1,8,0:0:0:0:
256,192,73707,1,0,0:0:0:0:
256,192,73793,1,0,0:0:0:0:
256,192,73879,1,8,0:0:0:0:
256,192,74052,1,8,0:0:0:0:
256,192,74396,1,0,0:0:0:0:
256,192,74569,1,8,0:0:0:0:
256,192,74741,1,0,0:0:0:0:
256,192,74914,1,0,0:0:0:0:
256,192,75000,1,0,0:0:0:0:
256,192,75086,1,8,0:0:0:0:
256,192,75172,1,0,0:0:0:0:
256,192,75258,1,8,0:0:0:0:
256,192,75431,1,12,0:0:0:0:
256,192,75776,1,0,0:0:0:0:
256,192,75948,1,8,0:0:0:0:
256,192,76121,1,0,0:0:0:0:
256,192,76293,1,8,0:0:0:0:
256,192,76379,1,8,0:0:0:0:
256,192,76465,1,0,0:0:0:0:
256,192,76638,1,8,0:0:0:0:
256,192,76810,1,0,0:0:0:0:
256,192,76896,1,0,0:0:0:0:
256,192,76983,1,8,0:0:0:0:
256,192,77069,1,8,0:0:0:0:
256,192,77155,1,0,0:0:0:0:
256,192,77327,1,8,0:0:0:0:
256,192,77500,1,0,0:0:0:0:
256,192,77586,1,0,0:0:0:0:
256,192,77672,1,0,0:0:0:0:
256,192,77845,1,8,0:0:0:0:
256,192,77931,1,8,0:0:0:0:
256,192,78017,1,8,0:0:0:0:
256,192,78189,1,4,0:0:0:0:
256,192,78534,1,0,0:0:0:0:
256,192,78707,1,8,0:0:0:0:
256,192,78793,1,8,0:0:0:0:
256,192,78879,1,0,0:0:0:0:
256,192,79052,1,0,0:0:0:0:
256,192,79224,1,8,0:0:0:0:
256,192,79310,1,8,0:0:0:0:
256,192,79396,1,8,0:0:0:0:
256,192,79569,1,0,0:0:0:0:
256,192,79914,1,0,0:0:0:0:
256,192,80086,1,8,0:0:0:0:
256,192,80258,1,0,0:0:0:0:
256,192,80431,1,0,0:0:0:0:
256,192,80517,1,0,0:0:0:0:
256,192,80603,1,8,0:0:0:0:
256,192,80776,1,8,0:0:0:0:
256,192,80948,1,12,0:0:0:0:
256,192,81293,1,0,0:0:0:0:
256,192,81465,1,8,0:0:0:0:
256,192,81552,1,8,0:0:0:0:
256,192,81638,1,0,0:0:0:0:
256,192,81810,1,8,0:0:0:0:
256,192,81983,1,0,0:0:0:0:
256,192,82069,1,0,0:0:0:0:
256,192,82155,1,8,0:0:0:0:
256,192,82327,1,0,0:0:0:0:
256,192,82672,1,8,0:0:0:0:
256,192,82845,1,8,0:0:0:0:
256,192,83017,1,0,0:0:0:0:
256,192,83103,1,8,0:0:0:0:
256,192,83189,1,0,0:0:0:0:
256,192,83362,1,0,0:0:0:0:
256,192,83448,1,0,0:0:0:0:
256,192,83534,1,8,0:0:0:0:
256,192,83707,1,4,0:0:0:0:
256,192,84052,1,0,0:0:0:0:
256,192,84224,1,8,0:0:0:0:
256,192,84396,1,0,0:0:0:0:
256,192,84483,1,0,0:0:0:0:
256,192,84569,1,8,0:0:0:0:
256,192,84741,1,0,0:0:0:0:
256,192,84914,1,8,0:0:0:0:
256,192,85086,1,8,0:0:0:0:
256,192,85172,1,8,0:0:0:0:
256,192,85258,1,0,0:0:0:0:
256,192,85431,1,0,0:0:0:0:
256,192,85603,1,8,0:0:0:0:
256,192,85776,1,8,0:0:0:0:
256,192,85862,1,8,0:0:0:0:
256,192,85948,1,0,0:0:0:0:
256,192,86034,1,0,0:0:0:0:
256,192,86121,1,8,0:0:0:0:
256,192,86293,1,8,0:0:0:0:
256,192,86465,1,0,0:0:0:0:
256,192,86810,1,0,0:0:0:0:
256,192,86983,1,8,0:0:0:0:
256,192,87155,1,0,0:0:0:0:
256,192,87327,1,8,0:0:0:0:
256,192,87414,1,8,0:0:0:0:
256,192,87500,1,8,0:0:0:0:
256,192,87672,1,8,0:0:0:0:
256,192,87845,12,0,89224,0:0:0:0:
