osu file format v14

[General]
AudioFilename: Baby Sweet Berry Love(Tsukiko chan Maji kawa-E Remix).mp3
AudioLeadIn: 1400
PreviewTime: 91484
Countdown: 0
SampleSet: Soft
StackLeniency: 0.7
Mode: 0
LetterboxInBreaks: 0
WidescreenStoryboard: 0

[Editor]
DistanceSpacing: 0.6
BeatDivisor: 4
GridSize: 4
TimelineZoom: 3.200005

[Metadata]
Title:Baby Sweet Berry Love (Tsukiko chan Maji kawa-E Remix)
TitleUnicode:Baby Sweet Berry Love (Tsukiko chan Maji kawa-E Remix)
Artist:Ogura Yui
ArtistUnicode:小倉唯
Creator:N a s y a
Version:Tsukiko-chan
Source:変態王子と笑わない猫。
Tags:Hentai Ouji to Warawanai Neko ending you Nasya N_a_s_y_a
BeatmapID:436723
BeatmapSetID:182042

[Difficulty]
HPDrainRate:6
CircleSize:4
OverallDifficulty:9
ApproachRate:9
SliderMultiplier:1.7
SliderTickRate:1

[Events]
//Background and Video events
0,0,"bg.jpg",0,0
//Break Periods
2,210253,215624
//Storyboard Layer 0 (Background)
//Storyboard Layer 1 (Fail)
//Storyboard Layer 2 (Pass)
//Storyboard Layer 3 (Foreground)
//Storyboard Sound Samples

[TimingPoints]
1596,342.857142857143,4,2,1,50,1,0
23538,-133.333333333333,4,2,8,60,0,0
23881,-133.333333333333,4,2,8,40,0,0
33138,-100,4,2,1,60,0,0
33996,-80,4,2,1,60,0,0
34167,-66.6666666666667,4,2,1,60,0,0
34510,-100,4,2,1,70,0,0
55081,-133.333333333333,4,2,1,70,0,0
55424,-100,4,2,1,70,0,0
55767,-100,4,2,7,70,0,0
55938,-80,4,2,7,70,0,0
56110,-66.6666666666667,4,2,1,70,0,0
56453,-100,4,2,8,60,0,0
56624,-100,4,2,2,60,0,0
60567,-100,4,2,2,60,0,0
67424,-100,4,2,1,65,0,0
77024,-133.333333333333,4,2,1,65,0,0
77710,-100,4,2,1,65,0,0
77881,-80,4,2,1,65,0,0
78053,-66.6666666666667,4,2,1,65,0,0
78396,-100,4,2,8,60,0,0
78567,-100,4,2,1,60,0,0
83538,-66.6666666666667,4,2,1,60,0,0
83881,-100,4,2,1,65,0,0
90738,-133.333333333333,4,2,1,65,0,0
91424,-100,4,2,1,65,0,0
91596,-80,4,2,1,65,0,0
91767,-66.6666666666667,4,2,1,65,0,0
92110,-100,4,2,8,70,0,1
92281,-100,4,2,1,70,0,1
92967,-100,4,2,2,70,0,1
93481,-100,4,2,1,70,0,1
94338,-100,4,2,2,70,0,1
94853,-100,4,2,1,70,0,1
95710,-100,4,2,2,70,0,1
96224,-100,4,2,1,70,0,1
97081,-100,4,2,2,70,0,1
97596,-100,4,2,1,70,0,1
98453,-100,4,2,2,70,0,1
98967,-100,4,2,1,70,0,1
99824,-100,4,2,2,70,0,1
100338,-100,4,2,1,70,0,1
101196,-100,4,2,2,70,0,1
101710,-100,4,2,1,70,0,1
101881,-100,4,2,2,70,0,1
102396,-100,4,2,1,70,0,1
102567,-100,4,2,2,70,0,1
103081,-100,4,2,1,70,0,1
103938,-100,4,2,2,70,0,1
104453,-100,4,2,1,70,0,1
105310,-100,4,2,2,70,0,1
105824,-100,4,2,1,70,0,1
106681,-100,4,2,2,70,0,1
107196,-100,4,2,1,70,0,1
112681,-133.333333333333,4,2,1,70,0,1
113710,-66.6666666666667,4,2,1,70,0,1
114738,-133.333333333333,4,2,2,70,0,1
116453,-133.333333333333,4,2,1,70,0,1
119538,-100,4,2,1,70,0,1
120567,-66.6666666666667,4,2,1,70,0,1
120910,-100,4,2,1,70,0,1
121938,-66.6666666666667,4,2,1,70,0,1
122110,-100,4,2,1,70,0,1
123653,-133.333333333333,4,2,1,70,0,1
123996,-100,4,2,1,70,0,1
124338,-80,4,2,1,70,0,1
124681,-66.6666666666667,4,2,1,70,0,1
125024,-100,4,2,8,70,0,0
125196,-100,4,2,1,70,0,0
146453,-80,4,2,1,70,0,0
146624,-66.6666666666667,4,2,1,70,0,0
146967,-100,4,2,8,60,0,0
147138,-100,4,2,2,60,0,0
157081,-100,4,2,1,60,0,0
157938,-100,4,2,1,65,0,0
167538,-133.333333333333,4,2,1,65,0,0
168224,-100,4,2,1,65,0,0
168396,-80,4,2,1,65,0,0
168567,-66.6666666666667,4,2,1,65,0,0
168910,-100,4,2,8,60,0,0
169081,-100,4,2,1,60,0,0
174396,-100,4,2,1,65,0,0
181253,-133.333333333333,4,2,1,65,0,0
181938,-100,4,2,1,65,0,0
182110,-80,4,2,1,65,0,0
182281,-66.6666666666667,4,2,1,65,0,0
182624,-100,4,2,1,70,0,1
183481,-100,4,2,2,70,0,1
183996,-100,4,2,1,70,0,1
184853,-100,4,2,2,70,0,1
185367,-100,4,2,1,70,0,1
186224,-100,4,2,2,70,0,1
186738,-100,4,2,1,70,0,1
187596,-100,4,2,2,70,0,1
188110,-100,4,2,1,70,0,1
188967,-100,4,2,2,70,0,1
189481,-100,4,2,1,70,0,1
190338,-100,4,2,2,70,0,1
190853,-100,4,2,1,70,0,1
191710,-100,4,2,2,70,0,1
192224,-100,4,2,1,70,0,1
192396,-100,4,2,2,70,0,1
192910,-100,4,2,1,70,0,1
193081,-100,4,2,2,70,0,1
193596,-100,4,2,1,70,0,1
194453,-100,4,2,2,70,0,1
194967,-100,4,2,1,70,0,1
195824,-100,4,2,2,70,0,1
196338,-100,4,2,1,70,0,1
197196,-100,4,2,2,70,0,1
197710,-100,4,2,1,70,0,1
203196,-133.333333333333,4,2,1,70,0,1
204224,-66.6666666666667,4,2,1,70,0,1
204567,-66.6666666666667,4,2,8,70,0,1
205253,-133.333333333333,4,2,2,70,0,1
206967,-133.333333333333,4,2,1,70,0,1
210053,-200,4,2,9,70,0,0
219653,-100,4,2,1,60,0,0
221196,-100,4,2,2,60,0,0
226510,-100,4,2,1,60,0,0
230624,-133.333333333333,4,2,1,65,0,0
231310,-100,4,2,7,65,0,0
231481,-80,4,2,7,65,0,0
231653,-66.6666666666667,4,2,1,65,0,0
231996,-100,4,2,8,70,0,1
232167,-100,4,2,1,70,0,1
252567,-133.333333333333,4,2,1,70,0,1
253596,-66.6666666666667,4,2,1,70,0,1
253938,-66.6666666666667,4,2,8,70,0,1
254624,-133.333333333333,4,2,2,70,0,1
256338,-133.333333333333,4,2,1,70,0,1
259424,-100,4,2,1,70,0,1
260453,-66.6666666666667,4,2,1,70,0,1
260796,-100,4,2,1,70,0,1
261824,-66.6666666666667,4,2,1,70,0,1
263538,-133.333333333333,4,2,1,70,0,1
263881,-100,4,2,1,70,0,1
264224,-80,4,2,1,70,0,1
264567,-66.6666666666667,4,2,1,70,0,1
264910,-100,4,2,8,70,0,0
265081,-100,4,2,1,70,0,0
275881,-100,4,2,2,70,0,0
285138,-133.333333333333,4,2,2,70,0,0
285824,-100,4,2,1,70,0,0
286338,-80,4,2,1,70,0,0
286510,-66.6666666666667,4,2,1,70,0,0
286853,-133.333333333333,4,2,8,50,0,0
287024,-133.333333333333,4,2,1,50,0,0
308796,-133.333333333333,4,2,9,40,0,0

[Colours]
Combo1 : 255,128,0
Combo2 : 255,128,192
Combo3 : 255,255,0
Combo4 : 0,255,255

[HitObjects]
256,192,224,12,6,1596,0:0:0:0:
295,142,1938,6,0,P|255:174|203:202,1,85,8|0,0:0|0:0,0:0:0:0:
167,19,2281,1,2,0:0:0:0:
167,19,2453,1,2,0:0:0:0:
112,180,2624,2,0,L|139:338,1,127.5,8|0,0:0|0:0,0:0:0:0:
171,325,2967,6,0,P|234:309|330:367,1,170,2|8,0:0|0:0,0:0:0:0:
453,198,3481,2,0,P|390:182|294:240,1,170,2|2,0:0|0:0,0:0:0:0:
398,311,3996,2,0,L|514:321,1,85,8|0,0:0|0:0,0:0:0:0:
343,147,4338,5,2,0:0:0:0:
256,344,4681,1,8,0:0:0:0:
465,274,5024,1,2,0:0:0:0:
465,274,5196,1,2,0:0:0:0:
343,147,5367,2,0,L|328:278,1,127.5,8|0,0:0|0:0,0:0:0:0:
294,298,5710,6,0,P|253:247|237:137,1,170,2|8,0:0|0:0,0:0:0:0:
429,42,6224,2,0,L|408:228,1,170,2|2,0:0|0:0,0:0:0:0:
245,230,6738,2,0,L|233:129,1,85,8|0,0:0|0:0,0:0:0:0:
465,104,7081,5,2,0:0:0:0:
179,303,7424,2,0,L|167:202,1,85,8|0,0:0|0:0,0:0:0:0:
330,91,7767,1,2,0:0:0:0:
330,91,7938,1,2,0:0:0:0:
428,278,8110,1,8,0:0:0:0:
428,278,8453,6,0,P|334:285|275:346,1,170,2|8,0:0|0:0,0:0:0:0:
105,170,8967,2,0,P|199:177|258:238,1,170,2|2,0:0|0:0,0:0:0:0:
139,306,9481,2,0,L|39:314,1,85,8|0,0:0|0:0,0:0:0:0:
104,169,9824,5,2,0:0:0:0:
278,260,9996,1,0,0:0:0:0:
200,101,10167,2,0,L|208:218,1,85,8|0,0:0|0:0,0:0:0:0:
309,52,10510,2,0,L|317:169,1,85,2|2,0:0|0:0,0:0:0:0:
418,3,10853,2,0,L|426:120,1,85,8|0,0:0|0:0,0:0:0:0:
436,240,11196,1,4,0:0:0:0:
256,192,11281,12,4,12567,0:0:0:0:
126,142,12910,6,0,P|176:135|242:130,1,85,2|0,0:0|0:0,0:0:0:0:
381,284,13253,2,0,L|193:269,1,170,2|2,0:0|0:0,0:0:0:0:
91,258,13767,1,0,0:0:0:0:
206,94,13938,6,0,P|286:119|325:222,2,170,2|2|2,0:0|0:0|0:0,0:0:0:0:
108,35,14796,1,0,0:0:0:0:
71,177,14967,2,0,P|112:196|165:204,1,85,2|0,0:0|0:0,0:0:0:0:
304,104,15310,6,0,L|488:85,2,170,2|2|2,0:0|0:0|0:0,0:0:0:0:
208,188,16167,1,0,0:0:0:0:
304,272,16338,1,2,0:0:0:0:
208,356,16510,1,0,0:0:0:0:
353,367,16681,6,0,P|405:313|386:204,2,170,2|2|2,0:0|0:0|0:0,0:0:0:0:
304,272,17538,1,0,0:0:0:0:
260,176,17710,1,2,0:0:0:0:
216,80,17881,1,0,0:0:0:0:
108,184,18053,6,0,L|120:292,1,85,0|0,3:0|0:0,0:0:0:0:
337,340,18396,2,0,L|328:256,1,85,0|0,3:0|0:0,0:0:0:0:
216,80,18738,2,0,L|228:188,1,85,0|0,3:0|0:0,0:0:0:0:
445,236,19081,2,0,L|436:152,1,85,0|0,3:0|0:0,0:0:0:0:
326,22,19424,5,0,3:0:0:0:
310,225,19596,1,0,3:0:0:0:
428,170,19767,1,0,3:0:0:0:
321,95,19938,1,0,3:0:0:0:
310,224,20110,5,0,3:0:0:0:
109,171,20281,1,0,3:0:0:0:
214,131,20453,1,0,3:0:0:0:
236,325,20624,1,0,3:0:0:0:
56,247,20796,5,0,3:0:0:0:
60,224,20881,1,0,3:0:0:0:
64,200,20967,1,0,3:0:0:0:
68,176,21053,1,0,3:0:0:0:
72,152,21138,2,0,L|60:88,3,42.5,0|0|0|0,3:0|3:0|3:0|3:0,0:0:0:0:
184,185,21481,2,0,L|172:121,3,42.5,0|0|0|0,3:0|3:0|3:0|3:0,0:0:0:0:
270,98,21824,2,0,L|258:34,3,42.5,0|0|0|0,3:0|3:0|3:0|3:0,0:0:0:0:
371,150,22167,1,4,0:0:0:0:
256,192,22253,12,6,23538,0:0:0:0:
126,183,23881,6,0,P|104:239|97:266,1,63.7500024318696,2|0,3:0|3:0,0:0:0:0:
172,348,24224,2,0,P|236:348|300:308,1,127.500004863739,0|2,3:0|3:0,0:0:0:0:
352,144,24738,2,0,P|297:150|260:210,1,127.500004863739,0|0,3:0|3:0,0:0:0:0:
416,324,25253,2,0,L|486:308,1,63.7500024318696,2|0,3:0|3:0,0:0:0:0:
352,240,25596,2,0,L|487:208,1,127.500004863739,0|2,3:0|3:0,0:0:0:0:
268,172,26110,5,0,3:0:0:0:
268,172,26196,1,0,3:0:0:0:
268,172,26281,2,0,P|252:216|248:256,1,63.7500024318696,0|0,3:0|3:0,0:0:0:0:
387,83,26624,2,0,P|367:40|341:9,1,63.7500024318696,2|0,3:0|3:0,0:0:0:0:
210,32,26967,2,0,L|70:52,1,127.500004863739,0|2,3:0|3:0,0:0:0:0:
16,144,27481,1,0,3:0:0:0:
106,267,27653,6,0,L|123:191,1,63.7500024318696,0|0,3:0|3:0,0:0:0:0:
280,270,27996,2,0,L|194:256,1,63.7500024318696,2|0,3:0|3:0,0:0:0:0:
282,110,28338,2,0,L|265:186,1,63.7500024318696,0|0,3:0|3:0,0:0:0:0:
363,320,28681,2,0,L|375:258,1,63.7500024318696,2|0,3:0|3:0,0:0:0:0:
327,30,29024,6,0,P|254:24|202:64,1,127.500004863739,0|2,3:0|3:0,0:0:0:0:
142,158,29538,1,0,3:0:0:0:
142,158,29710,2,0,L|-1:142,1,127.500004863739,0|2,3:0|3:0,0:0:0:0:
149,256,30224,6,0,P|222:228|235:157,1,127.500004863739,0|0,3:0|3:0,0:0:0:0:
327,30,30738,2,0,P|400:58|413:129,2,127.500004863739,2|0|2,3:0|3:0|3:0,0:0:0:0:
305,145,31596,5,0,3:0:0:0:
305,145,31681,1,0,3:0:0:0:
305,145,31767,2,0,L|228:154,1,63.7500024318696,0|0,3:0|3:0,0:0:0:0:
348,271,32110,2,0,L|430:263,1,63.7500024318696,2|0,3:0|3:0,0:0:0:0:
489,155,32453,2,0,P|509:93|479:29,1,127.500004863739,0|2,3:0|3:0,0:0:0:0:
376,10,32967,1,0,3:0:0:0:
285,161,33138,6,2,L|404:147,1,85,6|0,0:0|0:0,0:1:0:0:
172,42,33481,2,0,L|53:56,1,85,0|2,3:0|3:0,0:0:0:0:
79,271,33824,2,0,L|83:229,1,42.5,0|0,3:0|0:0,0:0:0:0:
205,120,33996,2,0,L|201:183,1,53.125,2|0,3:0|0:0,0:0:0:0:
238,278,34167,6,0,P|312:249|431:225,1,191.250007295609,10|0,0:0|0:0,0:0:0:0:
458,194,34510,6,0,L|469:96,1,85,4|0,0:0|0:0,0:0:0:0:
338,14,34853,1,8,0:0:0:0:
303,219,35024,1,0,0:0:0:0:
303,219,35110,1,0,0:0:0:0:
303,219,35196,2,0,L|255:207|207:195,1,85,2|0,0:0|0:0,0:0:0:0:
102,47,35538,2,0,L|83:148,1,85,8|0,0:0|0:0,0:0:0:0:
64,257,35881,5,2,0:0:0:0:
198,166,36053,1,0,0:0:0:0:
214,359,36224,2,0,L|205:262,1,85,8|0,0:0|0:0,0:0:0:0:
296,100,36567,1,2,0:0:0:0:
206,274,36738,1,0,0:0:0:0:
384,358,36910,2,0,P|440:348|505:337,1,85,8|0,0:0|0:0,0:0:0:0:
470,181,37253,6,0,L|456:74,1,85,2|0,0:0|0:0,0:0:0:0:
356,18,37596,1,8,0:0:0:0:
279,187,37767,1,0,0:0:0:0:
279,187,37853,1,0,0:0:0:0:
279,187,37938,2,0,P|209:167|165:163,1,85,2|0,0:0|0:0,0:0:0:0:
21,122,38281,2,0,L|29:206,1,85,8|0,0:0|0:0,0:0:0:0:
172,339,38624,6,0,L|160:243,1,85,2|0,0:0|0:0,0:0:0:0:
340,45,38967,2,0,L|352:141,1,85,8|0,0:0|0:0,0:0:0:0:
319,287,39310,1,2,0:0:0:0:
193,97,39481,1,0,0:0:0:0:
351,129,39653,1,8,0:0:0:0:
161,255,39824,1,0,0:0:0:0:
319,287,39996,6,0,L|303:179,1,85,2|0,0:0|0:0,0:0:0:0:
193,96,40338,2,0,P|152:137|126:182,1,85,8|0,0:0|0:0,0:0:0:0:
112,194,40596,1,0,0:0:0:0:
83,223,40681,2,0,P|17:212|-35:206,1,85,2|0,0:0|0:0,0:0:0:0:
192,95,41024,2,0,P|258:106|310:112,1,85,8|0,0:0|0:0,0:0:0:0:
319,287,41367,5,2,0:0:0:0:
462,227,41538,1,0,0:0:0:0:
345,73,41710,2,0,L|332:175,1,85,8|0,0:0|0:0,0:0:0:0:
161,255,42053,1,2,0:0:0:0:
192,95,42224,1,0,0:0:0:0:
161,255,42396,2,0,L|61:268,1,85,8|0,0:0|0:0,0:0:0:0:
192,95,42738,6,0,L|276:84,1,85,2|0,0:0|0:0,0:0:0:0:
406,149,43081,1,8,0:0:0:0:
257,346,43253,1,0,0:0:0:0:
257,346,43338,1,0,0:0:0:0:
257,346,43424,2,0,P|240:291|234:248,1,85,2|0,0:0|0:0,0:0:0:0:
416,89,43767,2,0,P|433:144|439:187,1,85,8|0,0:0|0:0,0:0:0:0:
319,287,44110,5,2,0:0:0:0:
437,170,44281,1,0,0:0:0:0:
293,90,44453,1,8,0:0:0:0:
378,230,44624,1,0,0:0:0:0:
216,177,44796,1,2,0:0:0:0:
257,346,44967,1,0,0:0:0:0:
92,292,45138,1,0,3:0:0:0:
216,177,45310,2,0,L|231:248,1,42.5,0|0,3:0|3:0,0:0:0:0:
257,346,45481,6,0,L|355:334,1,85,4|0,3:2|0:0,0:0:0:0:
130,216,45824,2,0,L|32:228,1,85,8|0,3:2|0:0,0:0:0:0:
73,144,46081,1,0,0:0:0:0:
73,144,46167,2,0,L|157:135,1,85,0|0,3:2|0:0,0:0:0:0:
259,283,46510,2,0,P|310:288|376:289,1,85,8|0,3:2|0:0,0:0:0:0:
460,222,46853,5,0,3:0:0:0:
398,64,47024,1,0,0:0:0:0:
235,221,47196,1,8,3:2:0:0:
378,164,47367,1,0,0:0:0:0:
256,28,47538,2,0,L|246:124,1,85,0|0,3:0|0:0,0:0:0:0:
120,228,47881,2,0,P|56:221|2:209,1,85,8|0,3:2|0:0,0:0:0:0:
247,112,48224,6,0,L|257:208,1,85,0|0,3:0|0:0,0:0:0:0:
347,322,48567,2,0,P|411:315|465:303,1,85,8|0,3:2|0:0,0:0:0:0:
469,292,48824,1,0,0:0:0:0:
502,265,48910,2,0,L|512:156,1,85,0|0,3:0|0:0,0:0:0:0:
272,201,49253,2,0,L|369:190,1,85,8|0,3:2|0:0,0:0:0:0:
470,72,49596,5,0,3:2:0:0:
356,191,49767,1,0,0:0:0:0:
220,98,49938,2,0,L|228:13,1,85,8|0,3:2|0:0,0:0:0:0:
374,100,50281,1,0,3:0:0:0:
395,255,50453,1,0,0:0:0:0:
258,330,50624,2,0,L|153:333,1,85,8|0,3:2|0:0,0:0:0:0:
40,180,50967,6,0,P|56:108|72:60,1,85,4|0,3:2|3:0,3:0:0:0:
316,80,51310,2,0,P|300:152|284:200,1,85,8|0,3:2|3:0,3:0:0:0:
173,332,51653,2,0,P|233:316|289:304,1,85,0|0,3:0|3:0,0:0:0:0:
460,343,51996,2,0,P|426:300|399:251,1,85,8|0,3:2|3:0,0:0:0:0:
472,96,52338,6,0,L|387:102,1,85,4|0,3:2|3:0,0:0:0:0:
326,281,52681,2,0,L|411:275,1,85,8|0,3:2|3:0,0:0:0:0:
200,108,53024,2,0,L|285:102,1,85,0|0,3:0|3:0,0:0:0:0:
224,352,53367,2,0,L|139:358,1,85,8|0,3:2|3:0,0:0:0:0:
0,316,53710,6,0,L|12:256,3,42.5,4|0|0|0,3:2|3:0|3:0|3:0,0:0:0:0:
116,260,54053,2,0,L|128:200,3,42.5,8|0|0|0,3:2|3:0|3:0|3:0,0:0:0:0:
182,335,54396,5,4,3:2:0:0:
203,332,54481,1,0,3:0:0:0:
224,330,54567,1,0,3:0:0:0:
245,328,54653,1,0,3:0:0:0:
266,326,54738,1,8,3:2:0:0:
287,324,54824,1,0,3:0:0:0:
308,322,54910,1,0,3:0:0:0:
330,320,54995,1,0,3:0:0:0:
351,319,55081,6,2,B|329:265|329:265|309:309,1,95.6250036478044,4|0,0:0|0:0,0:1:0:0:
406,384,55424,2,0,P|433:352|440:306,1,85,2|0,0:3|0:0,0:0:0:0:
269,223,55767,2,0,L|350:208,1,42.5,0|0,3:0|2:0,0:0:0:0:
187,118,55938,2,0,L|279:103,1,53.125,0|0,3:0|2:0,0:0:0:0:
122,172,56110,6,2,L|333:135,1,191.250007295609,10|0,0:0|0:0,0:1:0:0:
355,103,56453,6,0,P|361:54|367:3,1,85,6|0,0:0|0:0,0:0:0:0:
268,222,56796,2,0,P|274:278|286:328,1,85
383,258,57138,1,2,0:0:0:0:
432,147,57310,1,0,0:0:0:0:
463,345,57481,1,0,0:0:0:0:
512,234,57653,1,0,0:0:0:0:
349,342,57824,6,0,L|203:354,1,127.5
190,323,58167,2,0,L|232:224,1,85,0|2,0:0|0:0,0:0:0:0:
273,106,58510,2,0,L|337:191,1,85,0|0,0:0|0:0,0:0:0:0:
419,286,58853,2,0,L|312:299,1,85,0|2,0:0|0:0,0:0:0:0:
151,138,59196,5,0,0:0:0:0:
102,295,59367,1,0,0:0:0:0:
263,261,59538,2,0,P|278:230|288:167,1,85,0|0,0:0|0:0,0:0:0:0:
424,57,59881,2,0,L|442:164,1,85,2|0,0:0|0:0,0:0:0:0:
356,341,60224,2,0,L|338:234,1,85
230,109,60567,6,0,P|178:123|124:156,2,85,2|0|2,0:0|0:0|0:0,0:0:0:0:
341,257,61081,2,0,P|393:243|447:210,1,85,2|0,0:0|0:0,0:0:0:0:
424,57,61424,1,2,0:0:0:0:
347,159,61596,1,0,0:0:0:0:
230,109,61767,1,2,0:0:0:0:
150,216,61938,6,0,L|164:321,1,85
355,341,62281,2,0,L|440:330,1,85
271,231,62624,5,2,0:0:0:0:
466,101,62796,1,2,0:0:0:0:
381,21,62967,1,2,0:0:0:0:
359,135,63138,1,2,0:0:0:0:
424,232,63310,6,0,L|537:218,2,85,2|0|0,0:0|0:0|0:0,0:0:0:0:
356,341,63824,2,0,P|260:325|172:311,1,170,2|2,0:0|0:0,0:0:0:0:
274,53,64338,1,2,0:0:0:0:
359,134,64510,1,2,0:0:0:0:
252,167,64681,6,0,P|188:156|139:149,1,85,2|0,0:0|0:0,0:0:0:0:
68,326,65024,2,0,P|132:337|181:344,1,85,2|0,0:0|0:0,0:0:0:0:
260,252,65367,2,0,L|252:168,1,85,0|2,0:0|0:0,0:0:0:0:
107,140,65710,2,0,L|99:56,1,85,0|2,0:0|0:0,0:0:0:0:
253,168,66053,5,4,0:0:0:0:
187,231,66224,1,2,0:0:0:0:
251,297,66396,1,0,0:0:0:0:
317,234,66567,1,2,0:0:0:0:
223,108,66738,5,0,0:0:0:0:
194,195,66910,1,2,0:0:0:0:
282,223,67081,1,0,0:0:0:0:
310,137,67253,1,2,0:0:0:0:
252,51,67424,6,0,L|104:65,1,127.5,6|0,0:0|0:0,0:0:0:0:
89,76,67767,2,0,P|65:149|62:192,1,85,8|0,0:0|0:0,0:0:0:0:
140,271,68110,1,2,0:0:0:0:
259,190,68281,1,0,0:0:0:0:
349,360,68453,2,0,L|247:349,1,85,8|0,0:0|0:0,0:0:0:0:
172,184,68796,6,0,L|207:5,1,170,2|8,0:0|0:0,0:0:0:0:
331,132,69310,1,0,0:0:0:0:
172,185,69481,1,2,0:0:0:0:
234,296,69653,1,0,0:0:0:0:
172,185,69824,2,0,L|62:195,1,85,8|0,0:0|0:0,0:0:0:0:
293,330,70167,6,0,L|403:320,1,85,2|0,0:0|0:0,0:0:0:0:
454,175,70510,1,8,0:0:0:0:
343,235,70681,1,0,0:0:0:0:
240,120,70853,2,0,P|256:44|264:16,1,85,2|0,0:0|0:0,0:0:0:0:
454,175,71196,2,0,L|352:160,1,85,8|0,0:0|0:0,0:0:0:0:
210,349,71538,6,0,P|278:333|318:325,2,85,2|0|8,0:0|0:0|0:0,0:0:0:0:
106,261,72053,1,0,0:0:0:0:
240,121,72224,2,0,L|251:224,1,85,2|0,0:0|0:0,0:0:0:0:
115,345,72567,2,0,L|104:242,1,85,8|0,0:0|0:0,0:0:0:0:
90,108,72910,5,0,3:0:0:0:
249,207,73081,1,0,0:0:0:0:
269,31,73253,2,0,P|220:38|174:47,1,85,8|0,3:2|0:0,0:0:0:0:
337,253,73596,2,0,P|386:246|432:237,1,85,0|0,3:2|0:0,0:0:0:0:
163,130,73938,2,0,P|114:137|68:146,1,85,8|0,3:2|0:0,0:0:0:0:
43,348,74281,5,0,3:0:0:0:
118,237,74453,1,0,3:2:0:0:
244,346,74624,2,0,L|259:262,1,85,8|0,3:2|3:0,0:0:0:0:
58,286,74967,2,0,L|42:203,1,85,0|0,3:0|3:0,0:0:0:0:
163,130,75310,2,0,L|178:46,1,85,8|0,3:2|3:0,0:0:0:0:
295,22,75653,6,0,L|307:98,3,42.5,4|0|0|0,3:2|3:0|3:0|3:0,0:0:0:0:
397,143,75996,2,0,L|409:219,3,42.5,8|0|0|0,3:2|3:0|3:0|3:0,0:0:0:0:
337,253,76338,5,4,3:2:0:0:
311,255,76423,1,0,3:0:0:0:
286,258,76509,1,0,3:0:0:0:
261,261,76595,1,0,3:0:0:0:
235,264,76680,1,8,3:2:0:0:
210,267,76766,1,0,3:0:0:0:
185,270,76852,1,0,3:0:0:0:
159,273,76938,1,0,3:0:0:0:
134,277,77024,6,2,B|104:244|111:186|111:186|60:160|48:116,1,191.250007295609,4|2,0:0|3:0,0:1:0:0:
21,332,77710,2,0,L|86:320,1,42.5,0|0,3:0|0:0,0:0:0:0:
259,287,77881,2,0,L|199:262,1,53.125,2|0,3:0|0:0,0:0:0:0:
273,107,78053,6,0,P|339:102|408:202,1,191.250007295609,10|0,0:0|0:0,0:0:0:0:
406,246,78396,6,0,L|392:351,1,85,6|0,0:0|0:0,0:0:0:0:
512,268,78738,1,2,0:3:0:0:
394,111,78910,2,0,P|340:132|284:163,1,85,2|2,0:0|0:0,0:0:0:0:
263,208,79424,6,0,L|272:45,1,127.5,8|0,0:0|0:0,0:0:0:0:
295,46,79767,2,0,P|342:68|385:96,1,85,2|0,0:0|0:0,0:0:0:0:
402,208,80110,1,2,0:3:0:0:
217,172,80281,2,0,L|226:269,1,85,2|2,0:0|0:0,0:0:0:0:
265,323,80796,6,0,P|209:291|150:268,1,127.5,8|0,0:0|0:0,0:0:0:0:
118,241,81138,2,0,L|111:143,1,85,2|0,0:0|0:0,0:0:0:0:
202,53,81481,1,2,0:3:0:0:
313,217,81653,2,0,L|228:239,1,85,2|2,0:0|0:0,0:0:0:0:
185,302,82167,6,0,P|197:250|185:172,1,127.5,8|0,0:0|0:0,0:0:0:0:
195,135,82510,2,0,P|241:111|283:97,1,85,2|0,0:0|0:0,0:0:0:0:
397,127,82853,1,2,0:3:0:0:
288,288,83024,2,0,L|277:191,1,85,2|2,0:0|0:0,0:0:0:0:
256,96,83538,6,0,B|272:184|272:184|212:256|252:312,1,191.250007295609,8|0,3:0|0:0,0:0:0:0:
256,328,83881,6,0,P|310:312|439:318,1,170,4|0,0:0|3:0,0:0:0:0:
248,216,84396,2,0,P|194:232|65:226,1,170,4|0,0:0|3:0,0:0:0:0:
39,118,84910,1,4,0:0:0:0:
39,118,85253,6,0,P|87:185|116:305,1,170,4|0,0:0|3:0,0:0:0:0:
235,338,85767,2,0,P|295:305|418:325,1,170,4|0,0:0|3:0,0:0:0:0:
486,192,86281,2,0,L|477:95,1,85,4|0,0:0|3:0,0:0:0:0:
310,64,86624,5,0,3:0:0:0:
229,78,86967,1,0,3:0:0:0:
148,92,87310,1,0,3:0:0:0:
67,106,87653,1,0,3:0:0:0:
202,320,87996,5,0,3:0:0:0:
283,306,88339,1,0,3:0:0:0:
364,292,88682,1,0,3:0:0:0:
445,278,89025,1,0,3:0:0:0:
256,192,89367,5,4,0:0:0:0:
256,192,90053,1,4,0:0:0:0:
256,192,90738,6,2,B|184:208|144:284,1,127.500004863739,4|0,0:0|3:0,0:1:0:0:
77,203,91253,1,2,3:0:0:0:
309,315,91424,2,0,L|303:271,1,42.5,0|0,3:0|0:0,0:0:0:0:
185,102,91596,2,0,L|166:172,1,53.125,2|0,3:0|0:0,0:0:0:0:
212,274,91767,6,0,P|299:237|397:247,1,191.250007295609,10|0,0:0|0:0,0:0:0:0:
428,221,92110,6,0,P|441:182|450:111,1,85,6|0,0:0|0:0,0:0:0:0:
264,40,92453,2,0,L|281:151,1,85,8|0,0:0|0:0,0:0:0:0:
212,274,92796,1,2,0:0:0:0:
108,182,92967,2,0,L|115:141,1,42.5,2|0,0:0|0:0,0:0:0:0:
220,117,93138,2,0,L|213:158,1,42.5,10|0,0:0|0:0,0:0:0:0:
305,216,93310,2,0,L|312:175,1,42.5,2|0,0:0|0:0,0:0:0:0:
400,121,93481,6,0,P|446:167|470:206,1,85,2|0,0:0|0:0,0:0:0:0:
341,358,93824,2,0,L|362:240,1,85,8|0,0:0|0:0,0:0:0:0:
293,140,94167,1,2,0:0:0:0:
145,277,94338,2,0,L|206:296,1,42.5,2|0,0:0|0:0,0:0:0:0:
257,241,94510,2,0,L|318:260,1,42.5,10|0,0:0|0:0,0:0:0:0:
367,202,94681,2,0,L|428:221,1,42.5,2|0,0:0|0:0,0:0:0:0:
475,264,94853,6,0,L|460:152,1,85,2|0,0:0|0:0,0:0:0:0:
353,58,95196,2,0,P|299:66|247:80,1,85,8|0,0:0|0:0,0:0:0:0:
257,241,95538,1,2,0:0:0:0:
368,202,95710,2,0,L|355:123,1,42.5,2|0,0:0|0:0,0:0:0:0:
462,76,95881,2,0,L|475:155,1,42.5,10|0,0:0|0:0,0:0:0:0:
468,222,96053,2,0,L|481:301,1,42.5,2|0,0:0|0:0,0:0:0:0:
395,340,96224,6,0,L|296:352,1,85,2|0,0:0|0:0,0:0:0:0:
186,195,96567,2,0,P|231:220|269:254,1,85,8|0,0:0|0:0,0:0:0:0:
110,313,96910,1,2,0:0:0:0:
73,122,97081,2,0,L|66:187,1,42.5,2|0,0:0|0:0,0:0:0:0:
163,79,97253,2,0,L|156:144,1,42.5,10|0,0:0|0:0,0:0:0:0:
253,38,97424,2,0,L|246:103,1,42.5,2|0,0:0|0:0,0:0:0:0:
329,157,97596,6,0,L|345:7,1,127.5,2|0,0:0|0:0,0:0:0:0:
378,8,97938,2,0,P|432:15|486:39,1,85,8|0,0:0|0:0,0:0:0:0:
476,192,98281,1,2,0:0:0:0:
254,188,98453,2,0,L|263:142,1,42.5,2|0,0:0|0:0,0:0:0:0:
342,251,98624,2,0,L|333:297,1,42.5,10|0,0:0|0:0,0:0:0:0:
431,187,98796,2,0,L|440:141,1,42.5,2|0,0:0|0:0,0:0:0:0:
496,276,98967,6,0,L|481:370,1,85,2|0,0:0|0:0,0:0:0:0:
233,230,99310,2,0,P|243:169|259:113,1,85,8|0,0:0|0:0,0:0:0:0:
406,82,99653,1,2,0:0:0:0:
334,233,99824,2,0,L|377:231,1,42.5,2|0,0:0|0:0,0:0:0:0:
177,150,99996,2,0,L|135:153,1,42.5,10|0,0:0|0:0,0:0:0:0:
297,113,100167,2,0,L|295:71,1,42.5,2|0,0:0|0:0,0:0:0:0:
214,270,100338,6,0,L|221:359,1,85,2|0,0:0|0:0,0:0:0:0:
428,264,100681,2,0,L|419:166,1,85,8|0,0:0|0:0,0:0:0:0:
297,113,101024,1,2,0:0:0:0:
177,303,101196,2,0,L|244:303,1,42.5,2|0,0:0|0:0,0:0:0:0:
295,240,101367,2,0,L|362:240,1,42.5,10|0,0:0|0:0,0:0:0:0:
420,179,101538,2,0,L|487:179,1,42.5,2|0,0:0|0:0,0:0:0:0:
372,84,101710,5,2,0:0:0:0:
462,179,101881,1,2,0:0:0:0:
298,167,102053,5,8,0:0:0:0:
358,283,102224,1,2,0:0:0:0:
190,212,102396,5,2,0:0:0:0:
215,340,102567,1,2,0:0:0:0:
67,216,102738,5,8,0:0:0:0:
55,345,102910,1,2,0:0:0:0:
190,212,103081,6,0,P|240:201|293:192,1,85,6|0,0:0|0:0,0:0:0:0:
446,262,103424,2,0,P|462:184|465:166,1,85,8|0,0:0|0:0,0:0:0:0:
402,63,103767,1,2,0:0:0:0:
319,162,103938,1,2,0:0:0:0:
319,162,104024,1,0,0:0:0:0:
319,162,104110,2,0,L|395:156,1,42.5,10|0,0:0|0:0,0:0:0:0:
305,264,104281,2,0,L|245:270,1,42.5,2|0,0:0|0:0,0:0:0:0:
165,191,104453,6,0,L|157:90,1,85,2|0,0:0|0:0,0:0:0:0:
313,16,104796,2,0,P|363:21|421:31,1,85,8|0,0:0|0:0,0:0:0:0:
492,192,105138,1,2,0:0:0:0:
304,264,105310,1,2,0:0:0:0:
304,264,105396,1,0,0:0:0:0:
304,264,105481,2,0,L|316:200,1,42.5,10|0,0:0|0:0,0:0:0:0:
223,122,105653,2,0,L|216:164,1,42.5,2|0,0:0|0:0,0:0:0:0:
156,276,105824,6,0,P|104:284|40:296,1,85,6|0,0:0|0:0,0:0:0:0:
280,356,106167,2,0,P|321:348|363:342,1,85,8|0,0:0|0:0,0:0:0:0:
456,192,106510,1,2,0:0:0:0:
364,56,106681,1,2,0:0:0:0:
364,56,106767,1,0,0:0:0:0:
364,56,106853,2,0,L|356:117,1,42.5,10|0,0:0|0:0,0:0:0:0:
292,192,107024,2,0,L|284:253,1,42.5,2|0,0:0|0:0,0:0:0:0:
372,304,107196,6,0,P|412:295|480:292,1,85,2|0,0:0|0:0,0:0:0:0:
216,156,107538,2,0,L|204:252,1,85,8|0,0:0|0:0,0:0:0:0:
376,140,107881,2,0,P|371:93|363:49,1,85,2|0,0:0|0:0,0:0:0:0:
136,244,108224,2,0,P|140:290|149:335,1,85,8|0,0:0|0:0,0:0:0:0:
305,347,108567,6,0,L|359:354,3,42.5,4|0|0|0,3:2|3:0|3:0|3:0,0:0:0:0:
384,272,108910,2,0,L|429:279,3,42.5,8|0|0|0,3:2|3:0|3:0|3:0,0:0:0:0:
500,224,109253,2,0,L|488:172,3,42.5,0|0|0|0,3:2|3:0|3:0|3:0,0:0:0:0:
400,172,109596,2,0,L|389:127,3,42.5,8|0|0|0,3:2|3:0|3:0|3:0,0:0:0:0:
362,113,109938,5,4,3:2:0:0:
329,122,110024,1,0,3:0:0:0:
297,130,110110,1,0,3:0:0:0:
265,138,110196,1,0,3:0:0:0:
233,146,110281,1,8,3:2:0:0:
201,154,110367,1,0,3:0:0:0:
169,162,110453,1,0,3:0:0:0:
137,170,110538,1,0,3:0:0:0:
105,178,110624,6,0,L|116:231,3,42.5,0|0|0|0,3:0|3:0|3:0|3:0,0:0:0:0:
31,106,110967,2,0,L|54:66,3,42.5,8|0|0|0,3:2|3:0|3:0|3:0,0:0:0:0:
73,42,111310,5,4,3:2:0:0:
108,52,111396,1,0,3:2:0:0:
140,60,111481,1,0,3:2:0:0:
172,68,111567,1,0,3:2:0:0:
204,76,111653,1,8,3:2:0:0:
236,84,111738,1,0,3:2:0:0:
268,92,111824,1,0,3:2:0:0:
300,100,111910,1,0,3:2:0:0:
332,108,111996,6,0,L|341:171,1,42.5,4|0,3:2|3:0,0:0:0:0:
184,188,112167,2,0,L|175:251,1,42.5,0|0,3:2|3:0,0:0:0:0:
328,280,112338,2,0,L|337:343,3,42.5,8|0|0|0,3:2|3:0|3:0|3:0,0:0:0:0:
256,344,112681,6,2,B|204:220|312:220|252:92,1,255.000009727478,4|0,0:0|0:0,0:1:0:0:
116,132,113538,2,0,L|124:184,1,31.8750012159348
70,221,113710,6,0,P|166:193|302:201,1,191.250007295609,10|0,0:0|0:0,0:0:0:0:
256,192,114053,1,4,0:0:0:0:
256,192,114738,6,0,P|308:156|432:152,1,191.250007295609,2|2,0:0|0:0,0:0:0:0:
247,322,115938,2,0,B|111:311,1,127.500004863739,2|0,0:0|0:0,0:0:0:0:
79,152,116453,5,2,0:0:0:0:
79,152,116538,1,2,0:0:0:0:
79,152,116624,1,2,0:0:0:0:
79,152,116710,1,2,0:0:0:0:
79,152,116796,5,6,0:2:0:0:
24,288,116967,1,0,0:0:0:0:
208,272,117138,1,2,0:0:0:0:
148,96,117310,5,0,0:0:0:0:
120,312,117481,1,2,0:0:0:0:
321,228,117653,1,0,0:0:0:0:
256,88,117824,5,6,0:0:0:0:
159,378,117996,1,4,0:0:0:0:
159,378,118338,5,4,0:0:0:0:
152,344,118510,1,4,0:0:0:0:
144,312,118681,1,4,0:0:0:0:
136,280,118853,1,4,0:0:0:0:
128,244,119538,6,0,L|228:256,1,85,4|0,3:2|0:0,0:0:0:0:
408,140,119881,2,0,L|308:156,1,85,2|0,3:0|0:0,0:0:0:0:
291,143,120138,1,2,0:3:0:0:
267,118,120224,2,0,L|276:48,1,42.5,0|0,3:0|0:0,0:0:0:0:
141,110,120396,2,0,L|134:164,1,42.5,2|0,0:3|0:0,0:0:0:0:
216,244,120567,6,0,B|360:220,1,127.500004863739,8|2,3:0|0:3,0:0:0:0:
480,88,120910,6,0,P|411:60|372:56,1,85,0|0,3:0|0:0,0:0:0:0:
320,304,121253,2,0,L|416:284,1,85,2|0,3:0|0:0,0:0:0:0:
428,256,121510,1,2,0:3:0:0:
436,220,121596,2,0,L|416:156,3,42.5,0|0|2|0,3:0|0:0|0:3|0:0,0:0:0:0:
322,120,121938,6,0,P|261:134|217:189,1,127.500004863739,8|2,3:2|0:3,0:0:0:0:
320,304,122281,5,0,3:0:0:0:
421,291,122453,1,0,3:0:0:0:
484,210,122624,1,0,3:0:0:0:
465,104,122796,1,0,3:0:0:0:
374,61,122967,5,0,3:0:0:0:
350,105,123053,1,0,3:0:0:0:
354,156,123138,1,0,3:0:0:0:
385,196,123224,1,0,3:0:0:0:
432,215,123310,2,0,L|452:210,7,21.25
432,215,123653,6,2,L|423:321,1,95.6250036478044,4|0,0:0|0:0,0:1:0:0:
315,350,123996,6,2,L|329:209,1,127.5,2|0,3:0|0:0,0:1:0:0:
229,146,124338,6,2,L|209:345,1,159.375,2|0,3:0|0:0,0:1:0:0:
113,247,124681,6,0,L|138:24,1,191.250007295609,10|0,0:0|0:0,0:0:0:0:
56,28,125024,6,0,L|46:115,1,85,6|0,0:0|0:0,0:0:0:0:
215,59,125367,1,8,0:0:0:0:
113,247,125538,1,0,0:0:0:0:
113,247,125624,1,0,0:0:0:0:
113,247,125710,2,0,P|59:238|2:232,1,85,2|0,0:0|0:0,0:0:0:0:
232,371,126053,2,0,P|283:357|348:347,1,85,8|0,0:0|0:0,0:0:0:0:
412,268,126396,5,2,0:0:0:0:
364,132,126567,1,0,0:0:0:0:
215,193,126738,2,0,L|210:289,1,85,8|0,0:0|0:0,0:0:0:0:
107,374,127081,1,2,0:0:0:0:
114,129,127253,1,0,0:0:0:0:
322,257,127424,2,0,P|381:251|441:235,1,85,8|0,0:0|0:0,0:0:0:0:
291,33,127767,6,0,P|232:39|172:55,1,85,2|0,0:0|0:0,0:0:0:0:
101,216,128110,2,0,P|159:222|210:228,1,85,8|0,0:0|0:0,0:0:0:0:
227,218,128367,1,0,0:0:0:0:
266,202,128453,2,0,P|272:158|275:111,1,85,2|0,0:0|0:0,0:0:0:0:
101,3,128796,2,0,P|95:45|93:87,1,85,8|0,0:0|0:0,0:0:0:0:
101,216,129138,5,2,0:0:0:0:
250,164,129310,1,0,0:0:0:0:
268,340,129481,2,0,P|211:330|165:323,1,85,8|0,0:0|0:0,0:0:0:0:
299,114,129824,2,0,L|309:220,1,85,2|0,0:0|0:0,0:0:0:0:
461,269,130167,2,0,L|451:163,1,85,8|0,0:0|0:0,0:0:0:0:
308,340,130510,6,0,L|211:325,1,85,2|0,0:0|0:0,0:0:0:0:
158,54,130853,1,8,0:0:0:0:
101,216,131024,1,0,0:0:0:0:
101,216,131110,1,0,0:0:0:0:
101,216,131196,2,0,P|161:208|223:194,1,85,2|0,0:0|0:0,0:0:0:0:
299,114,131538,2,0,L|290:23,1,85,8|0,0:0|0:0,0:0:0:0:
135,291,131881,5,2,0:0:0:0:
284,209,132053,1,0,0:0:0:0:
158,54,132224,2,0,L|146:151,1,85,8|0,0:0|0:0,0:0:0:0:
291,296,132567,1,2,0:0:0:0:
299,114,132738,1,0,0:0:0:0:
449,207,132910,1,8,0:0:0:0:
291,296,133081,1,0,0:0:0:0:
202,137,133253,6,0,L|215:27,1,85,2|0,0:0|0:0,0:0:0:0:
368,248,133596,1,8,0:0:0:0:
467,90,133767,1,0,0:0:0:0:
467,90,133853,1,0,0:0:0:0:
467,90,133938,2,0,P|415:94|364:109,1,85,2|0,0:0|0:0,0:0:0:0:
339,344,134281,2,0,P|391:340|442:325,1,85,8|0,0:0|0:0,0:0:0:0:
271,163,134625,5,2,0:0:0:0:
368,248,134796,1,0,0:0:0:0:
227,74,134967,5,8,0:0:0:0:
199,240,135138,1,0,0:0:0:0:
127,145,135310,5,2,0:0:0:0:
147,325,135481,1,0,0:0:0:0:
88,20,135653,5,0,3:2:0:0:
0,215,135824,2,0,L|59:212,1,42.5,0|0,3:0|3:0,0:0:0:0:
199,240,135996,6,0,L|188:143,1,85,4|0,3:2|0:0,0:0:0:0:
377,36,136338,2,0,L|498:50,1,85,8|0,3:2|0:0,0:0:0:0:
403,120,136596,1,0,0:0:0:0:
403,120,136681,2,0,L|282:106,1,85,0|0,3:0|0:0,0:0:0:0:
164,191,137024,1,8,3:2:0:0:
243,25,137196,1,0,0:0:0:0:
371,239,137367,6,0,L|262:249,1,85,0|0,3:0|0:0,0:0:0:0:
141,363,137710,2,0,P|195:373|257:379,1,85,8|0,3:2|0:0,0:0:0:0:
267,167,138053,1,0,3:0:0:0:
324,322,138224,1,0,0:0:0:0:
391,178,138396,2,0,L|503:188,1,85,8|0,3:2|0:0,0:0:0:0:
220,299,138738,6,0,L|108:289,1,85,0|0,3:0|0:0,0:0:0:0:
45,157,139081,1,8,3:2:0:0:
207,45,139253,1,0,0:0:0:0:
207,45,139338,1,0,0:0:0:0:
207,45,139424,2,0,P|219:114|228:166,1,85,0|0,3:0|0:0,0:0:0:0:
353,285,139767,2,0,L|471:272,1,85,8|0,3:2|0:0,0:0:0:0:
465,77,140110,6,0,L|359:91,1,85,0|0,3:0|0:0,0:0:0:0:
254,260,140453,2,0,P|260:298|270:344,1,85,8|0,3:2|0:0,0:0:0:0:
136,332,140796,1,0,3:0:0:0:
184,200,140967,1,0,0:0:0:0:
56,100,141138,2,0,L|44:192,1,85,8|0,3:2|0:0,0:0:0:0:
188,236,141481,6,0,L|288:220,1,85,4|0,3:2|3:0,0:0:0:0:
392,160,141824,2,0,P|396:108|384:48,1,85,8|0,3:2|3:0,0:0:0:0:
224,16,142167,2,0,P|220:68|232:128,1,85,0|0,3:0|3:0,0:0:0:0:
268,248,142510,2,0,P|229:264|188:273,1,85,8|0,3:2|3:0,0:0:0:0:
72,176,142853,6,0,L|64:72,1,85,4|0,3:2|3:0,0:0:0:0:
268,8,143196,2,0,L|276:112,1,85,8|0,3:2|3:0,0:0:0:0:
424,128,143538,2,0,L|430:212,1,85,0|0,3:2|3:0,0:0:0:0:
242,352,143881,2,0,L|236:268,1,85,8|0,3:2|3:0,0:0:0:0:
268,108,144224,6,0,L|205:101,1,42.5,4|0,3:2|3:0,0:0:0:0:
362,258,144396,2,0,L|425:265,1,42.5,0|0,3:2|3:0,0:0:0:0:
391,130,144567,2,0,L|398:67,1,42.5,8|0,3:2|3:0,0:0:0:0:
242,226,144738,2,0,L|235:289,1,42.5,0|0,3:2|3:0,0:0:0:0:
308,352,144910,5,4,3:2:0:0:
332,345,144996,1,0,3:2:0:0:
356,341,145081,1,0,3:2:0:0:
380,336,145167,1,0,3:2:0:0:
404,332,145253,1,8,3:2:0:0:
428,324,145338,1,0,3:2:0:0:
452,320,145424,1,0,3:2:0:0:
476,313,145510,1,0,3:2:0:0:
500,308,145596,6,2,B|486:269|496:236|496:236|472:196|416:192|384:240,1,170,4|0,0:0|3:0,0:1:0:0:
393,230,146024,1,0,0:0:0:0:
375,248,146110,2,0,L|384:292,1,42.5,2|0,3:0|0:0,0:0:0:0:
268,176,146281,2,0,L|277:134,1,42.5,0|0,3:0|0:0,0:0:0:0:
217,314,146453,2,0,L|236:399,1,53.125,2|0,3:0|0:0,0:0:0:0:
101,209,146624,6,2,B|139:8,1,191.250007295609,10|0,0:0|0:0,0:1:0:0:
215,10,146967,6,0,P|255:33|288:64,1,85,6|0,0:0|0:0,0:0:0:0:
386,192,147310,2,0,L|470:181,1,85,8|0,0:0|0:0,0:0:0:0:
443,61,147653,1,2,0:0:0:0:
268,176,147824,1,0,0:0:0:0:
326,6,147996,2,0,L|339:120,1,85,8|0,0:0|0:0,0:0:0:0:
210,267,148338,6,0,B|198:141,1,127.5
178,98,148681,2,0,P|131:90|93:87,1,85,8|2,0:0|0:0,0:0:0:0:
32,226,149024,1,0,0:0:0:0:
150,352,149196,1,0,0:0:0:0:
136,248,149367,1,8,0:0:0:0:
52,312,149538,1,2,0:0:0:0:
253,294,149710,6,0,L|337:287,1,85
340,124,150053,2,0,L|440:116,1,85,8|0,0:0|0:0,0:0:0:0:
239,213,150396,1,2,0:0:0:0:
347,329,150567,1,0,0:0:0:0:
175,348,150738,1,8,0:0:0:0:
331,229,150910,1,0,0:0:0:0:
158,255,151081,6,0,P|111:252|52:249,2,85,2|0|10,0:0|0:0|0:0,0:0:0:0:
208,72,151596,1,2,0:0:0:0:
296,165,151767,2,0,P|376:170|416:172,1,85,0|2,0:0|0:0,0:0:0:0:
413,314,152110,1,8,0:0:0:0:
346,227,152281,1,2,0:0:0:0:
364,118,152453,5,2,0:0:0:0:
235,211,152624,1,0,0:0:0:0:
346,227,152796,1,8,0:0:0:0:
328,335,152967,1,0,0:0:0:0:
457,242,153138,1,2,0:0:0:0:
296,165,153310,1,2,0:0:0:0:
261,288,153481,1,10,0:0:0:0:
386,258,153653,1,2,0:0:0:0:
364,118,153824,6,0,P|323:92|262:81,2,85,2|0|8,0:0|0:0|0:0,0:0:0:0:
235,211,154338,2,0,L|65:228,1,170,2|2,0:0|0:0,0:0:0:0:
1,99,154853,1,10,0:0:0:0:
120,148,155024,1,0,0:0:0:0:
229,78,155196,6,0,L|238:-7,1,85,2|0,0:0|0:0,0:0:0:0:
322,179,155538,2,0,L|313:264,1,85,10|0,0:0|0:0,0:0:0:0:
189,340,155881,1,2,0:0:0:0:
120,148,156053,1,0,0:0:0:0:
18,342,156224,1,10,0:0:0:0:
109,270,156396,1,0,0:0:0:0:
2,228,156567,5,2,0:0:0:0:
19,342,156738,1,0,0:0:0:0:
204,157,156910,1,10,0:0:0:0:
189,341,157081,1,2,0:2:0:0:
109,270,157253,5,2,0:0:0:0:
322,179,157424,2,0,L|328:220,1,42.5,2|2,0:0|0:0,0:0:0:0:
345,322,157596,1,10,0:0:0:0:
445,143,157767,1,2,0:0:0:0:
191,340,157938,6,0,L|52:334,1,127.5,6|0,0:0|0:0,0:0:0:0:
39,282,158281,2,0,P|48:238|65:187,1,85,8|0,0:0|0:0,0:0:0:0:
111,85,158624,1,2,0:0:0:0:
203,212,158796,1,0,0:0:0:0:
305,61,158967,2,0,L|211:71,1,85,8|0,0:0|0:0,0:0:0:0:
340,190,159310,6,0,L|529:168,1,170,2|8,0:0|0:0,0:0:0:0:
454,55,159824,1,0,0:0:0:0:
340,190,159996,1,2,0:0:0:0:
413,305,160167,1,0,0:0:0:0:
340,190,160338,2,0,L|249:198,1,85,8|0,0:0|0:0,0:0:0:0:
149,313,160681,6,0,P|99:308|32:295,1,85,2|0,0:0|0:0,0:0:0:0:
170,91,161024,2,0,P|220:96|287:109,1,85,8|0,0:0|0:0,0:0:0:0:
341,189,161367,1,2,0:0:0:0:
243,252,161538,1,0,0:0:0:0:
436,124,161710,2,0,L|453:240,1,85,8|0,0:0|0:0,0:0:0:0:
287,361,162053,6,0,P|321:351|389:336,2,85,2|0|8,0:0|0:0|0:0,0:0:0:0:
150,291,162567,1,0,0:0:0:0:
303,143,162738,2,0,P|311:208|315:241,1,85,2|0,0:0|0:0,0:0:0:0:
169,127,163081,2,0,P|161:62|157:29,1,85,8|0,0:0|0:0,0:0:0:0:
292,37,163424,5,0,3:0:0:0:
251,229,163596,1,0,0:0:0:0:
85,139,163767,2,0,L|194:124,1,85,8|0,3:2|0:0,0:0:0:0:
110,313,164110,2,0,L|6:327,1,85,0|0,3:0|0:0,0:0:0:0:
251,229,164453,2,0,L|365:215,1,85,8|0,3:2|0:0,0:0:0:0:
403,90,164796,5,0,3:2:0:0:
460,243,164967,1,0,3:2:0:0:
281,121,165138,2,0,L|292:34,1,85,8|0,3:2|3:2,3:2:0:0:
404,268,165481,2,0,L|423:177,1,85,0|0,3:0|3:0,0:0:0:0:
237,352,165824,2,8,L|218:255,1,85,8|0,3:2|3:2,3:2:0:0:
86,316,166167,6,0,L|78:251,3,42.5,4|0|0|0,3:2|3:0|3:0|3:0,0:0:0:0:
5,215,166510,2,0,L|-3:150,3,42.5,8|0|0|0,3:2|3:0|3:0|3:0,0:0:0:0:
74,96,166853,5,4,3:2:0:0:
115,103,166938,1,0,3:0:0:0:
156,112,167024,1,0,3:0:0:0:
195,127,167110,1,0,3:0:0:0:
234,141,167196,1,8,3:2:0:0:
272,159,167281,1,0,3:0:0:0:
310,177,167367,1,0,3:0:0:0:
345,200,167453,1,0,3:0:0:0:
375,226,167538,6,2,B|388:183|432:153|432:153|419:98|446:52,1,191.250007295609,4|2,0:0|3:0,0:1:0:0:
459,289,168224,2,0,L|417:331,1,42.5,0|0,3:0|0:0,0:0:0:0:
249,344,168396,2,0,L|329:320,1,53.125,2|0,3:0|0:0,0:0:0:0:
251,192,168567,6,0,P|173:178|102:287,1,191.250007295609,10|0,0:0|0:0,0:0:0:0:
107,300,168910,6,0,L|120:404,1,85,6|0,0:0|0:0,0:0:0:0:
251,193,169253,2,0,P|261:151|269:110,1,85,8|0,0:0|0:0,0:0:0:0:
153,133,169596,1,2,0:0:0:0:
194,264,169767,1,0,0:0:0:0:
84,346,169938,2,0,L|-7:332,1,85,8|0,0:0|0:0,0:0:0:0:
265,267,170281,6,0,L|356:281,1,85,2|0,0:0|0:0,0:0:0:0:
420,149,170624,1,8,0:0:0:0:
295,188,170796,1,0,0:0:0:0:
191,109,170967,2,0,L|184:18,1,85,2|0,0:0|0:0,0:0:0:0:
295,188,171310,2,0,L|306:308,1,85,8|0,0:0|0:0,0:0:0:0:
414,355,171653,6,0,L|520:366,1,85,2|0,0:0|0:0,0:0:0:0:
379,181,171996,2,0,P|336:183|277:191,1,85,8|0,0:0|0:0,0:0:0:0:
162,270,172338,1,2,0:0:0:0:
319,351,172510,1,0,0:0:0:0:
319,106,172681,2,0,P|301:163|289:209,1,85,8|0,0:0|0:0,0:0:0:0:
414,355,173024,6,0,L|408:259,1,85,2|0,0:0|0:0,0:0:0:0:
506,118,173367,2,0,L|512:214,1,85,8|0,0:0|0:0,0:0:0:0:
310,298,173710,1,2,0:0:0:0:
216,192,173881,1,0,0:0:0:0:
371,54,174053,2,0,L|380:219,1,127.5,8|0,0:0|0:0,0:0:0:0:
373,223,174396,6,0,P|290:204|212:283,1,170,4|0,0:0|3:0,0:0:0:0:
89,316,174910,2,0,P|43:257|61:140,1,170,4|0,0:0|3:0,0:0:0:0:
152,63,175424,1,4,0:0:0:0:
152,63,175767,6,0,L|340:85,1,170,4|0,0:0|3:0,0:0:0:0:
448,211,176281,2,0,P|385:256|260:241,1,170,4|0,0:0|3:0,0:0:0:0:
326,51,176796,2,0,L|349:174,1,85,4|0,0:0|3:0,0:0:0:0:
195,274,177138,5,0,3:0:0:0:
338,252,177481,1,0,3:0:0:0:
316,109,177824,1,0,3:0:0:0:
173,131,178167,1,0,3:0:0:0:
287,344,178510,5,0,3:0:0:0:
408,161,178853,1,0,3:0:0:0:
225,40,179196,1,0,3:0:0:0:
104,223,179538,1,0,3:0:0:0:
256,192,179881,5,4,0:0:0:0:
256,192,180567,1,4,0:0:0:0:
256,192,181253,6,2,B|332:188|356:108,1,127.500004863739,4|0,0:0|3:0,0:1:0:0:
436,192,181767,1,2,3:0:0:0:
338,354,181938,2,0,L|326:300,1,42.5,0|0,3:0|0:0,0:0:0:0:
476,155,182110,2,0,L|489:222,1,53.125,2|0,3:0|0:0,0:0:0:0:
418,312,182281,6,0,L|378:115,1,191.250007295609,10|0,0:0|0:0,0:0:0:0:
338,42,182624,6,0,P|311:48|243:68,1,85,4|0,0:0|0:0,0:0:0:0:
69,247,182967,2,0,L|181:257,1,85,8|0,0:0|0:0,0:0:0:0:
354,268,183310,1,2,0:0:0:0:
257,64,183481,2,0,L|266:134,1,42.5,2|0,0:0|0:0,0:0:0:0:
165,190,183653,2,0,L|159:148,1,42.5,10|0,0:0|0:0,0:0:0:0:
36,97,183824,2,0,L|42:139,1,42.5,2|0,0:0|0:0,0:0:0:0:
38,286,183996,6,0,P|74:271|144:250,1,85,2|0,0:0|0:0,0:0:0:0:
284,370,184338,2,0,L|174:358,1,85,8|0,0:0|0:0,0:0:0:0:
158,148,184681,1,2,0:0:0:0:
274,259,184853,2,0,L|265:189,1,42.5,2|0,0:0|0:0,0:0:0:0:
366,133,185025,2,0,L|372:175,1,42.5,10|0,0:0|0:0,0:0:0:0:
495,226,185196,2,0,L|489:184,1,42.5,2|0,0:0|0:0,0:0:0:0:
468,41,185367,6,0,P|388:60|361:68,1,85,2|0,0:0|0:0,0:0:0:0:
221,108,185710,2,0,L|233:-4,1,85,8|0,0:0|0:0,0:0:0:0:
97,125,186053,1,2,0:0:0:0:
301,227,186224,2,0,L|291:296,1,42.5,2|0,0:0|0:0,0:0:0:0:
160,294,186396,2,0,L|173:214,1,42.5,10|0,0:0|0:0,0:0:0:0:
97,125,186567,2,0,L|88:182,1,42.5,2|0,0:0|0:0,0:0:0:0:
0,269,186738,6,0,L|8:356,1,85,2|0,0:0|0:0,0:0:0:0:
224,243,187081,2,0,P|176:218|137:217,1,85,8|0,0:0|0:0,0:0:0:0:
0,269,187424,1,2,0:0:0:0:
165,100,187596,2,0,L|156:157,1,42.5,2|0,0:0|0:0,0:0:0:0:
241,164,187767,2,0,L|232:221,1,42.5,10|0,0:0|0:0,0:0:0:0:
317,227,187938,2,0,L|308:284,1,42.5,2|0,0:0|0:0,0:0:0:0:
390,351,188110,6,0,L|417:192,1,127.5,2|0,0:0|0:0,0:0:0:0:
402,183,188453,2,0,P|351:160|303:152,1,85,8|0,0:0|0:0,0:0:0:0:
179,262,188796,1,2,0:0:0:0:
169,58,188967,2,0,L|164:100,1,42.5,2|0,0:0|0:0,0:0:0:0:
60,205,189138,2,0,L|64:162,1,42.5,10|0,0:0|0:0,0:0:0:0:
174,304,189310,2,0,L|179:262,1,42.5,2|0,0:0|0:0,0:0:0:0:
289,222,189481,6,0,L|279:102,1,85,2|0,0:0|0:0,0:0:0:0:
440,126,189824,2,0,L|430:6,1,85,8|0,0:0|0:0,0:0:0:0:
256,21,190167,1,2,0:0:0:0:
112,136,190338,2,0,L|166:143,1,42.5,2|0,0:0|0:0,0:0:0:0:
247,217,190510,2,0,L|301:224,1,42.5,8|2,0:0|0:0,0:0:0:0:
401,293,190681,2,0,L|455:300,1,42.5,2|0,0:0|0:0,0:0:0:0:
494,163,190853,6,0,P|447:175|381:194,1,85,2|0,0:0|0:0,0:0:0:0:
266,294,191196,2,0,L|158:260,1,85,8|0,0:0|0:0,0:0:0:0:
142,88,191538,1,2,0:0:0:0:
340,232,191710,2,0,L|342:274,1,42.5,2|0,0:0|0:0,0:0:0:0:
311,62,191881,2,0,L|353:60,1,42.5,10|0,0:0|0:0,0:0:0:0:
167,260,192053,2,0,L|124:261,1,42.5,2|0,0:0|0:0,0:0:0:0:
23,263,192224,5,2,0:0:0:0:
176,177,192396,1,2,0:0:0:0:
203,349,192567,5,8,0:0:0:0:
169,183,192738,1,2,0:0:0:0:
340,205,192910,5,2,0:0:0:0:
162,189,193081,1,2,0:0:0:0:
245,29,193253,5,8,0:0:0:0:
155,195,193424,1,2,0:0:0:0:
308,309,193596,6,0,L|430:317,1,85,6|0,0:0|0:0,0:0:0:0:
172,92,193938,2,0,P|121:101|63:118,1,85,8|0,0:0|0:0,0:0:0:0:
22,234,194281,1,2,0:0:0:0:
174,318,194453,1,2,0:0:0:0:
174,318,194538,1,0,0:0:0:0:
174,318,194624,2,0,L|162:254,1,42.5,10|0,0:0|0:0,0:0:0:0:
240,168,194796,2,0,L|312:159,1,42.5,2|0,0:0|0:0,0:0:0:0:
368,244,194967,6,0,L|467:235,1,85,2|0,0:0|0:0,0:0:0:0:
255,46,195310,2,0,L|147:58,1,85,8|0,0:0|0:0,0:0:0:0:
66,195,195653,1,2,0:0:0:0:
233,151,195824,1,2,0:0:0:0:
233,151,195910,1,0,0:0:0:0:
233,151,195996,2,0,L|244:211,1,42.5,10|0,0:0|0:0,0:0:0:0:
368,244,196167,2,0,L|361:203,1,42.5,2|0,0:0|0:0,0:0:0:0:
461,94,196338,6,0,L|484:205,1,85,6|0,0:0|0:0,0:0:0:0:
355,327,196681,2,0,P|312:319|265:311,1,85,8|0,0:0|0:0,0:0:0:0:
236,73,197024,1,2,0:0:0:0:
402,198,197196,1,2,0:0:0:0:
402,198,197281,1,0,0:0:0:0:
402,198,197367,2,0,L|319:204,1,42.5,10|0,0:0|0:0,0:0:0:0:
187,209,197538,2,0,L|183:167,1,42.5,2|0,0:0|0:0,0:0:0:0:
306,35,197710,6,0,L|315:120,1,85,2|0,0:0|0:0,0:0:0:0:
206,349,198053,2,0,L|197:264,1,85,8|0,0:0|0:0,0:0:0:0:
413,242,198396,2,0,L|328:251,1,85,2|0,0:0|0:0,0:0:0:0:
99,142,198739,2,0,L|184:133,1,85,8|0,0:0|0:0,0:0:0:0:
355,312,199081,5,4,3:2:0:0:
387,321,199167,1,0,3:2:0:0:
421,318,199253,1,0,3:2:0:0:
451,303,199338,1,0,3:2:0:0:
474,279,199424,1,8,3:2:0:0:
487,247,199510,1,0,3:2:0:0:
488,214,199596,1,0,3:2:0:0:
477,182,199681,1,0,3:2:0:0:
454,157,199767,6,0,L|396:150,3,42.5,0|0|0|0,3:0|3:0|3:0|3:0,0:0:0:0:
334,205,200110,2,0,L|276:212,3,42.5,8|0|0|0,3:2|3:0|3:0|3:0,0:0:0:0:
287,176,200453,5,4,3:2:0:0:
293,142,200538,1,0,3:2:0:0:
310,113,200624,1,0,3:2:0:0:
335,90,200710,1,0,3:2:0:0:
365,76,200796,1,8,3:2:0:0:
399,72,200881,1,0,3:2:0:0:
432,79,200967,1,0,3:2:0:0:
462,96,201053,1,0,3:2:0:0:
484,121,201138,5,0,3:2:0:0:
498,151,201224,1,0,3:2:0:0:
502,185,201310,1,0,3:2:0:0:
495,218,201396,1,0,3:2:0:0:
478,248,201481,1,8,3:2:0:0:
453,270,201567,1,0,3:2:0:0:
422,284,201653,1,0,3:2:0:0:
388,287,201738,1,0,3:2:0:0:
355,278,201824,6,0,L|330:225,1,42.5,4|0,3:2|3:0,0:0:0:0:
243,144,201996,2,0,L|231:219,1,42.5,0|0,3:0|3:0,0:0:0:0:
194,321,202167,2,0,L|238:295,1,42.5,8|0,3:2|3:0,0:0:0:0:
99,216,202338,2,0,L|40:231,1,42.5,0|0,3:0|3:0,0:0:0:0:
30,342,202510,5,4,3:2:0:0:
70,356,202596,1,0,3:2:0:0:
111,348,202681,1,0,3:2:0:0:
147,325,202767,1,0,3:2:0:0:
175,292,202853,1,8,3:2:0:0:
211,270,202938,1,0,3:2:0:0:
252,259,203024,1,0,3:2:0:0:
294,261,203110,1,0,3:2:0:0:
338,274,203196,6,2,B|381:235|343:184|343:184|350:143|388:113|445:121|468:179,1,255.000009727478,4|0,0:0|0:0,0:1:0:0:
382,375,204053,2,0,L|329:380,1,31.8750012159348
249,377,204224,6,0,P|275:300|249:180,1,191.250007295609,10|0,0:0|0:0,0:0:0:0:
258,194,204567,1,6,0:0:0:0:
397,57,205253,6,0,P|428:133|450:243,1,191.250007295609,2|2,0:0|0:0,0:0:0:0:
156,355,206453,2,0,B|178:222,1,127.500004863739,2|0,0:0|0:0,0:0:0:0:
62,144,206967,5,2,0:0:0:0:
62,144,207053,1,2,0:0:0:0:
62,144,207138,1,2,0:0:0:0:
62,144,207224,1,2,0:0:0:0:
62,144,207310,5,6,0:0:0:0:
164,56,207481,1,0,0:0:0:0:
248,212,207653,1,2,0:0:0:0:
104,252,207824,5,0,0:0:0:0:
256,80,207996,1,2,0:0:0:0:
328,297,208167,1,0,0:0:0:0:
114,327,208338,5,6,0:0:0:0:
152,16,208510,1,4,0:0:0:0:
152,16,208853,5,4,0:0:0:0:
360,368,209024,1,4,0:0:0:0:
40,200,209196,1,4,0:0:0:0:
472,184,209367,1,4,0:0:0:0:
256,192,210053,5,4,0:0:0:0:
256,192,216224,12,4,219653,3:2:0:0:
131,83,219824,5,0,3:0:0:0:
254,280,219996,2,0,P|206:300|146:307,1,85,0|0,3:0|3:0,0:0:0:0:
192,160,220338,2,0,L|188:208,1,42.5,0|0,3:0|3:0,0:0:0:0:
287,133,220510,2,0,L|283:175,1,42.5,0|0,3:0|3:0,0:0:0:0:
385,104,220681,2,0,L|376:197,1,85,0|0,3:0|3:0,0:0:0:0:
363,318,221024,5,4,0:0:0:0:
146,206,221196,5,2,0:0:0:0:
298,90,221538,1,2,0:0:0:0:
323,279,221881,1,2,0:0:0:0:
168,124,222224,5,2,0:0:0:0:
357,149,222566,1,2,0:0:0:0:
241,301,222909,1,2,0:0:0:0:
241,82,223253,5,2,0:0:0:0:
357,234,223595,1,2,0:0:0:0:
168,259,223767,5,6,0:0:0:0:
324,104,223938,5,2,0:0:0:0:
147,177,224281,1,2,0:0:0:0:
299,293,224624,1,2,0:0:0:0:
366,177,224967,5,2,0:0:0:0:
189,104,225310,1,2,0:0:0:0:
214,293,225653,1,2,0:0:0:0:
344,260,225996,5,2,0:0:0:0:
270,81,226338,1,2,0:0:0:0:
75,265,226510,5,4,3:0:0:0:
121,358,226681,1,0,3:2:0:0:
179,233,226853,1,0,3:2:0:0:
225,326,227024,1,0,3:2:0:0:
284,205,227196,1,0,3:2:0:0:
330,298,227367,1,0,3:2:0:0:
388,173,227538,1,0,3:2:0:0:
434,266,227710,1,2,3:0:0:0:
382,96,227881,5,6,3:0:0:0:
336,189,228053,1,2,3:0:0:0:
278,64,228224,1,2,3:0:0:0:
232,157,228396,1,0,3:0:0:0:
173,36,228567,1,0,3:0:0:0:
127,129,228738,1,2,3:0:0:0:
69,4,228910,1,2,3:0:0:0:
23,97,229081,1,2,3:0:0:0:
173,36,229253,5,6,3:0:0:0:
200,56,229338,1,2,3:0:0:0:
217,85,229424,1,2,3:0:0:0:
222,118,229510,1,2,3:0:0:0:
213,151,229596,1,2,3:0:0:0:
193,178,229681,1,2,3:0:0:0:
164,195,229767,1,2,3:0:0:0:
131,199,229853,1,2,3:0:0:0:
97,194,229938,2,0,L|62:154,7,42.5,6|2|2|2|2|2|2|2,3:0|3:0|3:0|3:0|3:0|3:0|3:0|3:0,0:0:0:0:
97,194,230624,6,2,P|149:160|229:154,1,127.500004863739,4|2,0:0|0:3,0:1:0:0:
292,24,231138,1,0,0:0:0:0:
366,265,231310,2,0,L|355:210,1,42.5,0|0,3:0|0:0,0:0:0:0:
146,119,231481,2,0,L|157:172,1,53.125,0|0,3:0|0:0,0:0:0:0:
256,192,231653,6,0,P|304:128|274:0,1,191.250007295609,10|0,0:0|0:0,0:0:0:0:
208,0,231996,6,0,L|95:13,1,85,6|0,0:0|0:0,0:0:0:0:
256,192,232338,2,0,P|306:200|355:205,1,85,8|0,0:0|0:0,0:0:0:0:
428,86,232681,1,2,0:0:0:0:
478,248,232853,1,0,0:0:0:0:
428,86,233024,2,0,L|342:102,1,85,8|0,0:0|0:0,0:0:0:0:
164,233,233367,6,0,P|172:187|173:138,1,85,2|0,0:0|0:0,0:0:0:0:
50,34,233710,2,0,L|156:4,1,85,8|0,0:0|0:0,0:0:0:0:
301,49,234053,1,2,0:0:0:0:
173,148,234224,1,0,0:0:0:0:
314,230,234396,2,0,P|363:221|407:214,1,85,8|0,0:0|0:0,0:0:0:0:
445,21,234738,6,0,P|435:90|431:118,1,85,2|0,0:0|0:0,0:0:0:0:
267,276,235081,2,0,L|255:192,1,85,8|0,0:0|0:0,0:0:0:0:
162,86,235424,1,2,0:0:0:0:
111,293,235596,1,0,0:0:0:0:
0,149,235767,2,0,P|54:134|120:125,1,85,8|0,0:0|0:0,0:0:0:0:
255,192,236110,5,2,0:0:0:0:
162,86,236281,1,0,0:0:0:0:
117,252,236453,1,8,0:0:0:0:
333,150,236624,1,0,0:0:0:0:
190,2,236796,1,2,0:0:0:0:
204,259,236967,1,0,0:0:0:0:
411,108,237138,1,8,0:0:0:0:
457,364,237310,1,0,0:0:0:0:
383,250,237481,6,0,L|506:224,1,85,2|0,0:0|0:0,0:0:0:0:
301,59,237824,2,0,P|248:62|184:82,1,85,8|0,0:0|0:0,0:0:0:0:
380,327,238167,1,2,0:0:0:0:
267,152,238338,1,0,0:0:0:0:
238,296,238510,1,8,0:0:0:0:
413,183,238681,1,0,0:0:0:0:
188,89,238853,6,0,P|174:141|167:193,1,85,2|0,0:0|0:0,0:0:0:0:
310,359,239196,2,0,P|324:307|331:255,1,85,8|0,0:0|0:0,0:0:0:0:
267,152,239538,1,2,0:0:0:0:
157,332,239710,1,0,0:0:0:0:
394,290,239881,1,8,0:0:0:0:
256,40,240053,1,0,0:0:0:0:
73,205,240224,6,0,L|162:190,1,85,2|0,0:0|0:0,0:0:0:0:
393,372,240567,2,0,P|348:369|304:357,1,85,8|0,0:0|0:0,0:0:0:0:
169,281,240910,1,2,0:0:0:0:
343,103,241081,1,0,0:0:0:0:
431,265,241253,1,8,0:0:0:0:
256,192,241424,1,0,0:0:0:0:
406,37,241596,5,2,0:0:0:0:
387,184,241767,1,0,0:0:0:0:
256,81,241938,5,8,0:0:0:0:
239,263,242110,1,0,0:0:0:0:
108,117,242281,5,2,0:0:0:0:
82,362,242453,1,0,0:0:0:0:
307,262,242624,1,8,0:0:0:0:
166,243,242796,5,0,0:0:0:0:
166,243,242881,1,0,0:0:0:0:
166,243,242967,2,0,L|151:340,1,85,4|0,0:0|0:0,0:0:0:0:
352,104,243310,2,0,L|341:12,1,85,8|0,0:0|0:0,0:0:0:0:
164,63,243653,1,2,0:0:0:0:
307,262,243824,1,0,0:0:0:0:
107,309,243996,1,8,0:0:0:0:
219,127,244167,1,0,0:0:0:0:
309,351,244338,6,0,L|211:363,1,85,2|0,0:0|0:0,0:0:0:0:
72,186,244681,2,0,P|79:135|92:87,1,85,8|0,0:0|0:0,0:0:0:0:
286,89,245024,1,2,0:0:0:0:
359,222,245196,1,0,0:0:0:0:
153,162,245367,1,8,0:0:0:0:
226,295,245538,1,0,0:0:0:0:
444,270,245710,6,0,L|455:176,1,85,6|0,0:0|0:0,0:0:0:0:
314,10,246053,2,0,P|270:15|219:31,1,85,8|0,0:0|0:0,0:0:0:0:
81,118,246396,1,2,0:0:0:0:
281,237,246567,1,0,0:0:0:0:
128,332,246738,2,0,L|147:217,1,85,8|0,0:0|0:0,0:0:0:0:
342,178,247081,5,2,0:0:0:0:
455,303,247253,1,0,0:0:0:0:
277,96,247424,5,8,0:0:0:0:
254,299,247596,1,0,0:0:0:0:
359,31,247767,5,2,0:0:0:0:
150,134,247938,1,0,0:0:0:0:
424,113,248110,5,8,0:0:0:0:
269,0,248281,1,0,0:0:0:0:
254,299,248453,6,0,L|325:292,1,42.5,4|0,3:2|3:0,0:0:0:0:
340,208,248624,1,0,3:0:0:0:
344,184,248709,1,0,3:0:0:0:
348,160,248795,1,8,3:2:0:0:
352,136,248881,1,0,3:0:0:0:
356,112,248966,1,0,3:0:0:0:
360,88,249052,1,0,3:0:0:0:
364,64,249138,6,0,L|410:60,1,42.5,4|0,3:2|3:0,0:0:0:0:
476,160,249310,2,0,L|465:213,1,42.5,0|0,3:0|3:0,0:0:0:0:
355,273,249481,1,8,3:2:0:0:
297,284,249566,1,0,3:0:0:0:
241,266,249652,1,0,3:0:0:0:
203,219,249738,1,0,3:0:0:0:
184,162,249824,6,0,L|201:91,3,42.5,4|0|0|0,3:2|3:0|3:0|3:0,0:0:0:0:
107,41,250167,2,0,L|90:112,3,42.5,8|0|0|0,3:2|3:0|3:0|3:0,0:0:0:0:
28,154,250510,6,0,L|16:194,1,42.5,4|0,3:2|3:0,0:0:0:0:
104,230,250681,2,0,L|139:253,1,42.5,0|0,3:0|3:0,0:0:0:0:
202,181,250853,2,0,L|235:154,1,42.5,8|0,3:2|3:0,0:0:0:0:
184,74,251024,2,0,L|169:34,1,42.5,0|0,3:0|3:0,0:0:0:0:
77,56,251196,5,4,3:2:0:0:
88,117,251281,1,0,3:2:0:0:
120,176,251367,1,0,3:2:0:0:
170,221,251453,1,0,3:2:0:0:
228,255,251538,1,8,3:2:0:0:
294,269,251624,1,0,3:2:0:0:
361,262,251710,1,0,3:2:0:0:
424,237,251796,1,0,3:2:0:0:
479,198,251881,2,0,L|463:270,7,42.5,4|0|0|0|8|0|0|0,3:2|3:0|3:0|3:0|3:2|3:0|3:0|3:0,0:0:0:0:
504,162,252567,6,2,P|408:74|280:114,1,255.000009727478,4|0,0:0|0:0,0:1:0:0:
385,182,253424,2,0,L|393:126,1,31.8750012159348
250,24,253596,6,0,P|277:114|257:207,1,191.250007295609,10|0,0:0|0:0,0:0:0:0:
258,207,253938,1,6,0:0:0:0:
258,207,254624,6,0,P|170:195|82:275,1,191.250007295609,2|2,0:0|0:0,0:0:0:0:
277,340,255824,2,0,L|422:323,1,127.500004863739,2|0,0:0|0:0,0:0:0:0:
422,150,256338,5,2,0:0:0:0:
422,150,256424,1,2,0:0:0:0:
422,150,256510,1,2,0:0:0:0:
422,150,256596,1,2,0:0:0:0:
422,150,256681,5,6,0:0:0:0:
329,301,256853,1,0,0:0:0:0:
319,179,257024,1,2,0:0:0:0:
180,317,257196,5,0,0:0:0:0:
369,368,257367,1,2,0:0:0:0:
256,104,257538,1,0,0:0:0:0:
77,331,257710,5,6,0:0:0:0:
388,233,257881,1,4,0:0:0:0:
387,232,258224,5,4,0:0:0:0:
354,223,258396,1,4,0:0:0:0:
320,214,258567,1,4,0:0:0:0:
287,205,258738,1,4,0:0:0:0:
253,196,259424,6,0,L|269:315,1,85,4|0,3:2|0:0,0:0:0:0:
115,117,259767,1,2,3:0:0:0:
147,320,259938,1,0,0:0:0:0:
146,320,260024,1,2,0:3:0:0:
146,320,260110,2,0,L|157:276,1,42.5,0|0,3:0|0:0,0:0:0:0:
247,154,260281,2,0,L|257:228,1,42.5,2|0,0:3|0:0,0:0:0:0:
353,299,260453,6,0,B|507:275,1,127.500004863739,8|2,3:0|0:3,0:0:0:0:
336,51,260796,6,0,P|317:98|308:149,1,85,0|0,3:0|0:0,0:0:0:0:
211,353,261138,2,0,L|198:250,1,85,2|0,3:0|0:0,0:0:0:0:
174,228,261396,1,2,0:3:0:0:
129,214,261481,2,0,P|97:218|72:226,1,42.5,0|0,3:0|0:0,0:0:0:0:
54,351,261653,2,0,P|86:347|111:339,1,42.5,0|2,0:3|3:0,0:0:0:0:
224,240,261824,6,0,P|244:176|216:96,1,127.500004863739,8|2,3:2|0:3,0:0:0:0:
84,59,262167,5,0,3:0:0:0:
23,156,262338,1,0,3:0:0:0:
51,267,262510,1,0,3:0:0:0:
155,314,262681,1,0,3:0:0:0:
264,278,262853,5,0,3:0:0:0:
236,221,262938,1,0,3:0:0:0:
198,169,263024,1,0,3:0:0:0:
164,114,263110,1,0,3:0:0:0:
128,59,263196,2,0,L|138:29,7,31.8750012159348
128,59,263538,6,2,L|238:69,1,95.6250036478044,4|0,0:0|0:0,0:1:0:0:
383,177,263881,6,2,L|251:193,1,127.5,2|0,3:0|0:0,0:1:0:0:
128,304,264224,6,2,L|292:324,1,159.375,2|0,3:0|0:0,0:1:0:0:
256,192,264567,6,8,L|483:218,1,191.250007295609,10|0,0:0|0:0,0:0:0:0:
499,164,264910,6,0,P|508:120|514:62,1,85,6|0,0:0|0:0,0:0:0:0:
369,27,265253,1,8,0:0:0:0:
256,192,265424,1,0,0:0:0:0:
256,192,265510,1,0,0:0:0:0:
256,192,265596,2,0,L|357:182,1,85,2|0,0:0|0:0,0:0:0:0:
212,25,265938,2,0,L|127:33,1,85,8|0,0:0|0:0,0:0:0:0:
38,213,266281,5,2,0:0:0:0:
171,131,266453,1,0,0:0:0:0:
224,273,266624,2,0,P|217:351|213:386,1,85,8|0,0:0|0:0,0:0:0:0:
381,221,266967,2,0,P|378:179|372:136,1,85,2|0,0:0|0:0,0:0:0:0:
283,31,267310,1,8,0:0:0:0:
216,196,267481,1,0,0:0:0:0:
120,60,267653,6,0,L|28:69,1,85,2|0,0:0|0:0,0:0:0:0:
175,239,267996,2,0,L|267:230,1,85,8|0,0:0|0:0,0:0:0:0:
299,215,268253,1,0,0:0:0:0:
329,186,268338,2,0,P|336:138|339:83,1,85,2|0,0:0|0:0,0:0:0:0:
158,3,268681,2,0,P|151:51|148:106,1,85,8|0,0:0|0:0,0:0:0:0:
175,239,269024,5,2,0:0:0:0:
338,101,269196,1,0,0:0:0:0:
371,322,269367,2,0,L|356:227,1,85,8|0,0:0|0:0,0:0:0:0:
210,116,269710,1,2,0:0:0:0:
133,275,269881,1,0,0:0:0:0:
210,116,270053,2,0,L|198:15,1,85,8|0,0:0|0:0,0:0:0:0:
52,252,270396,6,0,L|66:350,1,85,2|0,0:0|0:0,0:0:0:0:
308,340,270738,1,8,0:0:0:0:
210,116,270910,1,0,0:0:0:0:
210,116,270996,1,0,0:0:0:0:
210,116,271081,2,0,L|203:223,1,85,2|0,0:0|0:0,0:0:0:0:
308,340,271424,2,0,L|414:328,1,85,8|0,0:0|0:0,0:0:0:0:
204,200,271767,6,0,L|107:210,1,85,2|0,0:0|0:0,0:0:0:0:
326,43,272110,2,0,P|335:84|342:127,1,85,8|0,0:0|0:0,0:0:0:0:
210,116,272453,1,2,0:0:0:0:
427,198,272624,1,0,0:0:0:0:
253,274,272796,1,8,0:0:0:0:
299,48,272967,1,0,0:0:0:0:
254,273,273138,6,0,L|145:286,1,85,2|0,0:0|0:0,0:0:0:0:
85,64,273481,2,0,P|108:106|116:142,1,85,8|0,0:0|0:0,0:0:0:0:
108,183,273738,1,0,0:0:0:0:
88,221,273824,2,0,L|3:231,1,85,2|0,0:0|0:0,0:0:0:0:
267,119,274167,2,0,P|286:176|287:230,1,85,8|0,0:0|0:0,0:0:0:0:
162,333,274510,5,2,0:0:0:0:
162,126,274681,1,0,0:0:0:0:
40,293,274853,1,8,0:0:0:0:
237,230,275024,1,0,0:0:0:0:
40,166,275196,5,2,0:0:0:0:
311,313,275367,1,0,0:0:0:0:
302,4,275538,1,0,3:0:0:0:
40,165,275710,2,0,L|105:167,1,42.5,0|0,3:0|3:0,0:0:0:0:
162,126,275881,6,0,L|178:238,1,85,4|0,3:2|0:0,0:0:0:0:
338,325,276224,2,0,L|448:317,1,85,8|0,3:2|0:0,0:0:0:0:
376,242,276481,1,0,0:0:0:0:
376,242,276567,2,0,L|266:250,1,85,0|0,3:2|0:0,0:0:0:0:
176,254,276910,1,8,3:2:0:0:
333,102,277081,1,0,0:0:0:0:
196,42,277253,6,0,L|212:154,1,85,0|0,3:2|0:0,0:0:0:0:
80,289,277596,2,0,L|64:177,1,85,8|0,3:2|0:0,0:0:0:0:
333,102,277938,2,0,L|349:214,1,85,0|0,3:2|0:0,0:0:0:0:
188,338,278281,2,0,L|172:226,1,85,8|0,3:2|0:0,0:0:0:0:
247,112,278624,5,0,3:0:0:0:
317,321,278796,1,0,0:0:0:0:
458,185,278967,2,0,L|352:195,1,85,8|0,3:2|0:0,0:0:0:0:
335,173,279224,1,0,0:0:0:0:
304,148,279310,2,0,P|307:96|316:42,1,85,0|0,3:0|0:0,0:0:0:0:
479,265,279653,2,0,P|476:317|467:371,1,85,8|0,3:2|0:0,0:0:0:0:
256,348,279996,5,0,3:0:0:0:
335,173,280167,1,0,0:0:0:0:
199,279,280338,2,0,L|302:265,1,85,8|0,3:2|0:0,0:0:0:0:
118,32,280681,2,0,L|202:42,1,85,0|0,3:2|0:0,0:0:0:0:
1,233,281024,2,0,L|88:210,1,85,8|0,3:2|0:0,0:0:0:0:
304,148,281367,5,0,3:0:0:0:
275,39,281538,1,0,3:0:0:0:
194,178,281710,1,8,3:2:0:0:
165,68,281881,1,0,3:0:0:0:
272,242,282053,5,0,3:0:0:0:
304,148,282224,1,0,3:0:0:0:
366,274,282396,1,8,3:2:0:0:
398,180,282567,1,0,3:0:0:0:
61,230,282738,5,0,3:0:0:0:
88,340,282910,1,0,3:0:0:0:
171,203,283081,1,8,3:2:0:0:
198,313,283253,1,0,3:0:0:0:
451,230,283424,5,0,3:0:0:0:
424,340,283596,1,0,3:0:0:0:
341,203,283767,1,8,3:2:0:0:
314,313,283938,1,0,3:0:0:0:
256,20,284110,6,0,L|268:94,1,42.5,4|0,3:2|3:0,0:0:0:0:
428,192,284281,2,0,L|354:204,1,42.5,0|0,3:2|3:0,0:0:0:0:
256,364,284453,2,0,L|244:290,1,42.5,8|0,3:2|3:0,0:0:0:0:
84,192,284624,2,0,L|158:180,1,42.5,0|0,3:0|3:0,0:0:0:0:
239,140,284796,5,4,3:2:0:0:
299,160,284881,1,0,3:0:0:0:
299,223,284967,1,0,3:0:0:0:
239,243,285053,1,0,3:0:0:0:
199,191,285138,2,0,L|234:179,3,31.8750012159348,8|0|0|0,3:2|3:0|3:0|3:0,0:0:0:0:
254,190,285481,6,2,P|241:266|178:297,1,127.500004863739,4|0,0:0|3:0,0:1:0:0:
104,252,285996,1,2,3:0:0:0:
376,310,286167,2,0,L|383:268,1,42.5,0|0,3:0|0:0,0:0:0:0:
498,192,286338,2,0,L|487:141,1,53.125,2|0,3:0|0:0,0:0:0:0:
370,50,286510,6,2,B|320:64|247:67|247:67|252:105|323:120,1,191.250007295609,10|0,0:0|0:0,0:1:0:0:
362,168,286853,6,0,L|353:233,1,63.7500024318696,6|0,0:0|0:0,0:0:0:0:
209,312,287196,2,0,L|218:247,1,63.7500024318696,8|0,0:0|0:0,0:0:0:0:
92,150,287538,2,0,L|83:215,1,63.7500024318696,2|0,0:0|0:0,0:0:0:0:
245,112,287881,2,0,L|253:48,1,63.7500024318696,8|0,0:0|0:0,0:0:0:0:
131,39,288224,5,2,0:0:0:0:
192,201,288396,1,0,0:0:0:0:
245,112,288567,1,8,0:0:0:0:
137,287,288739,1,0,0:0:0:0:
92,150,288910,2,0,L|23:160,1,63.7500024318696,2|0,0:0|0:0,0:0:0:0:
237,287,289253,2,0,L|306:277,1,63.7500024318696,8|0,0:0|0:0,0:0:0:0:
405,166,289596,5,2,0:0:0:0:
245,112,289767,1,0,0:0:0:0:
353,8,289938,2,0,L|365:85,1,63.7500024318696,8|0,0:0|0:0,0:0:0:0:
241,200,290281,2,0,L|318:188,1,63.7500024318696,2|0,0:0|0:0,0:0:0:0:
144,84,290624,2,0,L|81:93,1,63.7500024318696,8|0,0:0|0:0,0:0:0:0:
4,192,290967,5,2,0:0:0:0:
136,288,291138,1,0,0:0:0:0:
16,360,291310,2,0,L|27:277,1,63.7500024318696,8|0,0:0|0:0,0:0:0:0:
136,288,291653,2,0,L|147:205,1,63.7500024318696,2|0,0:0|0:0,0:0:0:0:
256,216,291996,2,0,L|267:133,1,63.7500024318696,8|0,0:0|0:0,0:0:0:0:
284,24,292338,5,2,0:0:0:0:
388,68,292510,1,0,0:0:0:0:
492,112,292681,2,0,L|480:192,1,63.7500024318696,8|0,0:0|0:0,0:0:0:0:
319,225,293024,2,0,L|239:213,1,63.7500024318696,2|0,0:0|0:0,0:0:0:0:
407,368,293367,2,0,L|416:304,1,63.7500024318696,8|0,0:0|0:0,0:0:0:0:
333,121,293710,6,0,L|396:131,1,63.7500024318696,2|0,0:0|0:0,0:0:0:0:
179,263,294053,2,0,L|116:253,1,63.7500024318696,8|0,0:0|0:0,0:0:0:0:
108,101,294396,2,0,L|171:111,1,63.7500024318696,2|0,0:0|0:0,0:0:0:0:
319,225,294738,2,0,L|382:235,1,63.7500024318696,8|0,0:0|0:0,0:0:0:0:
480,89,295081,6,0,L|490:162,1,63.7500024318696,2|0,0:0|0:0,0:0:0:0:
389,298,295424,2,0,L|381:235,1,63.7500024318696,8|0,0:0|0:0,0:0:0:0:
252,96,295767,2,0,L|240:188,1,63.7500024318696,2|0,0:0|0:0,0:0:0:0:
96,316,296110,2,0,L|105:253,1,63.7500024318696,8|0,0:0|0:0,0:0:0:0:
77,122,296453,5,2,0:0:0:0:
165,177,296624,1,0,0:0:0:0:
267,158,296796,1,8,0:0:0:0:
356,212,296967,1,0,0:0:0:0:
460,211,297138,2,2,P|448:288|391:300,1,127.500004863739,2|0,0:0|3:0,0:0:0:0:
338,153,297653,2,0,L|333:122,1,31.8750012159348,0|0,3:0|3:0,0:0:0:0:
254,215,297824,6,0,L|268:302,1,63.7500024318696,4|0,3:2|0:0,0:0:0:0:
408,302,298167,2,0,L|398:240,1,63.7500024318696,0|0,3:0|0:0,0:0:0:0:
158,291,298510,2,0,L|172:378,1,63.7500024318696,0|0,3:0|0:0,0:0:0:0:
336,152,298853,2,0,L|326:90,1,63.7500024318696,0|0,3:0|0:0,0:0:0:0:
168,20,299196,6,0,L|157:83,1,63.7500024318696,0|0,3:0|0:0,0:0:0:0:
236,219,299538,2,0,L|247:156,1,63.7500024318696,0|0,3:0|0:0,0:0:0:0:
382,102,299881,2,0,L|371:165,1,63.7500024318696,0|0,3:0|0:0,0:0:0:0:
452,312,300224,2,0,L|463:249,1,63.7500024318696,0|0,3:0|0:0,0:0:0:0:
371,165,300567,5,4,3:2:0:0:
295,283,300738,1,2,0:3:0:0:
341,146,300910,5,0,3:0:0:0:
370,262,301081,1,2,0:3:0:0:
203,165,301253,6,0,L|216:87,1,63.7500024318696,0|0,3:0|0:0,0:0:0:0:
106,27,301596,2,0,L|93:105,1,63.7500024318696,0|0,3:0|0:0,0:0:0:0:
267,290,301938,2,0,L|280:212,1,63.7500024318696,0|0,3:0|0:0,0:0:0:0:
80,288,302281,2,0,L|67:366,1,63.7500024318696,0|0,3:0|0:0,0:0:0:0:
267,290,302624,2,0,L|277:227,1,63.7500024318696,0|0,3:0|0:0,0:0:0:0:
160,64,302967,2,0,L|149:126,1,63.7500024318696,0|0,3:0|0:0,0:0:0:0:
124,256,303310,5,4,3:2:0:0:
220,248,303481,1,0,3:0:0:0:
316,240,303653,1,0,3:0:0:0:
412,232,303824,1,0,3:0:0:0:
336,148,303996,5,0,3:0:0:0:
316,240,304167,1,0,3:0:0:0:
244,128,304338,1,0,3:0:0:0:
224,220,304509,1,0,3:0:0:0:
340,92,304681,5,4,3:2:0:0:
244,128,304853,1,0,3:0:0:0:
148,164,305024,1,0,3:0:0:0:
52,200,305196,1,0,3:0:0:0:
184,36,305367,5,0,3:0:0:0:
148,164,305538,1,0,3:0:0:0:
312,72,305710,1,0,3:0:0:0:
276,200,305881,1,0,3:0:0:0:
103,349,306053,5,4,3:2:0:0:
101,329,306138,1,0,3:0:0:0:
100,310,306224,1,0,3:0:0:0:
99,291,306310,1,0,3:0:0:0:
98,272,306395,1,0,3:0:0:0:
96,253,306481,1,0,3:0:0:0:
95,234,306567,1,0,3:0:0:0:
94,215,306652,1,0,3:0:0:0:
93,196,306738,5,4,3:2:0:0:
92,177,306824,1,0,3:0:0:0:
90,158,306910,1,0,3:0:0:0:
89,139,306995,1,0,3:0:0:0:
88,119,307081,1,0,3:0:0:0:
87,100,307167,1,0,3:0:0:0:
85,81,307252,1,0,3:0:0:0:
84,62,307338,1,0,3:0:0:0:
83,43,307424,5,4,3:2:0:0:
256,192,307510,12,4,308796,0:0:0:0:
