osu file format v12

[General]
AudioFilename: kp.mp3
AudioLeadIn: 2000
PreviewTime: 59436
Countdown: 0
SampleSet: Soft
StackLeniency: 0.7
Mode: 0
LetterboxInBreaks: 0

[Editor]
Bookmarks: 16718,23424,31541,34718,46012,51659,88012
DistanceSpacing: 1
BeatDivisor: 4
GridSize: 4

[Metadata]
Title:Baby Sweet Berry Love (TV Size)
TitleUnicode:Baby Sweet Berry Love (TV Size)
Artist:Ogura Yui
ArtistUnicode:小倉唯
Creator:koreapenguin
Version:Insane
Source:Hentai Ouji to Warawanai Neko
Tags:ending Norman P_A_N cat J.C. Staff HenNeko. The Prince and the Stony Cat Shunryuu 俊龍
BeatmapID:245599
BeatmapSetID:89831

[Difficulty]
HPDrainRate:8
CircleSize:4
OverallDifficulty:8
ApproachRate:9
SliderMultiplier:1.8
SliderTickRate:1

[Events]
//Background and Video events
Video,69,"hentai.avi"
0,0,"BG.jpg",0,0
//Break Periods
//Storyboard Layer 0 (Background)
//Storyboard Layer 1 (Fail)
//Storyboard Layer 2 (Pass)
//Storyboard Layer 3 (Foreground)
//Storyboard Sound Samples
//Background Colour Transformations
3,100,163,162,255

[TimingPoints]
760,352.941176470588,4,2,1,65,1,0
8524,-100,4,2,1,50,0,0
8701,-100,4,2,1,65,0,0
23348,-125,4,2,3,65,0,0
34642,-100,4,2,1,65,0,0
45936,-125,4,2,1,65,0,0
51583,-100,4,2,1,65,0,0
60054,-100,4,2,1,65,0,1
70995,-100,4,2,1,65,0,0
71348,-100,4,2,1,65,0,1
81936,-100,4,2,1,65,0,0
82642,-125,4,2,1,65,0,0
83877,-100,4,2,1,65,0,0

[Colours]
Combo1 : 238,153,83
Combo2 : 251,142,235
Combo3 : 249,51,56
Combo4 : 98,222,95
Combo5 : 97,146,248
Combo6 : 226,240,104

[HitObjects]
171,37,230,2,0,P|155:76|171:130,1,90,2|0,0:0|0:0,0:0:0:0:
216,196,583,1,2,0:0:0:0:
328,120,760,2,0,P|370:104|431:110,1,90,2|0,0:0|0:0,0:0:0:0:
478,254,1112,2,0,P|435:238|392:240,1,90,2|0,0:0|0:0,0:0:0:0:
256,332,1465,6,0,P|164:352|92:276,1,180,2|0,0:0|0:0,0:0:0:0:
52,92,1995,2,0,P|40:132|44:180,1,90,2|0,0:0|0:0,0:0:0:0:
192,252,2348,2,0,P|204:212|200:164,1,90,2|0,0:0|0:0,0:0:0:0:
172,80,2701,2,0,P|256:48|340:80,1,180,2|0,0:0|0:0,0:0:0:0:
468,348,3407,5,2,0:0:0:0:
484,216,3583,2,0,P|484:172|452:120,1,90,2|0,0:0|0:0,0:0:0:0:
380,100,3936,1,2,0:0:0:0:
304,148,4112,1,2,0:0:0:0:
232,96,4289,2,0,P|232:52|252:11,1,90,2|0,0:0|0:0,0:0:0:0:
380,100,4642,1,2,0:0:0:0:
222,185,4818,1,0,0:0:0:0:
296,236,4995,6,0,L|265:334,1,90,2|0,0:0|0:0,0:0:0:0:
144,336,5348,2,0,L|175:238,1,90,2|0,0:0|0:0,0:0:0:0:
296,236,5701,1,2,0:0:0:0:
400,304,5877,5,2,0:0:0:0:
476,256,6054,2,0,P|496:224|500:172,1,90,2|0,0:0|0:0,0:0:0:0:
412,192,6407,2,0,B|388:120|328:104|328:104|281:129,1,180,4|0,0:0|0:0,0:0:0:0:
192,284,7112,2,0,B|216:356|276:372|276:372|322:346,1,180,4|0,0:0|0:0,0:0:0:0:
276,260,7642,1,0,0:0:0:0:
216,200,7818,2,0,P|172:200|132:224,1,90,8|0,0:0|0:0,0:0:0:0:
276,260,8171,2,0,P|297:221|297:175,1,90,8|0,0:0|0:0,0:0:0:0:
332,316,8524,2,0,P|372:240|368:144,1,180,4|0,0:0|0:0,0:0:0:0:
331,7,9054,5,2,0:0:0:0:
335,39,9142,1,0,0:0:0:0:
347,67,9230,2,0,P|375:103|419:123,1,90,0|8,0:0|0:0,0:0:0:0:
496,228,9583,1,8,0:0:0:0:
414,122,9759,1,8,0:0:0:0:
380,252,9936,5,8,0:0:0:0:
380,252,10024,1,8,0:0:0:0:
380,252,10112,1,8,0:0:0:0:
296,216,10289,2,0,P|252:208|204:224,1,90
128,328,10642,1,8,0:0:0:0:
80,200,10818,1,0,0:0:0:0:
208,152,10995,5,8,0:0:0:0:
256,280,11171,1,0,0:0:0:0:
211,288,11259,1,0,0:0:0:0:
167,281,11347,1,8,0:0:0:0:
127,261,11435,1,0,0:0:0:0:
96,232,11524,2,0,P|80:196|72:144,1,90,0|8,0:0|0:0,0:0:0:0:
336,120,12054,5,2,0:0:0:0:
176,120,12230,1,2,0:0:0:0:
344,240,12407,2,0,L|360:328,1,90,8|0,0:0|0:0,0:0:0:0:
152,328,12759,1,0,0:0:0:0:
152,328,12848,1,0,0:0:0:0:
152,328,12936,2,0,L|168:236,1,90,0|8,0:0|0:0,0:0:0:0:
396,100,13465,6,0,P|413:137|408:196,1,90,2|0,0:0|0:0,0:0:0:0:
260,204,13818,2,0,P|288:168|340:152,1,90,8|0,0:0|0:0,0:0:0:0:
424,272,14171,1,2,0:0:0:0:
424,272,14259,1,0,0:0:0:0:
424,272,14348,2,0,P|380:268|340:236,1,90,0|8,0:0|0:0,0:0:0:0:
112,104,14877,5,0,0:0:0:0:
172,228,15054,1,0,0:0:0:0:
36,220,15230,1,8,0:0:0:0:
400,280,15583,5,0,0:0:0:0:
340,156,15760,1,0,0:0:0:0:
476,164,15936,1,8,0:0:0:0:
164,212,16289,6,0,L|120:296,1,90,2|0,0:0|0:0,0:0:0:0:
52,176,16642,2,0,L|96:92,1,90,8|0,0:0|0:0,0:0:0:0:
180,68,16995,2,0,L|180:20,2,45,2|0|0,0:0|0:0|0:0,0:0:0:0:
192,112,17259,2,0,P|256:132|320:112,1,135
488,232,17701,5,4,0:0:0:0:
462,319,17877,1,0,0:0:0:0:
374,345,18054,1,8,0:0:0:0:
312,282,18230,2,0,P|343:199|425:168,1,180,4|0,0:0|0:0,0:0:0:0:
405,263,18759,2,0,P|340:204|344:112,1,180,8|4,0:0|0:0,0:0:0:0:
423,167,19289,5,0,0:0:0:0:
405,263,19465,1,8,0:0:0:0:
312,282,19642,1,4,0:0:0:0:
159,158,19995,1,0,0:0:0:0:
130,323,20171,1,8,0:0:0:0:
60,264,20348,6,0,B|123:240|123:240|166:242|166:242|230:218,1,180,4|0,0:0|0:0,0:0:0:0:
244,128,20877,2,0,L|153:160,1,90,8|0,0:0|0:0,0:0:0:0:
46,354,21230,2,0,L|136:321,1,90,4|0,0:0|0:0,0:0:0:0:
215,292,21583,1,8,0:0:0:0:
215,292,21759,1,8,0:0:0:0:
244,128,21936,6,0,P|276:100|328:92,1,90,4|0,0:0|0:0,0:0:0:0:
452,128,22289,1,8,0:0:0:0:
464,264,22465,1,0,0:0:0:0:
340,324,22642,1,0,0:0:0:0:
340,324,22818,1,8,0:0:0:0:
256,288,22995,1,8,0:0:0:0:
236,280,23083,1,8,0:0:0:0:
216,276,23171,1,8,0:0:0:0:
196,280,23259,1,8,0:0:0:0:
182,289,23348,6,0,P|102:293|46:233,1,144,2|0,0:0|0:0,0:0:0:0:
32,112,24054,2,0,L|12:16,2,72,0|0|8,0:0|0:0|0:0,0:0:0:0:
140,192,24583,1,0,0:0:0:0:
140,192,24759,2,0,P|212:168|236:80,1,144,2|0,0:0|0:0,0:0:0:0:
256,40,25289,1,2,0:0:0:0:
324,20,25465,2,0,P|400:16|452:56,1,144,2|8,0:0|0:0,0:0:0:0:
384,364,26171,6,0,P|456:348|504:284,2,144,2|0|0,0:0|0:0|0:0,0:0:0:0:
300,340,27054,1,0,0:0:0:0:
288,156,27230,1,8,0:0:0:0:
240,252,27407,1,2,0:0:0:0:
384,212,27583,2,0,P|396:136|356:64,1,144,2|0,0:0|0:0,0:0:0:0:
256,44,28112,1,2,0:0:0:0:
143,77,28289,2,0,P|116:136|128:212,1,144,0|8,0:0|0:0,0:0:0:0:
36,324,28995,5,2,0:0:0:0:
128,212,29348,1,0,0:0:0:0:
192,272,29524,1,0,0:0:0:0:
364,284,29701,2,0,P|375:251|373:192,1,72,2|0,0:0|0:0,0:0:0:0:
244,128,30054,2,0,P|232:160|234:219,1,72,8|0,0:0|0:0,0:0:0:0:
280,268,30407,5,0,0:0:0:0:
376,216,30583,1,0,0:0:0:0:
328,120,30759,2,0,P|316:84|280:48,1,72
180,48,31112,1,2,0:0:0:0:
156,222,31289,1,2,0:0:0:0:
78,75,31465,1,8,0:0:0:0:
223,143,31642,1,2,0:0:0:0:
61,178,31818,5,0,0:0:0:0:
256,272,32171,1,0,0:0:0:0:
452,180,32524,1,0,0:0:0:0:
256,88,32877,1,8,0:0:0:0:
240,272,33230,6,0,L|196:208,1,72,2|0,0:0|0:0,0:0:0:0:
272,112,33583,2,0,L|316:176,1,72,8|0,0:0|0:0,0:0:0:0:
220,320,33936,2,0,L|176:260,1,72,2|0,0:0|0:0,0:0:0:0:
292,64,34289,2,0,L|336:124,1,72,8|0,0:0|0:0,0:0:0:0:
460,168,34642,6,0,P|445:207|406:234,1,90,4|0,0:0|0:0,0:0:0:0:
316,240,34995,2,0,P|232:264|188:352,1,180,8|0,0:0|0:0,0:0:0:0:
320,376,35524,1,0,0:0:0:0:
316,240,35701,1,8,0:0:0:0:
204,168,35877,1,0,0:0:0:0:
228,80,36054,6,0,P|296:52|372:112,1,180,0|8,0:0|0:0,0:0:0:0:
292,144,36583,2,0,P|292:192|268:232,1,90,0|0,0:0|0:0,0:0:0:0:
204,168,36936,1,0,0:0:0:0:
228,80,37112,1,8,0:0:0:0:
272,228,37289,5,0,0:0:0:0:
280,248,37377,1,0,0:0:0:0:
288,268,37465,2,0,P|272:336|172:372,1,180,0|8,0:0|0:0,0:0:0:0:
100,324,37995,1,0,0:0:0:0:
60,244,38171,1,0,0:0:0:0:
204,140,38348,1,0,0:0:0:0:
152,244,38524,1,8,0:0:0:0:
124,48,38701,1,0,0:0:0:0:
316,92,38877,6,0,P|412:100|472:40,1,180,0|8,0:0|0:0,0:0:0:0:
469,46,39407,1,0,0:0:0:0:
364,192,39583,2,0,P|362:237|389:284,2,90,0|0|8,0:0|0:0|0:0,0:0:0:0:
184,192,40289,5,4,0:0:0:0:
184,192,40465,1,0,0:0:0:0:
184,192,40642,2,0,L|276:192,1,90,8|0,0:0|0:0,0:0:0:0:
460,132,40995,1,2,0:0:0:0:
460,252,41171,1,2,0:0:0:0:
348,104,41348,1,8,0:0:0:0:
348,280,41524,1,2,0:0:0:0:
184,192,41701,6,0,L|148:108,1,90,4|0,0:0|0:0,0:0:0:0:
12,100,42054,2,0,L|48:184,1,90,8|0,0:0|0:0,0:0:0:0:
108,304,42407,1,2,0:0:0:0:
184,192,42583,1,2,0:0:0:0:
48,184,42759,1,8,0:0:0:0:
244,312,42936,1,2,0:0:0:0:
244,312,43024,1,0,0:0:0:0:
244,312,43112,6,0,P|332:312|408:260,1,180,4|8,0:0|0:0,0:0:0:0:
336,56,43818,2,0,P|248:56|172:108,1,180,2|8,0:0|0:0,0:0:0:0:
256,192,44524,12,8,45583,0:0:0:0:
256,192,45936,6,0,P|180:180|108:224,1,144,4|0,0:0|0:0,0:0:0:0:
200,292,46465,2,0,P|276:304|348:260,1,144
312,92,46995,1,8,0:0:0:0:
200,292,47348,1,0,0:0:0:0:
116,312,47524,6,0,P|80:328|40:372,2,72,2|2|2,0:0|0:0|0:0,0:0:0:0:
140,228,48054,1,2,0:0:0:0:
84,164,48230,1,2,0:0:0:0:
200,292,48407,5,8,0:0:0:0:
284,216,48583,1,8,0:0:0:0:
284,216,48671,1,8,0:0:0:0:
284,216,48759,2,0,P|346:179|416:220,1,144,4|0,0:0|0:0,0:0:0:0:
350,252,49289,2,0,L|340:104,1,144
340,108,49818,1,8,0:0:0:0:
196,312,50171,5,0,0:0:0:0:
196,312,50348,2,0,P|134:350|64:308,1,144,2|2,0:0|0:0,0:0:0:0:
128,200,50877,2,0,L|131:271,2,72,2|2|10,0:0|0:0|0:0,0:0:0:0:
64,76,51407,5,8,0:0:0:0:
64,76,51495,1,8,0:0:0:0:
64,76,51583,2,0,L|152:36,1,90,4|0,0:0|0:0,0:0:0:0:
256,116,51936,1,8,0:0:0:0:
368,40,52112,2,0,P|452:60|508:140,1,180
376,176,52642,1,8,0:0:0:0:
376,176,52730,1,0,0:0:0:0:
376,176,52818,1,0,0:0:0:0:
360,264,52995,6,0,P|388:300|432:316,1,90,4|0,0:0|0:0,0:0:0:0:
444,228,53348,1,8,0:0:0:0:
316,352,53524,2,0,P|268:272|276:176,1,180
312,56,54054,1,8,0:0:0:0:
176,44,54230,1,0,0:0:0:0:
176,44,54318,1,0,0:0:0:0:
176,44,54407,6,0,L|88:72,1,90,4|0,0:0|0:0,0:0:0:0:
246,255,54759,2,0,L|332:228,1,90,12|0,0:0|0:0,0:0:0:0:
265,128,55112,2,0,L|180:156,1,90,12|0,0:0|0:0,0:0:0:0:
336,340,55465,2,0,L|424:312,1,90,12|0,0:0|0:0,0:0:0:0:
484,192,55818,5,12,0:0:0:0:
421,71,55995,1,8,0:0:0:0:
421,71,56083,1,8,0:0:0:0:
421,71,56171,2,0,L|336:44,1,90,12|0,0:0|0:0,0:0:0:0:
256,152,56524,2,0,L|341:179,2,90,8|0|8,0:0|0:0|0:0,0:0:0:0:
256,152,56965,1,0,0:0:0:0:
256,152,57054,1,0,0:0:0:0:
144,36,57230,6,0,P|60:44|16:124,1,180,4|8,0:0|0:0,0:0:0:0:
168,196,57936,6,0,P|152:160|108:124,2,90,0|0|8,0:0|0:0|0:0,0:0:0:0:
208,276,58465,2,0,P|288:292|376:244,1,180,12|8,0:0|0:0,0:0:0:0:
384,232,58907,1,8,0:0:0:0:
392,216,58995,1,8,0:0:0:0:
272,156,59171,1,8,0:0:0:0:
272,156,59524,5,8,0:0:0:0:
208,276,59701,1,8,0:0:0:0:
344,272,59877,1,2,0:0:0:0:
348,96,60054,6,4,P|276:60|192:100,1,180,4|8,0:0|0:0,0:0:0:0:
44,216,60583,1,0,0:0:0:0:
79,312,60759,2,0,P|137:256|128:164,1,180,2|8,0:0|0:0,0:0:0:0:
52,96,61289,2,0,P|83:70|140:65,2,90,2|0|2,0:0|0:0|0:0,0:0:0:0:
79,312,61818,1,8,0:0:0:0:
164,348,61995,2,0,P|252:352|340:300,1,180,2|0,0:0|0:0,0:0:0:0:
352,140,62524,1,8,0:0:0:0:
372,228,62701,5,0,0:0:0:0:
440,284,62877,2,0,P|475:314|487:361,1,90,0|2,0:0|0:0,0:0:0:0:
332,308,63230,2,0,P|296:277|284:230,1,90,8|2,0:0|0:0,0:0:0:0:
352,140,63583,1,0,0:0:0:0:
456,192,63759,1,0,0:0:0:0:
332,308,63936,1,8,0:0:0:0:
256,260,64112,2,0,P|174:246|96:304,1,180
196,360,64642,1,8,0:0:0:0:
332,308,64818,1,0,0:0:0:0:
364,168,64995,5,8,0:0:0:0:
364,168,65083,1,8,0:0:0:0:
364,168,65171,2,0,P|386:131|382:70,2,90,0|12|0,0:0|0:0|0:0,0:0:0:0:
296,104,65701,2,0,P|208:88|120:136,1,180,6|8,0:0|0:0,0:0:0:0:
228,220,66230,1,0,0:0:0:0:
157,338,66407,2,0,P|245:354|324:316,1,180,2|8,0:0|0:0,0:0:0:0:
100,268,66936,6,0,P|72:304|72:364,1,90,2|0,0:0|0:0,0:0:0:0:
157,338,67289,1,0,0:0:0:0:
228,220,67465,1,10,0:0:0:0:
244,312,67642,2,0,P|282:338|330:338,2,90
144,188,68171,5,8,0:0:0:0:
144,64,68348,1,0,0:0:0:0:
144,64,68436,1,0,0:0:0:0:
144,64,68524,2,0,P|184:40|232:40,1,90,0|8,0:0|0:0,0:0:0:0:
360,60,68877,2,0,L|400:36,2,45,8|8|8,0:0|0:0|0:0,0:0:0:0:
292,176,69230,6,0,P|332:252|432:260,1,180,10|0,0:0|0:0,0:0:0:0:
508,248,69759,2,0,P|507:292|479:334,2,90,10|8|8,0:0|0:0|0:0,0:0:0:0:
396,172,70289,1,8,0:0:0:0:
292,176,70465,1,8,0:0:0:0:
278,182,70553,1,8,0:0:0:0:
265,191,70641,1,8,0:0:0:0:
253,202,70729,1,8,0:0:0:0:
244,215,70817,1,8,0:0:0:0:
237,229,70906,1,8,0:0:0:0:
232,244,70995,6,0,P|252:284|244:336,1,90,8|0,0:0|0:0,0:0:0:0:
164,300,71348,2,0,B|260:284|260:284|296:316|364:308,1,180,6|8,0:0|0:0,0:0:0:0:
448,232,71877,1,0,0:0:0:0:
416,100,72054,2,0,P|324:80|244:132,1,180,0|8,0:0|0:0,0:0:0:0:
176,168,72583,2,0,P|132:176|80:168,2,90,2|0|2,0:0|0:0|0:0,0:0:0:0:
128,92,73112,1,8,0:0:0:0:
136,260,73289,2,0,P|188:336|272:352,1,180,2|0,0:0|0:0,0:0:0:0:
396,300,73818,1,8,0:0:0:0:
501,112,73995,5,0,0:0:0:0:
501,112,74083,1,0,0:0:0:0:
501,112,74171,2,0,P|457:144|436:172,1,90
412,248,74524,1,8,0:0:0:0:
436,324,74701,1,0,0:0:0:0:
356,188,74877,2,0,P|284:152|176:176,1,180,0|8,0:0|0:0,0:0:0:0:
260,284,75407,1,0,0:0:0:0:
356,188,75583,2,0,L|424:120,1,90,2|0,0:0|0:0,0:0:0:0:
364,0,75936,2,0,L|296:68,1,90,10|0,0:0|0:0,0:0:0:0:
220,172,76289,1,8,0:0:0:0:
220,172,76377,1,8,0:0:0:0:
220,172,76465,6,0,P|184:196|124:192,1,90,0|12,0:0|0:0,0:0:0:0:
24,124,76818,1,0,0:0:0:0:
160,120,76995,2,0,P|192:204|140:280,1,180,4|8,0:0|0:0,0:0:0:0:
256,360,77524,1,0,0:0:0:0:
364,275,77701,2,0,P|320:204|352:120,1,180,0|8,0:0|0:0,0:0:0:0:
420,192,78230,1,2,0:0:0:0:
420,192,78407,2,0,P|444:156|448:100,2,90,2|0|8,0:0|0:0|0:0,0:0:0:0:
336,296,78936,2,0,P|256:260|176:296,1,180,2|0,0:0|0:0,0:0:0:0:
256,360,79465,1,8,0:0:0:0:
136,200,79642,5,0,0:0:0:0:
132,192,79730,1,0,0:0:0:0:
128,184,79818,2,0,P|116:140|120:76,1,90
256,28,80171,1,12,0:0:0:0:
396,96,80348,1,0,0:0:0:0:
400,184,80524,6,0,P|380:268|308:324,1,180,4|8,0:0|0:0,0:0:0:0:
184,200,81054,2,0,P|224:192|280:204,1,90,0|8,0:0|0:0,0:0:0:0:
272,200,81318,1,8,0:0:0:0:
272,200,81407,1,8,0:0:0:0:
400,184,81583,1,2,0:0:0:0:
444,68,81759,6,0,L|484:24,2,45,0|2|0,0:0|0:0|0:0,0:0:0:0:
432,80,82024,1,8,0:0:0:0:
420,92,82112,1,8,0:0:0:0:
320,184,82289,1,8,0:0:0:0:
256,64,82465,1,0,0:0:0:0:
112,116,82642,6,0,P|113:190|145:250,1,144,2|0,0:0|0:0,0:0:0:0:
400,268,83348,2,0,P|398:193|366:133,1,144,2|0,0:0|0:0,0:0:0:0:
256,336,83877,6,0,B|236:292|256:252|256:252|276:212|256:160,1,180,4|8,0:0|0:0,0:0:0:0:
256,44,84407,1,10,0:0:0:0:
336,128,84583,2,0,P|256:160|172:128,1,180,6|0,0:0|0:0,0:0:0:0:
52,192,85112,5,8,0:0:0:0:
52,192,85201,1,8,0:0:0:0:
52,192,85289,1,8,0:0:0:0:
140,292,85465,2,0,P|156:332|152:392,2,90,4|0|8,0:0|0:0|0:0,0:0:0:0:
52,192,85995,1,0,0:0:0:0:
48,104,86171,2,0,P|100:44|208:28,1,180,0|8,0:0|0:0,0:0:0:0:
172,160,86701,1,0,0:0:0:0:
256,192,86877,12,4,87936,0:0:0:0:
