osu file format v14

[General]
AudioFilename: Ogura Yui - Baby Sweet Berry Love (TV Size).mp3
AudioLeadIn: 0
PreviewTime: 59344
Countdown: 0
SampleSet: Soft
StackLeniency: 0.7
Mode: 3
LetterboxInBreaks: 0
SpecialStyle: 0
WidescreenStoryboard: 1

[Editor]
Bookmarks: 756,4992,6403,12050,17697,23344,33227,34639,40992,41697,42403,43109,45933,48756,51580,56168,59344,60050,64286,65697,71344,87933
DistanceSpacing: 1
BeatDivisor: 4
GridSize: 4
TimelineZoom: 1.1

[Metadata]
Title:Baby Sweet Berry Love (TV Size)
TitleUnicode:Baby Sweet Berry Love (TV Size)
Artist:Ogura Yui
ArtistUnicode:Ogura Yui
Creator:_Xenophilius_
Version:NM
Source:Hentai Ouji To Warawanai Neko
Tags:Ending
BeatmapID:651040
BeatmapSetID:288693

[Difficulty]
HPDrainRate:7
CircleSize:4
OverallDifficulty:7
ApproachRate:5
SliderMultiplier:1.4
SliderTickRate:1

[Events]
//Background and Video events
0,0,"bg.jpg",0,0
//Break Periods
//Storyboard Layer 0 (Background)
//Storyboard Layer 1 (Fail)
//Storyboard Layer 2 (Pass)
//Storyboard Layer 3 (Foreground)
//Storyboard Sound Samples

[TimingPoints]
-655,352.941176470588,4,2,0,15,1,0
756,-100,4,2,0,30,0,0
60050,-100,4,2,0,30,0,1
82639,-100,4,2,0,30,0,0

[HitObjects]
320,192,756,128,0,1462:0:0:0:0:
64,192,756,1,0,0:0:0:0:
448,192,1462,128,0,1992:0:0:0:0:
192,192,1462,1,0,0:0:0:0:
192,192,1992,1,0,0:0:0:0:
64,192,1992,1,0,0:0:0:0:
320,192,2344,1,0,0:0:0:0:
192,192,2521,1,0,0:0:0:0:
64,192,2697,1,0,0:0:0:0:
192,192,2874,128,0,3580:0:0:0:0:
320,192,3580,128,0,4286:0:0:0:0:
448,192,4286,128,0,4992:0:0:0:0:
320,192,4992,1,0,0:0:0:0:
192,192,5168,1,0,0:0:0:0:
64,192,5344,1,0,0:0:0:0:
448,192,5521,1,0,0:0:0:0:
320,192,5697,1,0,0:0:0:0:
192,192,5874,1,0,0:0:0:0:
64,192,6050,1,0,0:0:0:0:
320,192,6227,1,0,0:0:0:0:
192,192,6403,128,8,7109:0:0:0:0:
448,192,6403,128,8,7109:0:0:0:0:
320,192,7109,128,8,7639:0:0:0:0:
64,192,7109,128,8,7639:0:0:0:0:
448,192,7639,128,8,8344:0:0:0:0:
64,192,7992,1,0,0:0:0:0:
192,192,8168,1,0,0:0:0:0:
320,192,8344,1,4,0:0:0:0:
448,192,9050,1,0,0:0:0:0:
320,192,9139,1,0,0:0:0:0:
192,192,9227,1,0,0:0:0:0:
64,192,9227,1,0,0:0:0:0:
192,192,9580,1,0,0:0:0:0:
448,192,9580,1,0,0:0:0:0:
320,192,9933,1,0,0:0:0:0:
64,192,9933,1,0,0:0:0:0:
192,192,10286,1,0,0:0:0:0:
320,192,10286,1,0,0:0:0:0:
64,192,10639,1,4,0:0:0:0:
192,192,10639,1,4,0:0:0:0:
320,192,10815,1,0,0:0:0:0:
64,192,10992,1,0,0:0:0:0:
448,192,11168,1,0,0:0:0:0:
320,192,11344,1,0,0:0:0:0:
192,192,11521,1,0,0:0:0:0:
448,192,11697,1,0,0:0:0:0:
64,192,11874,1,0,0:0:0:0:
320,192,12050,128,0,12403:0:0:0:0:
192,192,12050,1,8,0:0:0:0:
448,192,12403,1,8,0:0:0:0:
192,192,12756,128,0,13109:0:0:0:0:
64,192,12756,1,8,0:0:0:0:
320,192,13109,1,8,0:0:0:0:
320,192,13462,128,0,13815:0:0:0:0:
448,192,13462,1,8,0:0:0:0:
192,192,13815,1,8,0:0:0:0:
64,192,14168,1,8,0:0:0:0:
192,192,14168,128,0,14521:0:0:0:0:
448,192,14521,1,8,0:0:0:0:
192,192,14874,1,0,0:0:0:0:
320,192,14874,1,0,0:0:0:0:
64,192,15227,1,0,0:0:0:0:
320,192,15227,1,0,0:0:0:0:
320,192,15580,1,0,0:0:0:0:
448,192,15580,1,0,0:0:0:0:
192,192,15933,1,0,0:0:0:0:
448,192,15933,1,0,0:0:0:0:
64,192,16286,1,0,0:0:0:0:
192,192,16286,128,0,16639:0:0:0:0:
320,192,16639,1,0,0:0:0:0:
448,192,16992,128,0,17697:0:0:0:0:
320,192,17344,128,4,17697:0:0:0:0:
64,192,17697,128,0,17874:0:0:0:0:
192,192,17874,128,0,18050:0:0:0:0:
320,192,18050,128,0,18227:0:0:0:0:
448,192,18227,128,0,18580:0:0:0:0:
320,192,18580,128,0,18756:0:0:0:0:
448,192,18756,128,0,19109:0:0:0:0:
64,192,19109,128,0,19286:0:0:0:0:
192,192,19286,128,0,19462:0:0:0:0:
320,192,19462,128,0,19639:0:0:0:0:
448,192,19639,128,0,20344:0:0:0:0:
64,192,20344,128,0,21933:0:0:0:0:
192,192,20344,1,4,0:0:0:0:
448,192,20697,1,0,0:0:0:0:
320,192,20874,1,0,0:0:0:0:
448,192,21050,1,0,0:0:0:0:
192,192,21227,1,0,0:0:0:0:
320,192,21403,1,0,0:0:0:0:
192,192,21580,128,0,21933:0:0:0:0:
320,192,21933,128,0,23344:0:0:0:0:
64,192,23344,1,8,0:0:0:0:
192,192,23344,1,8,0:0:0:0:
320,192,23697,1,0,0:0:0:0:
64,192,24050,1,0,0:0:0:0:
448,192,24050,1,0,0:0:0:0:
192,192,24403,1,0,0:0:0:0:
320,192,24756,1,0,0:0:0:0:
448,192,24756,1,0,0:0:0:0:
192,192,25109,1,0,0:0:0:0:
448,192,25462,128,0,25639:0:0:0:0:
320,192,25639,128,0,25815:0:0:0:0:
192,192,25815,128,0,25992:0:0:0:0:
64,192,25992,128,0,26168:0:0:0:0:
192,192,26168,1,8,0:0:0:0:
320,192,26168,1,8,0:0:0:0:
448,192,26521,1,0,0:0:0:0:
64,192,26874,1,0,0:0:0:0:
320,192,26874,1,0,0:0:0:0:
192,192,27227,1,0,0:0:0:0:
320,192,27580,1,0,0:0:0:0:
448,192,27580,1,0,0:0:0:0:
192,192,27933,1,0,0:0:0:0:
64,192,28286,1,0,0:0:0:0:
320,192,28286,1,0,0:0:0:0:
448,192,28462,1,0,0:0:0:0:
320,192,28639,1,0,0:0:0:0:
192,192,28815,1,0,0:0:0:0:
448,192,28992,128,0,29521:0:0:0:0:
320,192,28992,1,8,0:0:0:0:
320,192,29344,128,0,29521:0:0:0:0:
192,192,29521,1,0,0:0:0:0:
64,192,29697,128,0,29874:0:0:0:0:
192,192,29874,1,0,0:0:0:0:
448,192,30050,128,0,30227:0:0:0:0:
320,192,30227,1,0,0:0:0:0:
64,192,30403,1,0,0:0:0:0:
192,192,30580,1,0,0:0:0:0:
320,192,30756,1,0,0:0:0:0:
448,192,30933,1,0,0:0:0:0:
192,192,31109,128,0,31286:0:0:0:0:
64,192,31286,1,0,0:0:0:0:
320,192,31462,128,0,31639:0:0:0:0:
192,192,31639,1,0,0:0:0:0:
320,192,31815,1,0,0:0:0:0:
448,192,31815,1,0,0:0:0:0:
192,192,32168,1,0,0:0:0:0:
448,192,32168,1,0,0:0:0:0:
320,192,32521,1,0,0:0:0:0:
64,192,32521,1,0,0:0:0:0:
64,192,32874,1,0,0:0:0:0:
192,192,32874,1,0,0:0:0:0:
448,192,33227,128,0,33403:0:0:0:0:
320,192,33403,128,0,33580:0:0:0:0:
192,192,33580,128,0,33756:0:0:0:0:
64,192,33756,128,0,33933:0:0:0:0:
448,192,33933,128,0,34109:0:0:0:0:
320,192,34109,128,0,34286:0:0:0:0:
192,192,34286,128,0,34462:0:0:0:0:
64,192,34462,128,0,34639:0:0:0:0:
448,192,34639,128,8,36050:0:0:0:0:
320,192,34639,1,4,0:0:0:0:
192,192,34815,1,0,0:0:0:0:
320,192,34992,1,0,0:0:0:0:
64,192,35168,1,0,0:0:0:0:
192,192,35344,1,0,0:0:0:0:
64,192,35521,1,0,0:0:0:0:
320,192,35697,1,0,0:0:0:0:
192,192,35874,1,0,0:0:0:0:
64,192,36050,1,0,0:0:0:0:
320,192,36050,128,8,37462:0:0:0:0:
448,192,36227,1,0,0:0:0:0:
192,192,36403,1,0,0:0:0:0:
448,192,36580,1,0,0:0:0:0:
64,192,36756,1,0,0:0:0:0:
192,192,36933,1,0,0:0:0:0:
448,192,37109,1,0,0:0:0:0:
192,192,37286,1,0,0:0:0:0:
64,192,37462,128,8,38874:0:0:0:0:
448,192,37462,1,0,0:0:0:0:
320,192,37639,1,0,0:0:0:0:
192,192,37815,1,0,0:0:0:0:
448,192,37992,1,0,0:0:0:0:
320,192,38168,1,0,0:0:0:0:
448,192,38344,1,0,0:0:0:0:
192,192,38521,1,0,0:0:0:0:
320,192,38697,1,0,0:0:0:0:
448,192,38874,1,0,0:0:0:0:
192,192,38874,128,8,40286:0:0:0:0:
320,192,39050,1,0,0:0:0:0:
448,192,39227,1,0,0:0:0:0:
64,192,39403,1,0,0:0:0:0:
320,192,39580,1,0,0:0:0:0:
448,192,39756,1,0,0:0:0:0:
64,192,39933,1,0,0:0:0:0:
320,192,40109,1,0,0:0:0:0:
64,192,40286,1,0,0:0:0:0:
448,192,40286,128,8,40815:0:0:0:0:
192,192,40639,128,0,40815:0:0:0:0:
64,192,40815,1,0,0:0:0:0:
320,192,40992,128,0,41168:0:0:0:0:
448,192,41168,1,0,0:0:0:0:
192,192,41344,128,0,41521:0:0:0:0:
320,192,41521,1,0,0:0:0:0:
64,192,41697,1,0,0:0:0:0:
192,192,41874,1,0,0:0:0:0:
448,192,42050,128,0,42227:0:0:0:0:
320,192,42227,1,0,0:0:0:0:
192,192,42403,128,0,42580:0:0:0:0:
320,192,42580,1,0,0:0:0:0:
64,192,42756,128,0,42933:0:0:0:0:
448,192,42933,1,0,0:0:0:0:
320,192,43109,128,0,44521:0:0:0:0:
192,192,43462,128,0,44521:0:0:0:0:
64,192,43815,128,0,44521:0:0:0:0:
448,192,44168,1,0,0:0:0:0:
448,192,44521,128,0,45933:0:0:0:0:
64,192,45933,1,4,0:0:0:0:
192,192,45933,1,4,0:0:0:0:
320,192,46462,1,4,0:0:0:0:
448,192,46462,1,4,0:0:0:0:
192,192,46992,1,4,0:0:0:0:
64,192,46992,1,4,0:0:0:0:
448,192,47521,1,0,0:0:0:0:
320,192,47697,1,0,0:0:0:0:
192,192,47874,1,0,0:0:0:0:
320,192,48050,1,0,0:0:0:0:
448,192,48227,1,0,0:0:0:0:
64,192,48403,1,0,0:0:0:0:
192,192,48580,1,0,0:0:0:0:
320,192,48756,1,4,0:0:0:0:
448,192,48756,1,4,0:0:0:0:
192,192,49286,1,4,0:0:0:0:
64,192,49286,1,4,0:0:0:0:
320,192,49815,1,4,0:0:0:0:
448,192,49815,1,4,0:0:0:0:
64,192,50344,1,0,0:0:0:0:
192,192,50521,1,0,0:0:0:0:
320,192,50697,1,0,0:0:0:0:
192,192,50874,1,0,0:0:0:0:
64,192,51050,1,0,0:0:0:0:
448,192,51227,128,0,51580:0:0:0:0:
320,192,51580,128,0,51756:0:0:0:0:
192,192,51756,128,0,51933:0:0:0:0:
64,192,51933,128,0,52109:0:0:0:0:
448,192,52109,128,0,52639:0:0:0:0:
320,192,52462,128,0,52639:0:0:0:0:
192,192,52639,1,0,0:0:0:0:
64,192,52992,128,0,53168:0:0:0:0:
192,192,53168,128,0,53344:0:0:0:0:
320,192,53344,128,0,53521:0:0:0:0:
64,192,53521,128,0,53874:0:0:0:0:
192,192,53874,128,0,54050:0:0:0:0:
320,192,54050,128,0,54403:0:0:0:0:
448,192,54403,1,8,0:0:0:0:
64,192,54403,1,8,0:0:0:0:
192,192,54756,1,8,0:0:0:0:
320,192,54756,1,8,0:0:0:0:
64,192,55109,1,8,0:0:0:0:
448,192,55109,1,8,0:0:0:0:
192,192,55462,1,8,0:0:0:0:
320,192,55462,1,8,0:0:0:0:
64,192,55815,1,4,0:2:0:0:
448,192,55815,1,4,0:2:0:0:
320,192,56168,128,0,57227:0:0:0:0:
192,192,56521,128,0,57227:0:0:0:0:
64,192,56874,128,0,57227:0:0:0:0:
448,192,57227,128,4,57580:0:0:0:0:
192,192,57403,1,0,0:0:0:0:
64,192,57580,1,0,0:0:0:0:
192,192,57933,128,0,58286:0:0:0:0:
320,192,58109,1,0,0:0:0:0:
448,192,58286,1,0,0:0:0:0:
64,192,58462,1,0,0:0:0:0:
320,192,58462,1,0,0:0:0:0:
448,192,58815,1,0,0:0:0:0:
320,192,58903,1,0,0:0:0:0:
192,192,58992,1,0,0:0:0:0:
64,192,59168,1,4,0:0:0:0:
320,192,59168,1,4,0:0:0:0:
192,192,59521,1,0,0:0:0:0:
320,192,59697,1,0,0:0:0:0:
448,192,59874,1,0,0:0:0:0:
320,192,60050,128,8,61462:0:0:0:0:
192,192,60050,1,4,0:0:0:0:
64,192,60227,1,0,0:0:0:0:
448,192,60403,1,0,0:0:0:0:
192,192,60580,1,0,0:0:0:0:
448,192,60756,1,0,0:0:0:0:
64,192,60933,1,0,0:0:0:0:
192,192,61109,1,0,0:0:0:0:
448,192,61286,1,0,0:0:0:0:
192,192,61462,128,8,62874:0:0:0:0:
64,192,61462,1,0,0:0:0:0:
448,192,61639,1,0,0:0:0:0:
320,192,61815,1,0,0:0:0:0:
448,192,61992,1,0,0:0:0:0:
64,192,62168,1,0,0:0:0:0:
320,192,62344,1,0,0:0:0:0:
448,192,62521,1,0,0:0:0:0:
320,192,62697,1,0,0:0:0:0:
448,192,62874,128,8,64286:0:0:0:0:
64,192,62874,1,0,0:0:0:0:
192,192,63050,1,0,0:0:0:0:
64,192,63227,1,0,0:0:0:0:
320,192,63403,1,0,0:0:0:0:
192,192,63580,1,0,0:0:0:0:
64,192,63756,1,0,0:0:0:0:
192,192,63933,1,0,0:0:0:0:
64,192,64109,1,0,0:0:0:0:
320,192,64286,128,0,64462:0:0:0:0:
192,192,64462,128,0,64639:0:0:0:0:
64,192,64639,128,0,64815:0:0:0:0:
192,192,64815,128,0,64992:0:0:0:0:
448,192,64992,128,0,65168:0:0:0:0:
320,192,65168,128,0,65344:0:0:0:0:
192,192,65344,128,0,65521:0:0:0:0:
64,192,65521,128,0,65697:0:0:0:0:
448,192,65697,128,8,67462:0:0:0:0:
320,192,65697,1,0,0:0:0:0:
192,192,65874,1,0,0:0:0:0:
320,192,66050,1,0,0:0:0:0:
64,192,66227,1,0,0:0:0:0:
192,192,66403,1,0,0:0:0:0:
64,192,66580,1,0,0:0:0:0:
320,192,66756,1,0,0:0:0:0:
64,192,67286,1,2,0:0:0:0:
192,192,67462,1,2,0:0:0:0:
320,192,67639,1,2,0:0:0:0:
320,192,68344,1,0,0:0:0:0:
448,192,68344,1,0,0:0:0:0:
192,192,68521,1,0,0:0:0:0:
64,192,68697,1,0,0:0:0:0:
320,192,68874,1,0,0:0:0:0:
192,192,69050,1,0,0:0:0:0:
320,192,69227,1,0,0:0:0:0:
448,192,69403,1,0,0:0:0:0:
64,192,69580,1,0,0:0:0:0:
320,192,69756,1,0,0:0:0:0:
192,192,69933,1,4,0:0:0:0:
448,192,69933,1,4,0:0:0:0:
320,192,70286,1,4,0:0:0:0:
64,192,70286,1,4,0:0:0:0:
192,192,70639,1,4,0:0:0:0:
448,192,70639,1,4,0:0:0:0:
64,192,70992,1,4,0:0:0:0:
320,192,70992,1,4,0:0:0:0:
448,192,71344,128,8,72756:0:0:0:0:
192,192,71344,1,0,0:0:0:0:
320,192,71521,1,0,0:0:0:0:
64,192,71697,1,0,0:0:0:0:
192,192,71874,1,0,0:0:0:0:
64,192,72050,1,0,0:0:0:0:
320,192,72227,1,0,0:0:0:0:
192,192,72403,1,0,0:0:0:0:
64,192,72580,1,0,0:0:0:0:
192,192,72756,1,0,0:0:0:0:
320,192,72756,128,8,74168:0:0:0:0:
448,192,72933,1,0,0:0:0:0:
64,192,73109,1,0,0:0:0:0:
192,192,73286,1,0,0:0:0:0:
448,192,73462,1,0,0:0:0:0:
192,192,73639,1,0,0:0:0:0:
448,192,73815,1,0,0:0:0:0:
64,192,73992,1,0,0:0:0:0:
192,192,74168,1,0,0:0:0:0:
448,192,74168,128,8,75580:0:0:0:0:
64,192,74344,1,0,0:0:0:0:
320,192,74521,1,0,0:0:0:0:
192,192,74697,1,0,0:0:0:0:
64,192,74874,1,0,0:0:0:0:
192,192,75050,1,0,0:0:0:0:
320,192,75227,1,0,0:0:0:0:
192,192,75403,1,0,0:0:0:0:
64,192,75580,1,0,0:0:0:0:
320,192,75580,128,0,75756:0:0:0:0:
192,192,75756,128,0,75933:0:0:0:0:
64,192,75933,128,0,76109:0:0:0:0:
448,192,76109,128,0,76286:0:0:0:0:
320,192,76286,128,0,76462:0:0:0:0:
192,192,76462,128,0,76639:0:0:0:0:
64,192,76639,128,0,76815:0:0:0:0:
320,192,76815,128,0,76992:0:0:0:0:
192,192,76992,1,4,0:0:0:0:
448,192,76992,1,4,0:0:0:0:
320,192,77344,1,4,0:0:0:0:
64,192,77344,1,4,0:0:0:0:
192,192,77697,1,4,0:0:0:0:
320,192,77697,1,4,0:0:0:0:
320,192,78050,1,4,0:0:0:0:
448,192,78050,1,4,0:0:0:0:
64,192,78227,128,0,78580:0:0:0:0:
192,192,78580,1,2,0:0:0:0:
320,192,78756,1,2,0:0:0:0:
448,192,78933,1,2,0:0:0:0:
192,192,79462,128,0,79815:0:0:0:0:
320,192,79815,1,4,0:0:0:0:
448,192,79815,1,4,0:0:0:0:
64,192,80168,1,4,0:0:0:0:
192,192,80168,1,4,0:0:0:0:
320,192,80521,1,4,0:0:0:0:
448,192,80521,1,4,0:0:0:0:
192,192,80874,1,4,0:0:0:0:
64,192,80874,1,4,0:0:0:0:
448,192,81227,1,4,0:0:0:0:
320,192,81227,1,4,0:0:0:0:
192,192,81403,1,0,0:0:0:0:
448,192,81580,1,0,0:0:0:0:
320,192,81756,1,0,0:0:0:0:
64,192,81933,1,0,0:0:0:0:
192,192,82109,1,0,0:0:0:0:
448,192,82286,1,0,0:0:0:0:
320,192,82462,1,0,0:0:0:0:
64,192,82639,128,0,82992:0:0:0:0:
192,192,82639,1,8,0:0:0:0:
320,192,82992,1,8,0:0:0:0:
448,192,83344,128,0,83697:0:0:0:0:
64,192,83344,1,8,0:0:0:0:
192,192,83697,1,8,0:0:0:0:
64,192,83874,128,0,84756:0:0:0:0:
320,192,83874,1,0,0:0:0:0:
192,192,84227,128,0,84403:0:0:0:0:
320,192,84403,128,0,84580:0:0:0:0:
448,192,84580,128,0,85462:0:0:0:0:
192,192,85462,1,0,0:0:0:0:
320,192,85462,1,0,0:0:0:0:
64,192,85815,1,0,0:0:0:0:
192,192,85815,1,0,0:0:0:0:
320,192,86168,1,0,0:0:0:0:
448,192,86168,128,0,86521:0:0:0:0:
192,192,86521,1,0,0:0:0:0:
320,192,86521,128,0,86874:0:0:0:0:
64,192,86874,1,0,0:0:0:0:
448,192,87050,1,0,0:0:0:0:
320,192,87227,1,0,0:0:0:0:
192,192,87403,1,0,0:0:0:0:
448,192,87580,1,0,0:0:0:0:
320,192,87756,1,0,0:0:0:0:
64,192,87933,1,4,0:0:0:0:
448,192,87933,128,0,88639:0:0:0:0:
