osu file format v14

[General]
AudioFilename: Ogura Yui - Baby Sweet Berry Love (TV Size).mp3
AudioLeadIn: 0
PreviewTime: 59344
Countdown: 0
SampleSet: Soft
StackLeniency: 0.7
Mode: 3
LetterboxInBreaks: 0
SpecialStyle: 0
WidescreenStoryboard: 1

[Editor]
Bookmarks: 756,4992,6403,12050,17697,23344,33227,34639,40992,41697,42403,43109,45933,48756,51580,56168,59344,60050,64286,65697,71344,87933
DistanceSpacing: 1
BeatDivisor: 4
GridSize: 4
TimelineZoom: 0.9

[Metadata]
Title:Baby Sweet Berry Love (TV Size)
TitleUnicode:Baby Sweet Berry Love (TV Size)
Artist:Ogura Yui
ArtistUnicode:Ogura Yui
Creator:_Xenophilius_
Version:MX
Source:Hentai Ouji To Warawanai Neko
Tags:Ending
BeatmapID:651039
BeatmapSetID:288693

[Difficulty]
HPDrainRate:8
CircleSize:4
OverallDifficulty:7
ApproachRate:5
SliderMultiplier:1.4
SliderTickRate:1

[Events]
//Background and Video events
0,0,"bg.jpg",0,0
//Break Periods
//Storyboard Layer 0 (Background)
//Storyboard Layer 1 (Fail)
//Storyboard Layer 2 (Pass)
//Storyboard Layer 3 (Foreground)
//Storyboard Sound Samples

[TimingPoints]
-655,352.941176470588,4,2,0,15,1,0
756,-100,4,2,0,30,0,0
60050,-100,4,2,0,30,0,1
82639,-100,4,2,0,30,0,0

[HitObjects]
448,192,50,128,0,756:0:0:0:0:
320,192,227,128,0,580:0:0:0:0:
192,192,403,128,0,756:0:0:0:0:
64,192,580,128,0,933:0:0:0:0:
320,192,756,1,0,0:0:0:0:
448,192,933,128,0,1462:0:0:0:0:
192,192,933,1,0,0:0:0:0:
320,192,1109,1,0,0:0:0:0:
192,192,1286,1,0,0:0:0:0:
64,192,1462,128,0,2168:0:0:0:0:
320,192,1462,1,0,0:0:0:0:
448,192,1639,1,0,0:0:0:0:
192,192,1815,1,0,0:0:0:0:
448,192,1992,1,0,0:0:0:0:
320,192,2168,128,0,2874:0:0:0:0:
192,192,2168,1,0,0:0:0:0:
64,192,2344,1,0,0:0:0:0:
448,192,2521,1,0,0:0:0:0:
192,192,2697,1,0,0:0:0:0:
64,192,2874,128,0,3580:0:0:0:0:
448,192,2874,1,0,0:0:0:0:
320,192,3050,1,0,0:0:0:0:
192,192,3227,1,0,0:0:0:0:
320,192,3403,1,0,0:0:0:0:
192,192,3580,128,0,4286:0:0:0:0:
448,192,3580,1,0,0:0:0:0:
64,192,3756,1,0,0:0:0:0:
320,192,3933,1,0,0:0:0:0:
448,192,4109,1,0,0:0:0:0:
320,192,4286,128,0,4992:0:0:0:0:
64,192,4286,1,0,0:0:0:0:
192,192,4462,1,0,0:0:0:0:
448,192,4639,1,0,0:0:0:0:
64,192,4815,1,0,0:0:0:0:
448,192,4992,128,0,5521:0:0:0:0:
192,192,4992,1,0,0:0:0:0:
320,192,5168,128,0,5697:0:0:0:0:
192,192,5344,128,0,5874:0:0:0:0:
64,192,5521,128,0,6050:0:0:0:0:
448,192,5697,128,0,6227:0:0:0:0:
320,192,5874,128,0,6227:0:0:0:0:
192,192,6050,128,0,6403:0:0:0:0:
64,192,6227,128,0,6403:0:0:0:0:
320,192,6403,128,8,6756:0:0:0:0:
448,192,6403,128,8,7109:0:0:0:0:
64,192,6756,1,0,0:0:0:0:
192,192,7109,128,8,7462:0:0:0:0:
64,192,7109,128,8,9139:0:0:0:0:
320,192,7462,1,0,0:0:0:0:
448,192,7815,128,8,8168:0:0:0:0:
192,192,7992,128,0,9050:0:0:0:0:
320,192,8168,128,0,8962:0:0:0:0:
448,192,8521,128,0,8874:0:0:0:0:
448,192,8962,1,0,0:0:0:0:
320,192,9050,1,0,0:0:0:0:
192,192,9139,1,0,0:0:0:0:
64,192,9227,1,0,0:0:0:0:
320,192,9227,1,0,0:0:0:0:
448,192,9403,1,0,0:0:0:0:
192,192,9403,1,0,0:0:0:0:
64,192,9580,1,0,0:0:0:0:
320,192,9580,1,0,0:0:0:0:
192,192,9756,1,0,0:0:0:0:
448,192,9756,1,0,0:0:0:0:
320,192,9933,1,0,0:0:0:0:
64,192,9933,1,0,0:0:0:0:
192,192,10109,1,0,0:0:0:0:
448,192,10109,1,0,0:0:0:0:
320,192,10286,1,0,0:0:0:0:
64,192,10286,1,0,0:0:0:0:
192,192,10462,1,0,0:0:0:0:
448,192,10462,1,0,0:0:0:0:
320,192,10639,128,0,11697:0:0:0:0:
64,192,10639,1,0,0:0:0:0:
448,192,10815,1,0,0:0:0:0:
192,192,10992,1,0,0:0:0:0:
448,192,11168,128,0,11521:0:0:0:0:
64,192,11168,1,0,0:0:0:0:
192,192,11256,128,0,11874:0:0:0:0:
64,192,11344,128,0,12050:0:0:0:0:
448,192,12050,128,0,12227:0:0:0:0:
192,192,12050,1,8,0:0:0:0:
320,192,12227,1,8,0:0:0:0:
64,192,12403,128,0,12580:0:0:0:0:
192,192,12403,1,8,0:0:0:0:
320,192,12580,1,8,0:0:0:0:
448,192,12756,128,0,13462:0:0:0:0:
320,192,13021,128,0,13462:0:0:0:0:
64,192,13462,128,0,13639:0:0:0:0:
192,192,13462,1,8,0:0:0:0:
320,192,13639,1,8,0:0:0:0:
448,192,13815,128,0,13992:0:0:0:0:
192,192,13815,1,8,0:0:0:0:
320,192,13992,1,8,0:0:0:0:
64,192,14168,128,8,14874:0:0:0:0:
192,192,14433,128,8,14874:0:0:0:0:
320,192,14874,1,0,0:0:0:0:
448,192,14874,1,0,0:0:0:0:
320,192,15050,1,0,0:0:0:0:
64,192,15050,1,0,0:0:0:0:
192,192,15227,1,0,0:0:0:0:
448,192,15227,128,0,15580:0:0:0:0:
64,192,15580,1,0,0:0:0:0:
192,192,15580,1,0,0:0:0:0:
192,192,15756,1,0,0:0:0:0:
320,192,15756,1,0,0:0:0:0:
320,192,15933,1,0,0:0:0:0:
448,192,15933,128,0,16286:0:0:0:0:
64,192,16286,128,0,16462:0:0:0:0:
320,192,16286,1,0,0:0:0:0:
192,192,16462,1,0,0:0:0:0:
448,192,16639,128,0,16815:0:0:0:0:
320,192,16639,1,0,0:0:0:0:
192,192,16815,1,0,0:0:0:0:
64,192,16992,128,0,17697:0:0:0:0:
320,192,17256,128,0,17697:0:0:0:0:
448,192,17697,128,0,18580:0:0:0:0:
320,192,17874,128,0,18403:0:0:0:0:
192,192,18050,128,0,19109:0:0:0:0:
64,192,18227,128,0,18933:0:0:0:0:
320,192,18580,128,0,19286:0:0:0:0:
448,192,18756,128,0,19462:0:0:0:0:
64,192,19109,128,0,20697:0:0:0:0:
192,192,19286,128,0,19815:0:0:0:0:
320,192,19462,128,0,19992:0:0:0:0:
448,192,19639,128,0,20168:0:0:0:0:
192,192,19992,1,0,0:0:0:0:
320,192,20168,1,0,0:0:0:0:
448,192,20344,1,0,0:0:0:0:
192,192,20344,128,0,21227:0:0:0:0:
448,192,20697,128,0,20874:0:0:0:0:
320,192,20874,128,0,21403:0:0:0:0:
64,192,21050,128,0,21403:0:0:0:0:
448,192,21227,128,0,21580:0:0:0:0:
192,192,21403,128,0,21580:0:0:0:0:
320,192,21580,128,0,21933:0:0:0:0:
64,192,21580,1,0,0:0:0:0:
192,192,21756,1,0,0:0:0:0:
448,192,21933,128,0,23344:0:0:0:0:
64,192,21933,1,0,0:0:0:0:
320,192,22109,1,0,0:0:0:0:
192,192,22286,1,0,0:0:0:0:
64,192,22286,1,0,0:0:0:0:
320,192,22639,1,0,0:0:0:0:
64,192,22639,1,0,0:0:0:0:
192,192,22727,1,0,0:0:0:0:
64,192,22815,1,0,0:0:0:0:
192,192,22992,1,0,0:0:0:0:
320,192,23080,1,0,0:0:0:0:
64,192,23168,1,0,0:0:0:0:
192,192,23256,1,0,0:0:0:0:
320,192,23344,1,8,0:0:0:0:
64,192,23344,1,8,0:0:0:0:
320,192,23697,1,0,0:0:0:0:
448,192,24050,1,0,0:0:0:0:
320,192,24227,1,0,0:0:0:0:
192,192,24403,1,0,0:0:0:0:
64,192,24580,1,0,0:0:0:0:
192,192,24756,128,0,25286:0:0:0:0:
320,192,25286,1,0,0:0:0:0:
448,192,25462,128,0,25815:0:0:0:0:
320,192,25639,128,0,25992:0:0:0:0:
192,192,25815,128,0,26168:0:0:0:0:
64,192,25992,128,0,26344:0:0:0:0:
448,192,26168,1,0,0:0:0:0:
320,192,26521,1,0,0:0:0:0:
64,192,26874,1,0,0:0:0:0:
192,192,27050,1,0,0:0:0:0:
320,192,27227,1,0,0:0:0:0:
448,192,27403,1,0,0:0:0:0:
320,192,27580,128,0,28286:0:0:0:0:
64,192,28109,1,0,0:0:0:0:
448,192,28286,128,0,28639:0:0:0:0:
192,192,28286,1,0,0:0:0:0:
320,192,28639,1,0,0:0:0:0:
64,192,28992,128,0,30403:0:0:0:0:
192,192,28992,1,0,0:0:0:0:
320,192,29344,1,0,0:0:0:0:
192,192,29697,128,0,29874:0:0:0:0:
320,192,29697,1,0,0:0:0:0:
448,192,29874,1,0,0:0:0:0:
448,192,30050,128,0,30227:0:0:0:0:
320,192,30050,1,0,0:0:0:0:
192,192,30227,1,0,0:0:0:0:
448,192,30403,128,0,30756:0:0:0:0:
320,192,30580,128,0,30933:0:0:0:0:
192,192,30756,128,0,31109:0:0:0:0:
64,192,30933,128,0,31815:0:0:0:0:
448,192,31109,128,0,31286:0:0:0:0:
320,192,31109,1,0,0:0:0:0:
192,192,31286,1,0,0:0:0:0:
320,192,31462,128,0,31639:0:0:0:0:
448,192,31462,1,0,0:0:0:0:
192,192,31639,1,0,0:0:0:0:
448,192,31815,128,0,32874:0:0:0:0:
320,192,32168,128,0,32874:0:0:0:0:
192,192,32521,128,0,33227:0:0:0:0:
64,192,32874,128,0,33227:0:0:0:0:
448,192,33227,128,0,33756:0:0:0:0:
320,192,33403,128,0,33933:0:0:0:0:
192,192,33580,128,0,34109:0:0:0:0:
64,192,33756,128,0,34286:0:0:0:0:
448,192,33933,128,0,34286:0:0:0:0:
320,192,34109,128,0,34462:0:0:0:0:
192,192,34286,128,0,34462:0:0:0:0:
64,192,34462,128,0,34815:0:0:0:0:
448,192,34639,128,8,36050:0:0:0:0:
192,192,34639,1,4,0:0:0:0:
320,192,34639,1,4,0:0:0:0:
320,192,34815,1,0,0:0:0:0:
64,192,34992,1,0,0:0:0:0:
192,192,34992,1,0,0:0:0:0:
192,192,35168,1,0,0:0:0:0:
64,192,35344,1,0,0:0:0:0:
320,192,35344,1,0,0:0:0:0:
320,192,35521,1,0,0:0:0:0:
192,192,35697,1,0,0:0:0:0:
64,192,35697,1,0,0:0:0:0:
192,192,35874,1,0,0:0:0:0:
320,192,35874,1,0,0:0:0:0:
192,192,36050,128,8,37462:0:0:0:0:
320,192,36050,1,0,0:0:0:0:
64,192,36050,1,0,0:0:0:0:
448,192,36227,1,0,0:0:0:0:
320,192,36403,1,0,0:0:0:0:
448,192,36403,1,0,0:0:0:0:
64,192,36580,1,0,0:0:0:0:
64,192,36756,1,0,0:0:0:0:
320,192,36756,1,0,0:0:0:0:
320,192,36933,1,0,0:0:0:0:
320,192,37109,1,0,0:0:0:0:
448,192,37109,1,0,0:0:0:0:
64,192,37286,1,0,0:0:0:0:
320,192,37286,1,0,0:0:0:0:
64,192,37462,1,0,0:0:0:0:
448,192,37462,1,0,0:0:0:0:
320,192,37462,128,8,38874:0:0:0:0:
192,192,37639,1,0,0:0:0:0:
64,192,37815,1,0,0:0:0:0:
192,192,37815,1,0,0:0:0:0:
448,192,37992,1,0,0:0:0:0:
192,192,38168,1,0,0:0:0:0:
448,192,38168,1,0,0:0:0:0:
64,192,38344,1,0,0:0:0:0:
192,192,38521,1,0,0:0:0:0:
448,192,38521,1,0,0:0:0:0:
64,192,38697,1,0,0:0:0:0:
448,192,38697,1,0,0:0:0:0:
64,192,38874,1,0,0:0:0:0:
192,192,38874,1,0,0:0:0:0:
448,192,38874,128,8,40286:0:0:0:0:
320,192,39050,1,0,0:0:0:0:
64,192,39227,1,0,0:0:0:0:
320,192,39227,1,0,0:0:0:0:
64,192,39403,1,0,0:0:0:0:
192,192,39580,1,0,0:0:0:0:
320,192,39580,1,0,0:0:0:0:
320,192,39756,1,0,0:0:0:0:
64,192,39933,1,0,0:0:0:0:
192,192,39933,1,0,0:0:0:0:
320,192,40109,1,0,0:0:0:0:
192,192,40109,1,0,0:0:0:0:
64,192,40286,128,0,40815:0:0:0:0:
320,192,40286,1,0,0:0:0:0:
192,192,40639,128,0,40815:0:0:0:0:
320,192,40815,1,0,0:0:0:0:
448,192,40992,128,0,41697:0:0:0:0:
320,192,41168,128,0,41521:0:0:0:0:
64,192,41344,128,0,41697:0:0:0:0:
192,192,41521,128,0,41697:0:0:0:0:
320,192,41697,128,0,42227:0:0:0:0:
192,192,41874,128,0,42227:0:0:0:0:
64,192,42050,128,0,42227:0:0:0:0:
448,192,42227,128,0,42403:0:0:0:0:
64,192,42403,128,0,42933:0:0:0:0:
192,192,42580,128,0,43109:0:0:0:0:
448,192,42756,128,0,43109:0:0:0:0:
320,192,42933,128,0,43109:0:0:0:0:
64,192,43109,128,0,43639:0:0:0:0:
192,192,43462,128,0,43992:0:0:0:0:
320,192,43815,128,0,44344:0:0:0:0:
448,192,44168,128,0,44697:0:0:0:0:
64,192,44521,1,0,0:0:0:0:
192,192,44521,1,0,0:0:0:0:
192,192,44697,1,0,0:0:0:0:
320,192,44697,1,0,0:0:0:0:
64,192,44874,1,0,0:0:0:0:
320,192,44874,1,0,0:0:0:0:
192,192,45050,1,0,0:0:0:0:
448,192,45050,1,0,0:0:0:0:
320,192,45227,1,0,0:0:0:0:
448,192,45227,1,0,0:0:0:0:
192,192,45315,1,0,0:0:0:0:
64,192,45403,1,0,0:0:0:0:
448,192,45492,1,0,0:0:0:0:
320,192,45580,1,0,0:0:0:0:
64,192,45580,1,0,0:0:0:0:
192,192,45668,1,0,0:0:0:0:
448,192,45756,1,0,0:0:0:0:
320,192,45844,1,0,0:0:0:0:
192,192,45933,1,4,0:0:0:0:
64,192,45933,128,0,46462:0:0:0:0:
448,192,45933,128,4,46109:0:0:0:0:
448,192,46462,128,0,46992:0:0:0:0:
320,192,46462,1,4,0:0:0:0:
192,192,46462,128,4,46639:0:0:0:0:
192,192,46992,128,0,47344:0:0:0:0:
64,192,46992,1,4,0:0:0:0:
320,192,46992,128,4,47168:0:0:0:0:
64,192,47521,1,0,0:0:0:0:
448,192,47521,1,0,0:0:0:0:
192,192,47697,1,0,0:0:0:0:
448,192,47697,1,0,0:0:0:0:
320,192,47874,1,0,0:0:0:0:
448,192,47874,1,0,0:0:0:0:
448,192,48050,1,0,0:0:0:0:
64,192,48050,1,0,0:0:0:0:
192,192,48139,1,0,0:0:0:0:
320,192,48227,1,0,0:0:0:0:
448,192,48315,1,0,0:0:0:0:
64,192,48403,1,0,0:0:0:0:
320,192,48403,1,0,0:0:0:0:
192,192,48492,1,0,0:0:0:0:
320,192,48580,1,0,0:0:0:0:
448,192,48668,1,0,0:0:0:0:
192,192,48756,1,4,0:0:0:0:
320,192,48756,128,0,49286:0:0:0:0:
64,192,48756,128,4,48933:0:0:0:0:
64,192,49286,128,0,49815:0:0:0:0:
192,192,49286,1,4,0:0:0:0:
448,192,49286,128,4,49462:0:0:0:0:
448,192,49815,128,0,50168:0:0:0:0:
320,192,49815,1,4,0:0:0:0:
192,192,49815,128,4,49992:0:0:0:0:
64,192,50344,1,0,0:0:0:0:
192,192,50344,1,0,0:0:0:0:
192,192,50521,1,0,0:0:0:0:
320,192,50521,1,0,0:0:0:0:
320,192,50697,1,0,0:0:0:0:
448,192,50697,1,0,0:0:0:0:
64,192,50874,128,0,51227:0:0:0:0:
192,192,50874,1,0,0:0:0:0:
192,192,51050,128,0,51403:0:0:0:0:
320,192,51050,1,0,0:0:0:0:
448,192,51227,128,0,52286:0:0:0:0:
320,192,51580,1,0,0:0:0:0:
64,192,51580,1,0,0:0:0:0:
192,192,51756,1,0,0:0:0:0:
64,192,51933,1,0,0:0:0:0:
320,192,51933,1,0,0:0:0:0:
192,192,52109,128,0,52639:0:0:0:0:
64,192,52462,128,0,52639:0:0:0:0:
448,192,52639,128,0,52815:0:0:0:0:
320,192,52727,128,0,52992:0:0:0:0:
192,192,52815,128,0,53168:0:0:0:0:
64,192,52903,128,0,53344:0:0:0:0:
448,192,52992,128,0,54050:0:0:0:0:
320,192,53168,1,0,0:0:0:0:
192,192,53344,1,0,0:0:0:0:
320,192,53521,1,0,0:0:0:0:
192,192,53697,1,0,0:0:0:0:
64,192,53874,1,0,0:0:0:0:
320,192,54050,128,0,54403:0:0:0:0:
192,192,54050,1,0,0:0:0:0:
448,192,54227,1,0,0:0:0:0:
192,192,54403,128,8,55815:0:0:0:0:
64,192,54403,1,8,0:0:0:0:
448,192,54403,1,8,0:0:0:0:
320,192,54580,1,0,0:0:0:0:
64,192,54580,1,0,0:0:0:0:
320,192,54756,1,8,0:0:0:0:
448,192,54756,1,8,0:0:0:0:
320,192,54933,1,0,0:0:0:0:
64,192,54933,1,0,0:0:0:0:
64,192,55109,1,8,0:0:0:0:
448,192,55109,1,8,0:0:0:0:
320,192,55286,1,0,0:0:0:0:
448,192,55286,1,0,0:0:0:0:
448,192,55462,1,8,0:0:0:0:
64,192,55462,1,8,0:0:0:0:
320,192,55550,1,0,0:0:0:0:
64,192,55639,1,0,0:0:0:0:
448,192,55727,1,0,0:0:0:0:
320,192,55815,1,0,0:0:0:0:
64,192,55815,1,0,0:0:0:0:
64,192,56168,128,0,56697:0:0:0:0:
192,192,56521,128,0,57050:0:0:0:0:
320,192,56874,128,0,57403:0:0:0:0:
448,192,57227,128,0,57580:0:0:0:0:
64,192,57227,1,0,0:0:0:0:
192,192,57403,1,0,0:0:0:0:
64,192,57580,1,0,0:0:0:0:
320,192,57580,1,0,0:0:0:0:
64,192,57933,128,0,58286:0:0:0:0:
448,192,57933,1,0,0:0:0:0:
320,192,58109,1,0,0:0:0:0:
192,192,58286,1,0,0:0:0:0:
448,192,58286,1,0,0:0:0:0:
320,192,58462,1,0,0:0:0:0:
64,192,58462,1,0,0:0:0:0:
448,192,58815,1,0,0:0:0:0:
320,192,58903,1,0,0:0:0:0:
192,192,58992,1,0,0:0:0:0:
64,192,59168,1,4,0:0:0:0:
320,192,59168,1,4,0:0:0:0:
448,192,59168,1,4,0:0:0:0:
192,192,59521,128,0,59874:0:0:0:0:
320,192,59697,128,0,60050:0:0:0:0:
448,192,59874,128,0,60227:0:0:0:0:
64,192,60050,128,8,61462:0:0:0:0:
192,192,60050,1,0,0:0:0:0:
320,192,60227,1,0,0:0:0:0:
192,192,60403,1,0,0:0:0:0:
448,192,60403,1,0,0:0:0:0:
320,192,60580,1,0,0:0:0:0:
320,192,60756,1,0,0:0:0:0:
448,192,60756,1,0,0:0:0:0:
448,192,60933,1,0,0:0:0:0:
192,192,61109,1,0,0:0:0:0:
320,192,61109,1,0,0:0:0:0:
320,192,61286,1,0,0:0:0:0:
448,192,61286,1,0,0:0:0:0:
320,192,61462,128,8,62874:0:0:0:0:
192,192,61462,1,0,0:0:0:0:
448,192,61462,1,0,0:0:0:0:
64,192,61639,1,0,0:0:0:0:
64,192,61815,1,0,0:0:0:0:
192,192,61815,1,0,0:0:0:0:
448,192,61992,1,0,0:0:0:0:
192,192,62168,1,0,0:0:0:0:
448,192,62168,1,0,0:0:0:0:
192,192,62344,1,0,0:0:0:0:
64,192,62521,1,0,0:0:0:0:
192,192,62521,1,0,0:0:0:0:
192,192,62697,1,0,0:0:0:0:
448,192,62697,1,0,0:0:0:0:
448,192,62874,1,0,0:0:0:0:
64,192,62874,1,0,0:0:0:0:
192,192,62874,128,8,64286:0:0:0:0:
320,192,63050,1,0,0:0:0:0:
320,192,63227,1,0,0:0:0:0:
64,192,63227,1,0,0:0:0:0:
64,192,63403,1,0,0:0:0:0:
64,192,63580,1,0,0:0:0:0:
448,192,63580,1,0,0:0:0:0:
448,192,63756,1,0,0:0:0:0:
320,192,63933,1,0,0:0:0:0:
448,192,63933,1,0,0:0:0:0:
320,192,64109,1,0,0:0:0:0:
64,192,64109,1,0,0:0:0:0:
64,192,64286,1,0,0:0:0:0:
448,192,64286,1,0,0:0:0:0:
320,192,64286,128,0,64639:0:0:0:0:
192,192,64462,128,0,64815:0:0:0:0:
64,192,64639,128,0,64992:0:0:0:0:
320,192,64815,128,0,64992:0:0:0:0:
448,192,64992,128,0,65344:0:0:0:0:
192,192,64992,1,0,0:0:0:0:
320,192,65168,128,0,65521:0:0:0:0:
192,192,65344,128,0,65697:0:0:0:0:
64,192,65521,128,0,65874:0:0:0:0:
448,192,65697,128,0,67462:0:0:0:0:
320,192,65697,1,0,0:0:0:0:
192,192,65874,1,0,0:0:0:0:
64,192,66050,1,0,0:0:0:0:
320,192,66050,1,0,0:0:0:0:
192,192,66227,1,0,0:0:0:0:
64,192,66227,1,0,0:0:0:0:
192,192,66403,1,0,0:0:0:0:
320,192,66403,1,0,0:0:0:0:
64,192,66580,1,0,0:0:0:0:
320,192,66580,1,0,0:0:0:0:
64,192,66756,1,0,0:0:0:0:
192,192,66756,1,0,0:0:0:0:
320,192,66933,128,0,67462:0:0:0:0:
64,192,67286,128,2,67639:0:0:0:0:
192,192,67462,128,2,67815:0:0:0:0:
320,192,67639,128,2,67992:0:0:0:0:
448,192,67815,1,0,0:0:0:0:
192,192,67992,1,0,0:0:0:0:
64,192,68168,1,0,0:0:0:0:
448,192,68344,1,0,0:0:0:0:
192,192,68344,1,0,0:0:0:0:
320,192,68433,1,0,0:0:0:0:
192,192,68521,1,0,0:0:0:0:
64,192,68521,1,0,0:0:0:0:
320,192,68697,1,0,0:0:0:0:
448,192,68697,1,0,0:0:0:0:
192,192,68874,1,0,0:0:0:0:
64,192,68874,1,0,0:0:0:0:
320,192,69050,1,0,0:0:0:0:
448,192,69050,1,0,0:0:0:0:
64,192,69227,1,0,0:0:0:0:
320,192,69227,1,0,0:0:0:0:
192,192,69403,1,0,0:0:0:0:
448,192,69403,1,0,0:0:0:0:
320,192,69580,1,0,0:0:0:0:
64,192,69580,1,0,0:0:0:0:
192,192,69756,1,0,0:0:0:0:
448,192,69756,1,0,0:0:0:0:
448,192,69933,128,0,70462:0:0:0:0:
320,192,69933,1,0,0:0:0:0:
64,192,69933,1,0,0:0:0:0:
192,192,70109,1,0,0:0:0:0:
64,192,70286,1,0,0:0:0:0:
320,192,70286,1,0,0:0:0:0:
320,192,70462,128,0,70815:0:0:0:0:
192,192,70550,128,0,70992:0:0:0:0:
64,192,70639,128,0,71344:0:0:0:0:
448,192,70815,1,0,0:0:0:0:
320,192,70992,1,0,0:0:0:0:
192,192,71168,1,0,0:0:0:0:
448,192,71344,128,0,72756:0:0:0:0:
320,192,71344,1,0,0:0:0:0:
192,192,71521,1,0,0:0:0:0:
64,192,71697,1,0,0:0:0:0:
320,192,71697,1,0,0:0:0:0:
320,192,71874,1,0,0:0:0:0:
192,192,72050,1,0,0:0:0:0:
64,192,72050,1,0,0:0:0:0:
64,192,72227,1,0,0:0:0:0:
192,192,72403,1,0,0:0:0:0:
320,192,72403,1,0,0:0:0:0:
192,192,72580,1,0,0:0:0:0:
320,192,72756,1,0,0:0:0:0:
64,192,72756,1,0,0:0:0:0:
192,192,72756,128,0,74168:0:0:0:0:
320,192,72933,1,0,0:0:0:0:
320,192,73109,1,0,0:0:0:0:
448,192,73109,1,0,0:0:0:0:
64,192,73286,1,0,0:0:0:0:
64,192,73462,1,0,0:0:0:0:
448,192,73462,1,0,0:0:0:0:
448,192,73639,1,0,0:0:0:0:
320,192,73815,1,0,0:0:0:0:
64,192,73815,1,0,0:0:0:0:
64,192,73992,1,0,0:0:0:0:
448,192,74168,1,0,0:0:0:0:
320,192,74168,1,0,0:0:0:0:
64,192,74168,128,0,75580:0:0:0:0:
192,192,74344,1,0,0:0:0:0:
320,192,74521,1,0,0:0:0:0:
448,192,74521,1,0,0:0:0:0:
320,192,74697,1,0,0:0:0:0:
192,192,74874,1,0,0:0:0:0:
448,192,74874,1,0,0:0:0:0:
192,192,75050,1,0,0:0:0:0:
320,192,75227,1,0,0:0:0:0:
448,192,75227,1,0,0:0:0:0:
448,192,75403,1,0,0:0:0:0:
320,192,75580,128,0,75933:0:0:0:0:
192,192,75756,128,0,76109:0:0:0:0:
64,192,75933,128,0,76286:0:0:0:0:
320,192,76109,128,0,76286:0:0:0:0:
448,192,76286,128,0,76639:0:0:0:0:
192,192,76286,1,0,0:0:0:0:
320,192,76462,128,0,76815:0:0:0:0:
192,192,76639,128,0,76992:0:0:0:0:
64,192,76815,128,0,76992:0:0:0:0:
320,192,76992,128,8,77344:0:0:0:0:
448,192,76992,128,8,77697:0:0:0:0:
64,192,77344,1,0,0:0:0:0:
192,192,77697,128,8,78050:0:0:0:0:
64,192,77697,128,8,79815:0:0:0:0:
320,192,78050,1,0,0:0:0:0:
448,192,78227,128,8,78580:0:0:0:0:
192,192,78580,128,0,79550:0:0:0:0:
320,192,78756,128,0,79639:0:0:0:0:
448,192,78933,128,0,79727:0:0:0:0:
192,192,79639,1,0,0:0:0:0:
320,192,79727,1,0,0:0:0:0:
192,192,79815,1,4,0:0:0:0:
448,192,79815,1,4,0:0:0:0:
320,192,79992,1,0,0:0:0:0:
64,192,79992,1,0,0:0:0:0:
192,192,80168,1,0,0:0:0:0:
448,192,80168,1,0,0:0:0:0:
320,192,80344,1,0,0:0:0:0:
64,192,80344,1,0,0:0:0:0:
320,192,80521,1,0,0:0:0:0:
448,192,80521,1,0,0:0:0:0:
192,192,80697,1,0,0:0:0:0:
64,192,80697,1,0,0:0:0:0:
320,192,80874,1,0,0:0:0:0:
448,192,80874,1,0,0:0:0:0:
192,192,81050,1,0,0:0:0:0:
64,192,81050,1,0,0:0:0:0:
448,192,81227,1,4,0:0:0:0:
192,192,81227,1,4,0:0:0:0:
64,192,81403,1,0,0:0:0:0:
320,192,81403,1,0,0:0:0:0:
192,192,81580,1,0,0:0:0:0:
448,192,81580,1,0,0:0:0:0:
320,192,81756,1,0,0:0:0:0:
64,192,81756,1,0,0:0:0:0:
64,192,81933,1,0,0:0:0:0:
192,192,81933,1,0,0:0:0:0:
320,192,82109,1,0,0:0:0:0:
448,192,82109,1,0,0:0:0:0:
192,192,82286,1,0,0:0:0:0:
64,192,82286,1,0,0:0:0:0:
320,192,82462,1,0,0:0:0:0:
448,192,82462,1,0,0:0:0:0:
192,192,82639,128,8,82992:0:0:0:0:
64,192,82639,128,0,83344:0:0:0:0:
448,192,82992,1,8,0:0:0:0:
320,192,83344,128,0,84050:0:0:0:0:
448,192,83344,128,8,83697:0:0:0:0:
192,192,83697,1,8,0:0:0:0:
64,192,83874,128,0,84403:0:0:0:0:
192,192,84227,128,0,84580:0:0:0:0:
320,192,84227,1,0,0:0:0:0:
320,192,84403,128,0,84756:0:0:0:0:
448,192,84403,1,0,0:0:0:0:
448,192,84580,128,0,85462:0:0:0:0:
64,192,84580,1,0,0:0:0:0:
64,192,85109,1,0,0:0:0:0:
192,192,85197,1,0,0:0:0:0:
320,192,85286,1,0,0:0:0:0:
192,192,85374,1,0,0:0:0:0:
64,192,85462,1,4,0:0:0:0:
320,192,85462,1,4,0:0:0:0:
192,192,85639,1,0,0:0:0:0:
448,192,85639,1,0,0:0:0:0:
320,192,85815,1,0,0:0:0:0:
64,192,85815,1,0,0:0:0:0:
192,192,85992,1,0,0:0:0:0:
448,192,85992,1,0,0:0:0:0:
192,192,86168,1,0,0:0:0:0:
64,192,86168,1,0,0:0:0:0:
448,192,86344,1,0,0:0:0:0:
320,192,86344,1,0,0:0:0:0:
192,192,86521,1,0,0:0:0:0:
64,192,86521,1,0,0:0:0:0:
320,192,86697,1,0,0:0:0:0:
448,192,86697,1,0,0:0:0:0:
64,192,86874,128,0,87580:0:0:0:0:
192,192,86874,1,0,0:0:0:0:
448,192,86874,1,0,0:0:0:0:
320,192,87050,1,0,0:0:0:0:
448,192,87050,1,0,0:0:0:0:
320,192,87227,1,0,0:0:0:0:
192,192,87227,1,0,0:0:0:0:
192,192,87403,1,0,0:0:0:0:
448,192,87403,1,0,0:0:0:0:
320,192,87580,128,0,87933:0:0:0:0:
448,192,87756,128,0,88109:0:0:0:0:
192,192,87844,128,0,88286:0:0:0:0:
64,192,87933,128,4,88639:0:0:0:0:
