osu file format v13

[General]
AudioFilename: Ogura Yui - Baby Sweet Berry Love.mp3
AudioLeadIn: 0
PreviewTime: 59532
Countdown: 0
SampleSet: Soft
StackLeniency: 0.7
Mode: 3
LetterboxInBreaks: 0
SpecialStyle: 0
WidescreenStoryboard: 1

[Editor]
DistanceSpacing: 1
BeatDivisor: 4
GridSize: 4
TimelineZoom: 1

[Metadata]
Title:Baby Sweet Berry Love (TV Size)
TitleUnicode:Baby Sweet Berry Love (TV Size)
Artist:Ogura Yui
ArtistUnicode:Ogura Yui
Creator:Destiny_322
Version:7K NM
Source:Hentai Ouji to Warawanai Neko
Tags:Anime Ending The "Hentai" Prince and the Stony Cat
BeatmapID:465745
BeatmapSetID:192963

[Difficulty]
HPDrainRate:7
CircleSize:7
OverallDifficulty:7
ApproachRate:5
SliderMultiplier:1.4
SliderTickRate:1

[Events]
//Background and Video events
0,0,"BG.jpg",0,0
//Break Periods
//Storyboard Layer 0 (Background)
//Storyboard Layer 1 (Fail)
//Storyboard Layer 2 (Pass)
//Storyboard Layer 3 (Foreground)
//Storyboard Sound Samples
//Background Colour Transformations
3,100,163,162,255

[TimingPoints]
62,352.941176470588,4,2,0,30,1,0
60061,-100,4,2,0,30,0,1
82650,-100,4,2,0,30,0,0

[HitObjects]
256,192,62,128,0,767:0:0:0:0:
402,192,767,1,0,0:0:0:0:
109,192,944,1,0,0:0:0:0:
256,192,1473,1,0,0:0:0:0:
109,192,2179,1,0,0:0:0:0:
402,192,2885,1,0,0:0:0:0:
256,192,3150,1,0,0:0:0:0:
182,192,3414,1,0,0:0:0:0:
36,192,3591,1,0,0:0:0:0:
475,192,3767,1,0,0:0:0:0:
256,192,4297,1,0,0:0:0:0:
182,192,5003,1,0,0:0:0:0:
256,192,5709,1,0,0:0:0:0:
109,192,5973,1,0,0:0:0:0:
182,192,6238,1,0,0:0:0:0:
475,192,6414,128,0,7120:0:0:0:0:
402,192,6414,1,0,0:0:0:0:
36,192,7120,128,0,7826:0:0:0:0:
109,192,7120,1,0,0:0:0:0:
402,192,7826,1,0,0:0:0:0:
402,192,8179,1,0,0:0:0:0:
182,192,8532,128,0,9238:0:0:0:0:
256,192,8532,1,0,0:0:0:0:
64,192,9238,1,0,0:0:0:0:
320,192,9415,1,0,0:0:0:0:
402,192,9591,1,0,0:0:0:0:
256,192,9591,1,0,0:0:0:0:
109,192,9767,1,0,0:0:0:0:
256,192,9944,1,0,0:0:0:0:
182,192,10120,1,0,0:0:0:0:
329,192,10297,1,0,0:0:0:0:
109,192,10297,1,0,0:0:0:0:
402,192,10473,1,0,0:0:0:0:
448,192,10650,1,0,0:0:0:0:
64,192,10650,1,0,0:0:0:0:
256,192,10826,1,0,0:0:0:0:
448,192,11003,1,0,0:0:0:0:
64,192,11003,1,0,0:0:0:0:
329,192,11179,1,0,0:0:0:0:
109,192,11356,1,0,0:0:0:0:
402,192,11532,1,0,0:0:0:0:
256,192,11709,1,0,0:0:0:0:
182,192,11709,1,0,0:0:0:0:
109,192,11885,1,0,0:0:0:0:
36,192,12061,1,0,0:0:0:0:
475,192,12061,1,0,0:0:0:0:
109,192,12414,1,0,0:0:0:0:
329,192,12414,1,0,0:0:0:0:
448,192,12768,1,0,0:0:0:0:
182,192,13120,1,0,0:0:0:0:
329,192,13120,1,0,0:0:0:0:
36,192,13473,1,0,0:0:0:0:
256,192,13826,1,0,0:0:0:0:
402,192,13826,1,0,0:0:0:0:
109,192,14179,1,0,0:0:0:0:
402,192,14532,1,0,0:0:0:0:
182,192,14532,1,0,0:0:0:0:
329,192,14885,1,0,0:0:0:0:
329,192,15061,1,0,0:0:0:0:
256,192,15238,1,0,0:0:0:0:
402,192,15591,1,0,0:0:0:0:
402,192,15767,1,0,0:0:0:0:
182,192,15944,1,0,0:0:0:0:
329,192,16297,1,0,0:0:0:0:
256,192,16473,1,0,0:0:0:0:
182,192,16650,1,0,0:0:0:0:
109,192,16826,1,0,0:0:0:0:
36,192,17003,1,0,0:0:0:0:
182,192,17179,1,0,0:0:0:0:
329,192,17356,1,0,0:0:0:0:
256,192,17532,1,0,0:0:0:0:
475,192,17709,1,0,0:0:0:0:
36,192,17709,1,0,0:0:0:0:
182,192,18061,1,0,0:0:0:0:
402,192,18238,1,0,0:0:0:0:
109,192,18238,1,0,0:0:0:0:
256,192,18591,1,0,0:0:0:0:
329,192,18767,1,0,0:0:0:0:
182,192,18767,1,0,0:0:0:0:
64,192,19120,1,0,0:0:0:0:
448,192,19120,1,0,0:0:0:0:
329,192,19473,1,0,0:0:0:0:
402,192,19650,1,0,0:0:0:0:
109,192,19650,1,0,0:0:0:0:
320,192,20003,1,0,0:0:0:0:
256,192,20179,1,0,0:0:0:0:
182,192,20179,1,0,0:0:0:0:
475,192,20356,1,0,0:0:0:0:
36,192,20356,1,0,0:0:0:0:
329,192,20709,1,0,0:0:0:0:
109,192,20885,1,0,0:0:0:0:
182,192,20885,1,0,0:0:0:0:
36,192,21238,1,0,0:0:0:0:
475,192,21238,1,0,0:0:0:0:
320,192,21591,1,0,0:0:0:0:
256,192,21767,1,0,0:0:0:0:
109,192,21944,1,0,0:0:0:0:
256,192,22120,1,0,0:0:0:0:
402,192,22297,1,0,0:0:0:0:
182,192,22473,1,0,0:0:0:0:
256,192,22650,1,0,0:0:0:0:
329,192,22826,1,0,0:0:0:0:
182,192,23003,1,0,0:0:0:0:
256,192,23091,1,0,0:0:0:0:
329,192,23179,1,0,0:0:0:0:
402,192,23267,1,0,0:0:0:0:
36,192,23356,1,0,0:0:0:0:
475,192,23356,1,0,0:0:0:0:
182,192,23885,1,0,0:0:0:0:
329,192,24414,1,0,0:0:0:0:
109,192,24414,1,0,0:0:0:0:
402,192,24767,1,0,0:0:0:0:
256,192,25032,1,0,0:0:0:0:
109,192,25297,1,0,0:0:0:0:
475,192,25826,1,0,0:0:0:0:
182,192,25826,1,0,0:0:0:0:
329,192,26003,1,0,0:0:0:0:
402,192,26179,1,0,0:0:0:0:
109,192,26709,1,0,0:0:0:0:
329,192,27238,1,0,0:0:0:0:
36,192,27238,1,0,0:0:0:0:
182,192,27414,1,0,0:0:0:0:
256,192,27591,1,0,0:0:0:0:
402,192,27856,1,0,0:0:0:0:
475,192,28120,1,0,0:0:0:0:
109,192,28650,1,0,0:0:0:0:
256,192,28650,1,0,0:0:0:0:
329,192,29003,1,0,0:0:0:0:
256,192,29532,1,0,0:0:0:0:
182,192,29885,1,0,0:0:0:0:
329,192,30061,1,0,0:0:0:0:
402,192,30061,1,0,0:0:0:0:
109,192,30414,1,0,0:0:0:0:
182,192,30944,1,0,0:0:0:0:
329,192,31297,1,0,0:0:0:0:
402,192,31473,1,0,0:0:0:0:
256,192,31473,1,0,0:0:0:0:
109,192,31826,1,0,0:0:0:0:
109,192,32532,1,0,0:0:0:0:
182,192,32709,1,0,0:0:0:0:
402,192,32885,1,0,0:0:0:0:
329,192,32885,1,0,0:0:0:0:
36,192,33238,1,0,0:0:0:0:
109,192,33591,1,0,0:0:0:0:
182,192,33591,1,0,0:0:0:0:
475,192,33944,1,0,0:0:0:0:
329,192,34297,1,0,0:0:0:0:
402,192,34297,1,0,0:0:0:0:
475,192,34650,1,0,0:0:0:0:
36,192,34650,1,0,0:0:0:0:
329,192,35003,1,0,0:0:0:0:
402,192,35003,1,0,0:0:0:0:
109,192,35356,1,0,0:0:0:0:
182,192,35532,1,0,0:0:0:0:
329,192,35709,1,0,0:0:0:0:
402,192,35709,1,0,0:0:0:0:
256,192,36061,1,0,0:0:0:0:
36,192,36414,1,0,0:0:0:0:
109,192,36414,1,0,0:0:0:0:
256,192,36767,1,0,0:0:0:0:
329,192,36944,1,0,0:0:0:0:
402,192,37120,1,0,0:0:0:0:
475,192,37120,1,0,0:0:0:0:
182,192,37473,1,0,0:0:0:0:
329,192,37826,1,0,0:0:0:0:
402,192,37826,1,0,0:0:0:0:
182,192,38179,1,0,0:0:0:0:
109,192,38356,1,0,0:0:0:0:
402,192,38532,1,0,0:0:0:0:
329,192,38532,1,0,0:0:0:0:
256,192,38885,1,0,0:0:0:0:
402,192,39238,1,0,0:0:0:0:
475,192,39238,1,0,0:0:0:0:
329,192,39591,1,0,0:0:0:0:
402,192,39767,1,0,0:0:0:0:
109,192,39944,1,0,0:0:0:0:
36,192,39944,1,0,0:0:0:0:
329,192,40297,1,0,0:0:0:0:
182,192,40297,1,0,0:0:0:0:
109,192,40650,1,0,0:0:0:0:
402,192,40650,1,0,0:0:0:0:
256,192,40826,1,0,0:0:0:0:
256,192,41179,1,0,0:0:0:0:
182,192,41356,1,0,0:0:0:0:
329,192,41356,1,0,0:0:0:0:
109,192,41709,1,0,0:0:0:0:
402,192,41709,1,0,0:0:0:0:
182,192,42061,1,0,0:0:0:0:
329,192,42061,1,0,0:0:0:0:
256,192,42238,1,0,0:0:0:0:
256,192,42591,1,0,0:0:0:0:
402,192,42767,1,0,0:0:0:0:
109,192,42767,1,0,0:0:0:0:
256,192,42944,1,0,0:0:0:0:
36,192,43120,1,0,0:0:0:0:
475,192,43120,1,0,0:0:0:0:
256,192,43473,1,0,0:0:0:0:
182,192,43826,1,0,0:0:0:0:
329,192,44003,1,0,0:0:0:0:
402,192,44179,1,0,0:0:0:0:
256,192,44356,1,0,0:0:0:0:
109,192,44532,1,0,0:0:0:0:
182,192,44709,1,0,0:0:0:0:
475,192,44885,1,0,0:0:0:0:
36,192,44885,1,0,0:0:0:0:
329,192,45061,1,0,0:0:0:0:
36,192,45238,1,0,0:0:0:0:
475,192,45238,1,0,0:0:0:0:
182,192,45414,1,0,0:0:0:0:
329,192,45591,1,0,0:0:0:0:
402,192,45944,1,0,0:0:0:0:
109,192,45944,1,0,0:0:0:0:
182,192,46473,1,0,0:0:0:0:
329,192,46473,1,0,0:0:0:0:
256,192,47003,128,0,47356:0:0:0:0:
329,192,47532,1,0,0:0:0:0:
256,192,47709,1,0,0:0:0:0:
182,192,47885,1,0,0:0:0:0:
109,192,48061,1,0,0:0:0:0:
182,192,48238,1,0,0:0:0:0:
109,192,48767,1,0,0:0:0:0:
402,192,48767,1,0,0:0:0:0:
329,192,49297,1,0,0:0:0:0:
182,192,49297,1,0,0:0:0:0:
256,192,49826,128,0,50179:0:0:0:0:
182,192,50356,1,0,0:0:0:0:
256,192,50532,1,0,0:0:0:0:
329,192,50709,1,0,0:0:0:0:
402,192,50885,1,0,0:0:0:0:
329,192,51061,1,0,0:0:0:0:
109,192,51238,1,0,0:0:0:0:
475,192,51414,1,0,0:0:0:0:
402,192,51503,1,0,0:0:0:0:
329,192,51591,1,0,0:0:0:0:
109,192,51944,1,0,0:0:0:0:
36,192,51944,1,0,0:0:0:0:
402,192,52120,1,0,0:0:0:0:
329,192,52473,1,0,0:0:0:0:
182,192,52650,1,0,0:0:0:0:
109,192,52650,1,0,0:0:0:0:
182,192,53003,1,0,0:0:0:0:
329,192,53179,1,0,0:0:0:0:
109,192,53356,1,0,0:0:0:0:
36,192,53356,1,0,0:0:0:0:
402,192,53532,1,0,0:0:0:0:
475,192,53885,1,0,0:0:0:0:
182,192,54061,1,0,0:0:0:0:
109,192,54061,1,0,0:0:0:0:
402,192,54414,1,0,0:0:0:0:
182,192,54591,1,0,0:0:0:0:
109,192,54767,1,0,0:0:0:0:
402,192,54944,1,0,0:0:0:0:
329,192,55120,1,0,0:0:0:0:
36,192,55297,1,0,0:0:0:0:
109,192,55473,1,0,0:0:0:0:
182,192,55650,1,0,0:0:0:0:
402,192,55826,1,0,0:0:0:0:
329,192,56003,1,0,0:0:0:0:
256,192,56091,1,0,0:0:0:0:
182,192,56179,1,0,0:0:0:0:
475,192,56356,1,0,0:0:0:0:
402,192,56532,1,0,0:0:0:0:
36,192,56709,1,0,0:0:0:0:
182,192,56885,1,0,0:0:0:0:
256,192,56973,1,0,0:0:0:0:
329,192,57061,1,0,0:0:0:0:
475,192,57238,1,0,0:0:0:0:
182,192,57414,1,0,0:0:0:0:
36,192,57591,1,0,0:0:0:0:
109,192,57591,1,0,0:0:0:0:
256,192,57944,1,0,0:0:0:0:
329,192,58120,1,0,0:0:0:0:
402,192,58297,1,0,0:0:0:0:
475,192,58473,1,0,0:0:0:0:
36,192,58473,1,0,0:0:0:0:
182,192,58826,1,0,0:0:0:0:
256,192,58914,1,0,0:0:0:0:
329,192,59003,1,0,0:0:0:0:
402,192,59179,1,0,0:0:0:0:
182,192,59532,1,0,0:0:0:0:
329,192,59709,1,0,0:0:0:0:
36,192,60061,1,0,0:0:0:0:
475,192,60061,1,0,0:0:0:0:
182,192,60414,1,0,0:0:0:0:
256,192,60414,1,0,0:0:0:0:
402,192,60767,1,0,0:0:0:0:
36,192,61120,1,0,0:0:0:0:
182,192,61120,1,0,0:0:0:0:
402,192,61473,1,0,0:0:0:0:
256,192,61826,1,0,0:0:0:0:
475,192,61826,1,0,0:0:0:0:
329,192,62179,1,0,0:0:0:0:
402,192,62356,1,0,0:0:0:0:
475,192,62532,1,0,0:0:0:0:
182,192,62532,1,0,0:0:0:0:
109,192,62709,1,0,0:0:0:0:
256,192,62885,1,0,0:0:0:0:
402,192,63061,1,0,0:0:0:0:
36,192,63238,1,0,0:0:0:0:
182,192,63238,1,0,0:0:0:0:
475,192,63591,1,0,0:0:0:0:
109,192,63944,1,0,0:0:0:0:
329,192,63944,1,0,0:0:0:0:
402,192,64297,1,0,0:0:0:0:
182,192,64473,1,0,0:0:0:0:
36,192,64650,1,0,0:0:0:0:
256,192,64650,1,0,0:0:0:0:
109,192,64826,1,0,0:0:0:0:
329,192,65003,1,0,0:0:0:0:
475,192,65179,1,0,0:0:0:0:
256,192,65356,128,0,65709:0:0:0:0:
402,192,65356,1,0,0:0:0:0:
36,192,65709,1,0,0:0:0:0:
475,192,65709,1,0,0:0:0:0:
182,192,66061,1,0,0:0:0:0:
329,192,66061,1,0,0:0:0:0:
256,192,66414,1,0,0:0:0:0:
329,192,66767,1,0,0:0:0:0:
109,192,66767,1,0,0:0:0:0:
402,192,67120,1,0,0:0:0:0:
329,192,67297,1,0,0:0:0:0:
475,192,67473,1,0,0:0:0:0:
182,192,67473,1,0,0:0:0:0:
402,192,67650,1,0,0:0:0:0:
36,192,67826,1,0,0:0:0:0:
182,192,68003,1,0,0:0:0:0:
256,192,68179,1,0,0:0:0:0:
329,192,68179,1,0,0:0:0:0:
109,192,68532,1,0,0:0:0:0:
182,192,68709,1,0,0:0:0:0:
402,192,68885,1,0,0:0:0:0:
475,192,68885,1,0,0:0:0:0:
329,192,69238,1,0,0:0:0:0:
256,192,69414,1,0,0:0:0:0:
109,192,69591,1,0,0:0:0:0:
36,192,69591,1,0,0:0:0:0:
36,192,69944,1,0,0:0:0:0:
475,192,69944,1,0,0:0:0:0:
329,192,70120,1,0,0:0:0:0:
256,192,70209,1,0,0:0:0:0:
182,192,70297,1,0,0:0:0:0:
109,192,70473,1,0,0:0:0:0:
402,192,70650,1,0,0:0:0:0:
329,192,70826,1,0,0:0:0:0:
109,192,71003,1,0,0:0:0:0:
402,192,71003,1,0,0:0:0:0:
36,192,71356,1,0,0:0:0:0:
475,192,71356,1,0,0:0:0:0:
109,192,71709,1,0,0:0:0:0:
256,192,71709,1,0,0:0:0:0:
182,192,72061,1,0,0:0:0:0:
475,192,72414,1,0,0:0:0:0:
329,192,72414,1,0,0:0:0:0:
109,192,72767,1,0,0:0:0:0:
256,192,73120,1,0,0:0:0:0:
402,192,73120,1,0,0:0:0:0:
329,192,73473,1,0,0:0:0:0:
109,192,73650,1,0,0:0:0:0:
182,192,73826,1,0,0:0:0:0:
402,192,73826,1,0,0:0:0:0:
475,192,74179,1,0,0:0:0:0:
36,192,74532,1,0,0:0:0:0:
329,192,74532,1,0,0:0:0:0:
256,192,74885,1,0,0:0:0:0:
329,192,75238,1,0,0:0:0:0:
182,192,75238,1,0,0:0:0:0:
475,192,75591,1,0,0:0:0:0:
109,192,75767,1,0,0:0:0:0:
329,192,75944,1,0,0:0:0:0:
182,192,75944,1,0,0:0:0:0:
256,192,76120,1,0,0:0:0:0:
36,192,76297,1,0,0:0:0:0:
109,192,76473,1,0,0:0:0:0:
256,192,76650,128,0,77003:0:0:0:0:
182,192,76650,1,0,0:0:0:0:
36,192,77003,1,0,0:0:0:0:
475,192,77003,1,0,0:0:0:0:
182,192,77356,1,0,0:0:0:0:
402,192,77356,1,0,0:0:0:0:
109,192,77709,1,0,0:0:0:0:
329,192,78061,1,0,0:0:0:0:
256,192,78061,1,0,0:0:0:0:
475,192,78414,1,0,0:0:0:0:
329,192,78767,1,0,0:0:0:0:
36,192,78767,1,0,0:0:0:0:
109,192,79120,1,0,0:0:0:0:
256,192,79297,1,0,0:0:0:0:
329,192,79473,1,0,0:0:0:0:
402,192,79473,1,0,0:0:0:0:
182,192,79826,1,0,0:0:0:0:
256,192,79826,1,0,0:0:0:0:
329,192,80003,1,0,0:0:0:0:
475,192,80179,1,0,0:0:0:0:
36,192,80179,1,0,0:0:0:0:
182,192,80356,1,0,0:0:0:0:
329,192,80532,1,0,0:0:0:0:
109,192,80709,1,0,0:0:0:0:
36,192,80885,1,0,0:0:0:0:
475,192,80885,1,0,0:0:0:0:
329,192,81238,1,0,0:0:0:0:
256,192,81326,1,0,0:0:0:0:
182,192,81414,1,0,0:0:0:0:
402,192,81591,1,0,0:0:0:0:
109,192,81591,1,0,0:0:0:0:
475,192,81944,1,0,0:0:0:0:
402,192,82032,1,0,0:0:0:0:
329,192,82120,1,0,0:0:0:0:
182,192,82297,1,0,0:0:0:0:
36,192,82297,1,0,0:0:0:0:
109,192,82473,1,0,0:0:0:0:
475,192,82650,128,0,83356:0:0:0:0:
402,192,83356,128,0,83885:0:0:0:0:
182,192,83885,1,0,0:0:0:0:
36,192,83885,1,0,0:0:0:0:
109,192,84238,1,0,0:0:0:0:
182,192,84414,1,0,0:0:0:0:
475,192,84591,128,0,85120:0:0:0:0:
256,192,84591,1,0,0:0:0:0:
329,192,85120,1,0,0:0:0:0:
182,192,85297,1,0,0:0:0:0:
36,192,85473,1,0,0:0:0:0:
475,192,85473,1,0,0:0:0:0:
182,192,85650,1,0,0:0:0:0:
329,192,85826,1,0,0:0:0:0:
402,192,86003,1,0,0:0:0:0:
109,192,86179,1,0,0:0:0:0:
329,192,86356,1,0,0:0:0:0:
182,192,86532,1,0,0:0:0:0:
256,192,86709,1,0,0:0:0:0:
109,192,86885,1,0,0:0:0:0:
475,192,87061,1,0,0:0:0:0:
329,192,87238,1,0,0:0:0:0:
36,192,87238,1,0,0:0:0:0:
182,192,87414,1,0,0:0:0:0:
329,192,87591,1,0,0:0:0:0:
475,192,87767,1,0,0:0:0:0:
402,192,87856,1,0,0:0:0:0:
109,192,87944,128,0,88650:0:0:0:0:
329,192,87944,1,0,0:0:0:0:
