osu file format v13

[General]
AudioFilename: Ogura Yui - Baby Sweet Berry Love.mp3
AudioLeadIn: 0
PreviewTime: 59532
Countdown: 0
SampleSet: Soft
StackLeniency: 0.7
Mode: 3
LetterboxInBreaks: 0
SpecialStyle: 0
WidescreenStoryboard: 0

[Editor]
DistanceSpacing: 1
BeatDivisor: 4
GridSize: 4
TimelineZoom: 1

[Metadata]
Title:Baby Sweet Berry Love (TV Size)
TitleUnicode:Baby Sweet Berry Love (TV Size)
Artist:Ogura Yui
ArtistUnicode:Ogura Yui
Creator:Destiny_322
Version:7K HD
Source:Hentai Ouji to Warawanai Neko
Tags:Anime Ending The "Hentai" Prince and the Stony Cat
BeatmapID:463371
BeatmapSetID:192963

[Difficulty]
HPDrainRate:7
CircleSize:7
OverallDifficulty:7
ApproachRate:5
SliderMultiplier:1.4
SliderTickRate:1

[Events]
//Background and Video events
0,0,"BG.jpg",0,0
//Break Periods
//Storyboard Layer 0 (Background)
//Storyboard Layer 1 (Fail)
//Storyboard Layer 2 (Pass)
//Storyboard Layer 3 (Foreground)
//Storyboard Sound Samples
//Background Colour Transformations
3,100,163,162,255

[TimingPoints]
62,352.941176470588,4,2,0,30,1,0
60061,-100,4,2,0,30,0,1
82650,-100,4,2,0,30,0,0

[HitObjects]
320,192,62,128,0,768:0:0:0:0:
182,192,62,128,0,767:0:0:0:0:
475,192,767,1,0,0:0:0:0:
64,192,768,1,0,0:0:0:0:
109,192,944,1,0,0:0:0:0:
402,192,944,1,0,0:0:0:0:
256,192,1473,1,0,0:0:0:0:
448,192,1826,1,0,0:0:0:0:
36,192,2003,128,0,2356:0:0:0:0:
475,192,2356,128,0,2885:0:0:0:0:
402,192,2532,128,0,2885:0:0:0:0:
329,192,2709,128,0,2885:0:0:0:0:
192,192,2885,1,0,0:0:0:0:
109,192,2885,1,0,0:0:0:0:
329,192,3150,1,0,0:0:0:0:
402,192,3150,1,0,0:0:0:0:
109,192,3414,1,0,0:0:0:0:
64,192,3415,1,0,0:0:0:0:
329,192,3591,1,0,0:0:0:0:
182,192,3591,1,0,0:0:0:0:
182,192,3767,1,0,0:0:0:0:
320,192,3768,1,0,0:0:0:0:
256,192,4297,1,0,0:0:0:0:
475,192,5003,1,0,0:0:0:0:
402,192,5003,128,0,5179:0:0:0:0:
329,192,5179,128,0,5356:0:0:0:0:
256,192,5356,128,0,5532:0:0:0:0:
329,192,5532,128,0,5709:0:0:0:0:
256,192,5709,128,0,5885:0:0:0:0:
182,192,5885,128,0,6061:0:0:0:0:
256,192,6061,128,0,6238:0:0:0:0:
182,192,6238,128,0,6414:0:0:0:0:
109,192,6414,128,0,6591:0:0:0:0:
329,192,6414,128,0,7120:0:0:0:0:
402,192,6414,128,0,7120:0:0:0:0:
36,192,7120,128,0,7826:0:0:0:0:
109,192,7120,128,0,7826:0:0:0:0:
320,192,7826,128,0,8179:0:0:0:0:
402,192,7826,128,0,8179:0:0:0:0:
182,192,8179,128,0,8532:0:0:0:0:
109,192,8179,128,0,8532:0:0:0:0:
475,192,8532,1,0,0:0:0:0:
256,192,8532,128,0,9238:0:0:0:0:
36,192,8532,1,0,0:0:0:0:
64,192,9238,1,0,0:0:0:0:
320,192,9415,1,0,0:0:0:0:
448,192,9591,1,0,0:0:0:0:
402,192,9591,1,0,0:0:0:0:
329,192,9679,1,0,0:0:0:0:
182,192,9767,1,0,0:0:0:0:
329,192,9944,1,0,0:0:0:0:
182,192,10032,1,0,0:0:0:0:
256,192,10120,1,0,0:0:0:0:
64,192,10297,1,0,0:0:0:0:
182,192,10297,1,0,0:0:0:0:
402,192,10473,1,0,0:0:0:0:
448,192,10650,1,0,0:0:0:0:
64,192,10650,1,0,0:0:0:0:
256,192,10650,1,0,0:0:0:0:
109,192,10826,1,0,0:0:0:0:
448,192,11003,1,0,0:0:0:0:
64,192,11003,1,0,0:0:0:0:
256,192,11003,1,0,0:0:0:0:
402,192,11179,1,0,0:0:0:0:
329,192,11267,1,0,0:0:0:0:
109,192,11356,1,0,0:0:0:0:
475,192,11444,1,0,0:0:0:0:
402,192,11532,1,0,0:0:0:0:
320,192,11709,1,0,0:0:0:0:
256,192,11709,1,0,0:0:0:0:
109,192,11885,1,0,0:0:0:0:
182,192,12061,1,0,0:0:0:0:
256,192,12061,128,0,14179:0:0:0:0:
320,192,12062,1,0,0:0:0:0:
109,192,12414,1,0,0:0:0:0:
64,192,12415,1,0,0:0:0:0:
448,192,12768,1,0,0:0:0:0:
320,192,12944,1,0,0:0:0:0:
109,192,13120,1,0,0:0:0:0:
64,192,13121,1,0,0:0:0:0:
36,192,13473,1,0,0:0:0:0:
448,192,13826,1,0,0:0:0:0:
402,192,13826,1,0,0:0:0:0:
64,192,14179,1,0,0:0:0:0:
192,192,14356,1,0,0:0:0:0:
402,192,14532,1,0,0:0:0:0:
475,192,14532,1,0,0:0:0:0:
192,192,14885,1,0,0:0:0:0:
109,192,14885,128,0,15061:0:0:0:0:
402,192,15061,128,0,15238:0:0:0:0:
329,192,15238,1,0,0:0:0:0:
256,192,15238,128,0,15414:0:0:0:0:
320,192,15591,1,0,0:0:0:0:
402,192,15591,128,0,15767:0:0:0:0:
109,192,15767,128,0,15944:0:0:0:0:
256,192,15944,128,0,16120:0:0:0:0:
182,192,15944,1,0,0:0:0:0:
320,192,16297,1,0,0:0:0:0:
256,192,16473,1,0,0:0:0:0:
320,192,16650,1,0,0:0:0:0:
182,192,16650,1,0,0:0:0:0:
192,192,16826,1,0,0:0:0:0:
329,192,16826,1,0,0:0:0:0:
36,192,17003,1,0,0:0:0:0:
256,192,17179,1,0,0:0:0:0:
475,192,17356,1,0,0:0:0:0:
402,192,17356,1,0,0:0:0:0:
256,192,17532,1,0,0:0:0:0:
182,192,17620,1,0,0:0:0:0:
448,192,17709,128,0,18238:0:0:0:0:
109,192,17709,1,0,0:0:0:0:
402,192,17709,1,0,0:0:0:0:
256,192,17885,1,0,0:0:0:0:
182,192,18061,1,0,0:0:0:0:
320,192,18238,1,0,0:0:0:0:
402,192,18238,1,0,0:0:0:0:
109,192,18238,128,0,18767:0:0:0:0:
320,192,18591,1,0,0:0:0:0:
402,192,18767,128,0,19120:0:0:0:0:
256,192,18767,1,0,0:0:0:0:
64,192,19120,1,0,0:0:0:0:
448,192,19120,1,0,0:0:0:0:
192,192,19120,128,0,19650:0:0:0:0:
256,192,19297,1,0,0:0:0:0:
329,192,19473,1,0,0:0:0:0:
448,192,19650,1,0,0:0:0:0:
402,192,19650,1,0,0:0:0:0:
109,192,19650,128,0,20356:0:0:0:0:
320,192,20003,1,0,0:0:0:0:
256,192,20179,1,0,0:0:0:0:
402,192,20179,1,0,0:0:0:0:
320,192,20356,1,0,0:0:0:0:
192,192,20356,1,0,0:0:0:0:
475,192,20356,128,0,21238:0:0:0:0:
329,192,20709,1,0,0:0:0:0:
36,192,20885,1,0,0:0:0:0:
109,192,20885,1,0,0:0:0:0:
256,192,21238,1,0,0:0:0:0:
182,192,21238,1,0,0:0:0:0:
109,192,21238,128,0,21944:0:0:0:0:
320,192,21591,1,0,0:0:0:0:
256,192,21767,1,0,0:0:0:0:
448,192,21944,128,0,23356:0:0:0:0:
329,192,21944,1,0,0:0:0:0:
182,192,21944,1,0,0:0:0:0:
36,192,21944,128,0,23356:0:0:0:0:
256,192,22120,1,0,0:0:0:0:
402,192,22297,1,0,0:0:0:0:
329,192,22297,1,0,0:0:0:0:
182,192,22473,1,0,0:0:0:0:
256,192,22561,1,0,0:0:0:0:
329,192,22650,1,0,0:0:0:0:
402,192,22650,1,0,0:0:0:0:
182,192,22826,1,0,0:0:0:0:
402,192,23003,1,0,0:0:0:0:
329,192,23091,1,0,0:0:0:0:
256,192,23179,1,0,0:0:0:0:
182,192,23267,1,0,0:0:0:0:
109,192,23356,1,0,0:0:0:0:
402,192,23356,1,0,0:0:0:0:
256,192,23885,1,0,0:0:0:0:
182,192,24414,1,0,0:0:0:0:
329,192,24414,1,0,0:0:0:0:
402,192,24767,1,0,0:0:0:0:
402,192,25032,1,0,0:0:0:0:
402,192,25297,1,0,0:0:0:0:
109,192,25473,1,0,0:0:0:0:
182,192,25650,1,0,0:0:0:0:
256,192,25826,1,0,0:0:0:0:
402,192,25826,1,0,0:0:0:0:
329,192,26003,1,0,0:0:0:0:
256,192,26091,1,0,0:0:0:0:
182,192,26179,1,0,0:0:0:0:
109,192,26709,1,0,0:0:0:0:
182,192,26797,1,0,0:0:0:0:
256,192,26885,1,0,0:0:0:0:
402,192,27238,1,0,0:0:0:0:
329,192,27238,1,0,0:0:0:0:
329,192,27414,1,0,0:0:0:0:
109,192,27591,1,0,0:0:0:0:
109,192,27856,1,0,0:0:0:0:
109,192,28120,1,0,0:0:0:0:
329,192,28120,1,0,0:0:0:0:
256,192,28209,1,0,0:0:0:0:
182,192,28297,1,0,0:0:0:0:
256,192,28650,1,0,0:0:0:0:
329,192,28650,1,0,0:0:0:0:
36,192,29003,128,0,29709:0:0:0:0:
475,192,29003,1,0,0:0:0:0:
256,192,29532,1,0,0:0:0:0:
182,192,29709,128,0,29885:0:0:0:0:
329,192,29885,128,0,30061:0:0:0:0:
256,192,29885,1,0,0:0:0:0:
109,192,30061,128,0,30238:0:0:0:0:
402,192,30238,128,0,30414:0:0:0:0:
475,192,30414,128,0,31120:0:0:0:0:
36,192,30414,1,0,0:0:0:0:
256,192,30944,1,0,0:0:0:0:
329,192,31120,128,0,31297:0:0:0:0:
182,192,31297,128,0,31473:0:0:0:0:
256,192,31297,1,0,0:0:0:0:
402,192,31473,128,0,31650:0:0:0:0:
109,192,31650,128,0,31826:0:0:0:0:
182,192,31826,128,0,32532:0:0:0:0:
475,192,31826,1,0,0:0:0:0:
329,192,32179,128,0,32532:0:0:0:0:
256,192,32532,1,0,0:0:0:0:
182,192,32709,1,0,0:0:0:0:
109,192,32885,1,0,0:0:0:0:
402,192,32885,1,0,0:0:0:0:
36,192,33238,128,0,33414:0:0:0:0:
109,192,33414,128,0,33591:0:0:0:0:
182,192,33591,128,0,33767:0:0:0:0:
256,192,33767,128,0,33944:0:0:0:0:
475,192,33944,128,0,34120:0:0:0:0:
402,192,34120,128,0,34297:0:0:0:0:
329,192,34297,128,0,34473:0:0:0:0:
256,192,34473,128,0,34650:0:0:0:0:
36,192,34650,128,0,35179:0:0:0:0:
109,192,34650,1,0,0:0:0:0:
182,192,34826,1,0,0:0:0:0:
329,192,35003,1,0,0:0:0:0:
402,192,35003,1,0,0:0:0:0:
256,192,35356,1,0,0:0:0:0:
182,192,35532,1,0,0:0:0:0:
109,192,35709,1,0,0:0:0:0:
36,192,35709,1,0,0:0:0:0:
182,192,35885,1,0,0:0:0:0:
402,192,36061,128,0,36591:0:0:0:0:
256,192,36061,1,0,0:0:0:0:
36,192,36414,1,0,0:0:0:0:
182,192,36414,1,0,0:0:0:0:
109,192,36591,1,0,0:0:0:0:
256,192,36767,1,0,0:0:0:0:
329,192,36944,1,0,0:0:0:0:
182,192,37120,1,0,0:0:0:0:
109,192,37120,1,0,0:0:0:0:
329,192,37297,1,0,0:0:0:0:
256,192,37473,1,0,0:0:0:0:
109,192,37473,128,0,38003:0:0:0:0:
329,192,37826,1,0,0:0:0:0:
402,192,37826,1,0,0:0:0:0:
475,192,38003,1,0,0:0:0:0:
256,192,38179,1,0,0:0:0:0:
182,192,38356,1,0,0:0:0:0:
329,192,38532,1,0,0:0:0:0:
402,192,38532,1,0,0:0:0:0:
182,192,38709,1,0,0:0:0:0:
256,192,38885,1,0,0:0:0:0:
475,192,38885,128,0,39414:0:0:0:0:
182,192,39238,1,0,0:0:0:0:
109,192,39238,1,0,0:0:0:0:
329,192,39414,1,0,0:0:0:0:
256,192,39591,1,0,0:0:0:0:
182,192,39767,1,0,0:0:0:0:
109,192,39944,1,0,0:0:0:0:
329,192,39944,1,0,0:0:0:0:
256,192,40120,1,0,0:0:0:0:
329,192,40297,1,0,0:0:0:0:
182,192,40297,128,0,41003:0:0:0:0:
329,192,40650,1,0,0:0:0:0:
475,192,40650,1,0,0:0:0:0:
256,192,40826,1,0,0:0:0:0:
402,192,41003,128,0,41179:0:0:0:0:
329,192,41179,128,0,41356:0:0:0:0:
36,192,41179,1,0,0:0:0:0:
109,192,41356,128,0,41532:0:0:0:0:
475,192,41356,1,0,0:0:0:0:
182,192,41532,128,0,41709:0:0:0:0:
329,192,41709,128,0,42414:0:0:0:0:
256,192,41709,1,0,0:0:0:0:
182,192,42061,1,0,0:0:0:0:
36,192,42061,1,0,0:0:0:0:
109,192,42238,1,0,0:0:0:0:
182,192,42414,128,0,42591:0:0:0:0:
109,192,42591,128,0,42767:0:0:0:0:
329,192,42591,1,0,0:0:0:0:
402,192,42767,128,0,42944:0:0:0:0:
36,192,42767,1,0,0:0:0:0:
329,192,42944,128,0,43120:0:0:0:0:
256,192,42944,1,0,0:0:0:0:
109,192,43120,1,0,0:0:0:0:
182,192,43120,1,0,0:0:0:0:
402,192,43120,1,0,0:0:0:0:
256,192,43473,1,0,0:0:0:0:
182,192,43826,1,0,0:0:0:0:
329,192,43826,1,0,0:0:0:0:
402,192,44003,1,0,0:0:0:0:
329,192,44179,1,0,0:0:0:0:
256,192,44356,1,0,0:0:0:0:
109,192,44532,1,0,0:0:0:0:
182,192,44709,1,0,0:0:0:0:
329,192,44885,1,0,0:0:0:0:
402,192,44885,1,0,0:0:0:0:
475,192,44885,1,0,0:0:0:0:
256,192,45061,1,0,0:0:0:0:
182,192,45238,1,0,0:0:0:0:
109,192,45238,1,0,0:0:0:0:
36,192,45238,1,0,0:0:0:0:
329,192,45414,1,0,0:0:0:0:
402,192,45591,1,0,0:0:0:0:
329,192,45944,1,0,0:0:0:0:
182,192,45944,1,0,0:0:0:0:
109,192,46473,1,0,0:0:0:0:
402,192,46473,1,0,0:0:0:0:
475,192,47003,1,0,0:0:0:0:
36,192,47003,1,0,0:0:0:0:
329,192,47532,1,0,0:0:0:0:
402,192,47709,1,0,0:0:0:0:
329,192,47885,1,0,0:0:0:0:
109,192,48061,1,0,0:0:0:0:
182,192,48238,128,0,48767:0:0:0:0:
475,192,48767,1,0,0:0:0:0:
36,192,48767,1,0,0:0:0:0:
109,192,49297,1,0,0:0:0:0:
402,192,49297,1,0,0:0:0:0:
329,192,49826,1,0,0:0:0:0:
182,192,49826,1,0,0:0:0:0:
182,192,50356,1,0,0:0:0:0:
109,192,50532,1,0,0:0:0:0:
182,192,50709,1,0,0:0:0:0:
402,192,50885,1,0,0:0:0:0:
329,192,51061,128,0,51591:0:0:0:0:
36,192,51061,1,0,0:0:0:0:
109,192,51238,1,0,0:0:0:0:
182,192,51238,1,0,0:0:0:0:
475,192,51414,1,0,0:0:0:0:
402,192,51503,1,0,0:0:0:0:
36,192,51591,1,0,0:0:0:0:
182,192,51591,128,0,51944:0:0:0:0:
329,192,51944,128,0,52120:0:0:0:0:
109,192,51944,1,0,0:0:0:0:
402,192,52120,128,0,53003:0:0:0:0:
182,192,52120,1,0,0:0:0:0:
256,192,52473,1,0,0:0:0:0:
182,192,52650,1,0,0:0:0:0:
109,192,52650,1,0,0:0:0:0:
329,192,53003,128,0,53356:0:0:0:0:
109,192,53003,1,0,0:0:0:0:
36,192,53179,1,0,0:0:0:0:
109,192,53356,1,0,0:0:0:0:
402,192,53356,128,0,53532:0:0:0:0:
182,192,53532,1,0,0:0:0:0:
36,192,53532,128,0,54414:0:0:0:0:
256,192,53885,1,0,0:0:0:0:
182,192,54061,1,0,0:0:0:0:
329,192,54061,1,0,0:0:0:0:
402,192,54414,1,0,0:0:0:0:
256,192,54414,1,0,0:0:0:0:
109,192,54414,1,0,0:0:0:0:
182,192,54591,1,0,0:0:0:0:
329,192,54767,1,0,0:0:0:0:
109,192,54767,1,0,0:0:0:0:
402,192,54944,1,0,0:0:0:0:
329,192,55120,1,0,0:0:0:0:
182,192,55120,1,0,0:0:0:0:
256,192,55297,1,0,0:0:0:0:
109,192,55473,1,0,0:0:0:0:
329,192,55473,1,0,0:0:0:0:
182,192,55650,1,0,0:0:0:0:
402,192,55826,1,0,0:0:0:0:
256,192,55826,1,0,0:0:0:0:
329,192,56003,1,0,0:0:0:0:
256,192,56091,1,0,0:0:0:0:
182,192,56179,1,0,0:0:0:0:
329,192,56356,1,0,0:0:0:0:
256,192,56444,1,0,0:0:0:0:
182,192,56532,1,0,0:0:0:0:
36,192,56709,1,0,0:0:0:0:
109,192,56797,1,0,0:0:0:0:
182,192,56885,1,0,0:0:0:0:
256,192,56973,1,0,0:0:0:0:
329,192,57061,1,0,0:0:0:0:
109,192,57238,1,0,0:0:0:0:
402,192,57238,1,0,0:0:0:0:
182,192,57414,1,0,0:0:0:0:
329,192,57591,1,0,0:0:0:0:
402,192,57591,1,0,0:0:0:0:
329,192,57944,1,0,0:0:0:0:
329,192,58120,1,0,0:0:0:0:
182,192,58297,1,0,0:0:0:0:
109,192,58297,1,0,0:0:0:0:
402,192,58473,1,0,0:0:0:0:
475,192,58473,1,0,0:0:0:0:
329,192,58473,1,0,0:0:0:0:
109,192,58826,1,0,0:0:0:0:
182,192,58914,1,0,0:0:0:0:
256,192,59003,1,0,0:0:0:0:
329,192,59179,1,0,0:0:0:0:
329,192,59532,1,0,0:0:0:0:
182,192,59532,1,0,0:0:0:0:
182,192,59709,1,0,0:0:0:0:
329,192,59709,1,0,0:0:0:0:
256,192,60061,1,0,0:0:0:0:
36,192,60061,1,0,0:0:0:0:
475,192,60061,1,0,0:0:0:0:
329,192,60238,1,0,0:0:0:0:
182,192,60414,1,0,0:0:0:0:
109,192,60414,1,0,0:0:0:0:
256,192,60591,1,0,0:0:0:0:
402,192,60767,1,0,0:0:0:0:
329,192,60767,1,0,0:0:0:0:
109,192,60944,1,0,0:0:0:0:
182,192,61120,1,0,0:0:0:0:
256,192,61120,1,0,0:0:0:0:
329,192,61297,1,0,0:0:0:0:
256,192,61473,1,0,0:0:0:0:
182,192,61650,1,0,0:0:0:0:
109,192,61826,1,0,0:0:0:0:
256,192,61826,1,0,0:0:0:0:
182,192,62003,1,0,0:0:0:0:
329,192,62179,1,0,0:0:0:0:
402,192,62356,1,0,0:0:0:0:
329,192,62532,1,0,0:0:0:0:
182,192,62532,1,0,0:0:0:0:
109,192,62709,1,0,0:0:0:0:
36,192,62885,128,0,63591:0:0:0:0:
256,192,62885,1,0,0:0:0:0:
329,192,63061,1,0,0:0:0:0:
182,192,63238,1,0,0:0:0:0:
402,192,63238,1,0,0:0:0:0:
256,192,63414,1,0,0:0:0:0:
475,192,63591,128,0,64297:0:0:0:0:
329,192,63591,1,0,0:0:0:0:
256,192,63767,1,0,0:0:0:0:
182,192,63944,1,0,0:0:0:0:
109,192,63944,1,0,0:0:0:0:
256,192,64120,1,0,0:0:0:0:
402,192,64297,1,0,0:0:0:0:
109,192,64297,1,0,0:0:0:0:
182,192,64473,1,0,0:0:0:0:
329,192,64473,1,0,0:0:0:0:
256,192,64650,1,0,0:0:0:0:
329,192,64826,1,0,0:0:0:0:
182,192,64826,1,0,0:0:0:0:
109,192,65003,1,0,0:0:0:0:
402,192,65003,1,0,0:0:0:0:
182,192,65179,1,0,0:0:0:0:
329,192,65179,1,0,0:0:0:0:
256,192,65356,1,0,0:0:0:0:
109,192,65356,128,0,65709:0:0:0:0:
402,192,65356,128,0,65709:0:0:0:0:
36,192,65709,1,0,0:0:0:0:
475,192,65709,1,0,0:0:0:0:
256,192,65709,1,0,0:0:0:0:
182,192,65885,1,0,0:0:0:0:
36,192,66061,1,0,0:0:0:0:
109,192,66061,1,0,0:0:0:0:
182,192,66238,1,0,0:0:0:0:
256,192,66414,1,0,0:0:0:0:
329,192,66414,1,0,0:0:0:0:
402,192,66591,1,0,0:0:0:0:
329,192,66767,1,0,0:0:0:0:
475,192,66767,1,0,0:0:0:0:
256,192,66944,1,0,0:0:0:0:
36,192,66944,128,0,67297:0:0:0:0:
109,192,67120,1,0,0:0:0:0:
329,192,67297,128,0,67473:0:0:0:0:
182,192,67297,1,0,0:0:0:0:
256,192,67473,1,0,0:0:0:0:
402,192,67473,128,0,67650:0:0:0:0:
36,192,67473,1,0,0:0:0:0:
109,192,67650,1,0,0:0:0:0:
475,192,67650,128,0,68532:0:0:0:0:
329,192,67826,1,0,0:0:0:0:
182,192,68003,1,0,0:0:0:0:
109,192,68179,1,0,0:0:0:0:
256,192,68179,1,0,0:0:0:0:
402,192,68356,128,0,68532:0:0:0:0:
109,192,68532,1,0,0:0:0:0:
109,192,68709,1,0,0:0:0:0:
329,192,68885,1,0,0:0:0:0:
402,192,68885,1,0,0:0:0:0:
256,192,68973,1,0,0:0:0:0:
182,192,69061,1,0,0:0:0:0:
329,192,69238,1,0,0:0:0:0:
256,192,69414,1,0,0:0:0:0:
182,192,69591,1,0,0:0:0:0:
109,192,69591,1,0,0:0:0:0:
256,192,69679,1,0,0:0:0:0:
329,192,69767,1,0,0:0:0:0:
36,192,69944,1,0,0:0:0:0:
475,192,69944,1,0,0:0:0:0:
256,192,69944,1,0,0:0:0:0:
402,192,70120,1,0,0:0:0:0:
256,192,70209,1,0,0:0:0:0:
109,192,70297,1,0,0:0:0:0:
36,192,70473,1,0,0:0:0:0:
182,192,70561,1,0,0:0:0:0:
329,192,70650,1,0,0:0:0:0:
402,192,70738,1,0,0:0:0:0:
475,192,70826,1,0,0:0:0:0:
109,192,71003,1,0,0:0:0:0:
182,192,71003,1,0,0:0:0:0:
256,192,71356,1,0,0:0:0:0:
36,192,71356,1,0,0:0:0:0:
475,192,71356,1,0,0:0:0:0:
329,192,71532,1,0,0:0:0:0:
402,192,71709,1,0,0:0:0:0:
182,192,71709,1,0,0:0:0:0:
256,192,71885,1,0,0:0:0:0:
109,192,72061,1,0,0:0:0:0:
329,192,72061,1,0,0:0:0:0:
256,192,72238,1,0,0:0:0:0:
182,192,72414,1,0,0:0:0:0:
475,192,72414,1,0,0:0:0:0:
329,192,72591,1,0,0:0:0:0:
109,192,72767,1,0,0:0:0:0:
182,192,72944,1,0,0:0:0:0:
109,192,73120,1,0,0:0:0:0:
36,192,73120,1,0,0:0:0:0:
329,192,73297,1,0,0:0:0:0:
402,192,73473,1,0,0:0:0:0:
256,192,73650,1,0,0:0:0:0:
329,192,73826,1,0,0:0:0:0:
182,192,73826,1,0,0:0:0:0:
256,192,74003,1,0,0:0:0:0:
329,192,74179,128,0,74885:0:0:0:0:
475,192,74179,1,0,0:0:0:0:
182,192,74356,1,0,0:0:0:0:
109,192,74532,1,0,0:0:0:0:
36,192,74532,1,0,0:0:0:0:
182,192,74709,1,0,0:0:0:0:
36,192,74885,1,0,0:0:0:0:
109,192,74885,128,0,75591:0:0:0:0:
402,192,75061,1,0,0:0:0:0:
475,192,75238,1,0,0:0:0:0:
329,192,75238,1,0,0:0:0:0:
182,192,75414,1,0,0:0:0:0:
36,192,75591,1,0,0:0:0:0:
475,192,75591,1,0,0:0:0:0:
402,192,75767,1,0,0:0:0:0:
109,192,75767,1,0,0:0:0:0:
182,192,75944,1,0,0:0:0:0:
329,192,75944,1,0,0:0:0:0:
256,192,76120,1,0,0:0:0:0:
475,192,76297,1,0,0:0:0:0:
36,192,76297,1,0,0:0:0:0:
402,192,76473,1,0,0:0:0:0:
109,192,76473,1,0,0:0:0:0:
182,192,76650,128,0,77003:0:0:0:0:
329,192,76650,128,0,77003:0:0:0:0:
256,192,76650,1,0,0:0:0:0:
36,192,77003,1,0,0:0:0:0:
256,192,77003,1,0,0:0:0:0:
475,192,77003,1,0,0:0:0:0:
109,192,77179,1,0,0:0:0:0:
182,192,77356,1,0,0:0:0:0:
329,192,77356,1,0,0:0:0:0:
402,192,77532,1,0,0:0:0:0:
256,192,77709,1,0,0:0:0:0:
329,192,77709,1,0,0:0:0:0:
182,192,77885,1,0,0:0:0:0:
256,192,78061,1,0,0:0:0:0:
329,192,78061,1,0,0:0:0:0:
182,192,78238,1,0,0:0:0:0:
109,192,78414,1,0,0:0:0:0:
182,192,78591,1,0,0:0:0:0:
329,192,78767,1,0,0:0:0:0:
402,192,78767,1,0,0:0:0:0:
256,192,78944,1,0,0:0:0:0:
109,192,79120,1,0,0:0:0:0:
182,192,79297,1,0,0:0:0:0:
256,192,79473,1,0,0:0:0:0:
329,192,79473,1,0,0:0:0:0:
182,192,79650,1,0,0:0:0:0:
36,192,79826,1,0,0:0:0:0:
475,192,79826,1,0,0:0:0:0:
329,192,80003,1,0,0:0:0:0:
256,192,80179,1,0,0:0:0:0:
475,192,80179,1,0,0:0:0:0:
36,192,80179,1,0,0:0:0:0:
182,192,80356,1,0,0:0:0:0:
109,192,80532,1,0,0:0:0:0:
109,192,80709,1,0,0:0:0:0:
329,192,80885,1,0,0:0:0:0:
402,192,80885,1,0,0:0:0:0:
182,192,80885,1,0,0:0:0:0:
182,192,81238,1,0,0:0:0:0:
329,192,81326,1,0,0:0:0:0:
182,192,81414,1,0,0:0:0:0:
329,192,81591,1,0,0:0:0:0:
402,192,81591,1,0,0:0:0:0:
256,192,81767,1,0,0:0:0:0:
109,192,81944,1,0,0:0:0:0:
402,192,82032,1,0,0:0:0:0:
109,192,82120,1,0,0:0:0:0:
182,192,82297,1,0,0:0:0:0:
329,192,82473,1,0,0:0:0:0:
256,192,82650,128,0,83356:0:0:0:0:
109,192,83356,128,0,84591:0:0:0:0:
182,192,83885,1,0,0:0:0:0:
256,192,83885,1,0,0:0:0:0:
329,192,83885,1,0,0:0:0:0:
329,192,84238,1,0,0:0:0:0:
402,192,84238,1,0,0:0:0:0:
329,192,84414,1,0,0:0:0:0:
402,192,84414,1,0,0:0:0:0:
475,192,84591,128,0,85120:0:0:0:0:
256,192,84591,1,0,0:0:0:0:
36,192,84591,1,0,0:0:0:0:
329,192,85120,1,0,0:0:0:0:
256,192,85209,1,0,0:0:0:0:
182,192,85297,1,0,0:0:0:0:
36,192,85473,1,0,0:0:0:0:
256,192,85473,1,0,0:0:0:0:
475,192,85473,1,0,0:0:0:0:
182,192,85650,1,0,0:0:0:0:
109,192,85826,1,0,0:0:0:0:
329,192,85826,1,0,0:0:0:0:
402,192,86003,1,0,0:0:0:0:
256,192,86179,1,0,0:0:0:0:
475,192,86179,1,0,0:0:0:0:
329,192,86356,1,0,0:0:0:0:
182,192,86532,1,0,0:0:0:0:
36,192,86532,1,0,0:0:0:0:
256,192,86709,1,0,0:0:0:0:
109,192,86885,1,0,0:0:0:0:
182,192,86885,1,0,0:0:0:0:
402,192,86885,1,0,0:0:0:0:
329,192,86973,1,0,0:0:0:0:
256,192,87061,1,0,0:0:0:0:
182,192,87238,1,0,0:0:0:0:
329,192,87238,1,0,0:0:0:0:
36,192,87414,1,0,0:0:0:0:
109,192,87503,1,0,0:0:0:0:
182,192,87591,1,0,0:0:0:0:
256,192,87679,1,0,0:0:0:0:
329,192,87767,1,0,0:0:0:0:
402,192,87856,1,0,0:0:0:0:
475,192,87944,128,0,88297:0:0:0:0:
36,192,87944,128,0,88650:0:0:0:0:
