osu file format v12

[General]
AudioFilename: Baby Sweet Berry Love.mp3
AudioLeadIn: 1500
PreviewTime: 59436
Countdown: 0
SampleSet: Soft
StackLeniency: 0.7
Mode: 3
LetterboxInBreaks: 0
SpecialStyle: 0
WidescreenStoryboard: 0

[Editor]
DistanceSpacing: 1
BeatDivisor: 4
GridSize: 4

[Metadata]
Title:Baby Sweet Berry Love (TV Size)
TitleUnicode:Baby Sweet Berry Love (TV Size)
Artist:Ogura Yui
ArtistUnicode:小倉唯
Creator:Betsuto
Version:HD
Source:Hentai Ouji to Warawanai Neko
Tags:ending the "hentai" prince and the stony cat. j.c.staff yoto yokodera tsukiko tsutsukakushi azusa azuki tsukushi thoomyyxd
BeatmapID:260739
BeatmapSetID:97542

[Difficulty]
HPDrainRate:7
CircleSize:4
OverallDifficulty:7
ApproachRate:5
SliderMultiplier:1.4
SliderTickRate:1

[Events]
//Background and Video events
0,0,"BG.jpg",0,0
Video,0,"Baby Sweet Berry Love.avi"
//Break Periods
//Storyboard Layer 0 (Background)
//Storyboard Layer 1 (Fail)
//Storyboard Layer 2 (Pass)
//Storyboard Layer 3 (Foreground)
//Storyboard Sound Samples
//Background Colour Transformations
3,100,163,162,255

[TimingPoints]
760,352.941176470588,4,2,1,70,1,0
60054,-100,4,2,1,70,0,1
82642,-100,4,2,1,70,0,0

[HitObjects]
64,192,760,1,0,1:0:0:0:
64,192,936,1,0,1:0:0:0:
320,192,1465,1,0,0:0:0:0:
448,192,1995,1,2,0:0:0:0:
64,192,2171,1,0,1:0:0:0:
320,192,2348,1,2,0:0:0:0:
192,192,2524,1,2,0:0:0:0:
320,192,2701,1,2,0:0:0:0:
64,192,2877,1,0,1:0:0:0:
64,192,3142,1,0,1:0:0:0:
64,192,3407,1,0,1:0:0:0:
320,192,3583,1,0,1:0:0:0:
320,192,3759,1,0,1:0:0:0:
448,192,4289,1,0,0:0:0:0:
64,192,4995,1,0,1:0:0:0:
64,192,5701,1,0,1:0:0:0:
64,192,5965,1,0,1:0:0:0:
64,192,6230,1,0,1:0:0:0:
192,192,6407,1,0,1:0:0:0:
320,192,6407,1,4,0:0:0:0:
192,192,6583,1,0,1:0:0:0:
192,192,7112,1,0,1:0:0:0:
320,192,7112,1,4,0:0:0:0:
192,192,7642,1,2,0:0:0:0:
64,192,7818,1,0,1:0:0:0:
448,192,7818,1,4,0:0:0:0:
320,192,7995,1,2,0:0:0:0:
448,192,8171,1,2,0:0:0:0:
64,192,8171,1,0,1:0:0:0:
320,192,8348,1,2,0:0:0:0:
64,192,8524,1,0,1:0:0:0:
192,192,8524,1,4,0:0:0:0:
64,192,8877,1,0,1:0:0:0:
192,192,9230,1,0,1:0:0:0:
320,192,9407,1,8,0:0:0:0:
320,192,9583,1,8,0:0:0:0:
320,192,9759,1,8,0:0:0:0:
64,192,9936,1,0,1:0:0:0:
192,192,10024,1,8,0:0:0:0:
320,192,10112,1,0,0:0:0:0:
448,192,10289,1,8,0:0:0:0:
320,192,10377,1,0,0:0:0:0:
192,192,10465,1,8,0:3:0:0:
64,192,10642,1,0,1:0:0:0:
448,192,10642,1,4,0:0:0:0:
320,192,10818,1,8,0:0:0:0:
448,192,10995,1,8,0:0:0:0:
64,192,10995,1,0,0:0:0:0:
320,192,11171,1,0,0:0:0:0:
64,192,11348,1,0,1:0:0:0:
192,192,11436,1,0,0:0:0:0:
320,192,11524,1,8,0:0:0:0:
448,192,11701,1,8,0:0:0:0:
64,192,11701,1,0,0:0:0:0:
192,192,11877,1,0,0:0:0:0:
448,192,12054,1,2,0:0:0:0:
320,192,12054,1,0,1:0:0:0:
192,192,12230,1,2,0:0:0:0:
320,192,12407,1,2,0:0:0:0:
448,192,12407,1,8,0:0:0:0:
320,192,12759,1,2,0:0:0:0:
192,192,12759,1,0,1:0:0:0:
320,192,13024,1,2,0:0:0:0:
448,192,13112,1,8,0:0:0:0:
448,192,13465,1,2,0:0:0:0:
192,192,13465,1,0,1:0:0:0:
448,192,13642,1,2,0:0:0:0:
448,192,13818,1,2,0:0:0:0:
320,192,13818,1,8,0:0:0:0:
448,192,14171,1,2,0:0:0:0:
192,192,14171,1,0,1:0:0:0:
448,192,14436,1,2,0:0:0:0:
320,192,14524,1,8,0:0:0:0:
192,192,14877,1,2,0:0:0:0:
64,192,14877,1,0,1:0:0:0:
192,192,15054,1,2,0:0:0:0:
192,192,15230,1,2,0:0:0:0:
448,192,15230,1,8,0:0:0:0:
320,192,15583,1,2,0:0:0:0:
64,192,15583,1,0,1:0:0:0:
320,192,15759,1,2,0:0:0:0:
320,192,15936,1,2,0:0:0:0:
448,192,15936,1,8,0:0:0:0:
192,192,16289,1,2,0:0:0:0:
64,192,16289,1,0,1:0:0:0:
192,192,16465,1,2,0:0:0:0:
192,192,16642,1,2,0:0:0:0:
448,192,16642,1,8,0:0:0:0:
320,192,16995,1,2,0:0:0:0:
64,192,16995,1,0,1:0:0:0:
320,192,17259,1,2,0:0:0:0:
448,192,17348,1,8,0:0:0:0:
64,192,17348,1,0,0:0:0:0:
448,192,17701,1,0,0:0:0:0:
192,192,17701,1,4,0:0:0:0:
320,192,17877,1,0,0:0:0:0:
192,192,18054,1,0,0:0:0:0:
64,192,18230,128,4,18583:0:0:0:0:
192,192,18583,1,0,0:0:0:0:
320,192,18759,128,0,19112:0:0:0:0:
192,192,19112,1,4,0:0:0:0:
64,192,19289,1,0,0:0:0:0:
320,192,19465,1,0,0:0:0:0:
448,192,19642,128,4,20348:0:0:0:0:
320,192,20348,1,4,0:0:0:0:
192,192,20701,1,0,0:0:0:0:
448,192,20877,1,0,0:0:0:0:
192,192,21054,1,0,0:0:0:0:
448,192,21230,1,4,0:0:0:0:
320,192,21407,1,0,0:0:0:0:
192,192,21583,1,0,0:0:0:0:
64,192,21936,128,4,23348:0:0:0:0:
192,192,23348,1,0,0:0:0:0:
320,192,23348,1,0,1:0:0:0:
320,192,23877,1,0,1:0:0:0:
448,192,24054,1,0,0:0:0:0:
448,192,24407,1,8,0:1:0:0:
64,192,24759,1,0,1:0:0:0:
320,192,24759,1,0,0:0:0:0:
64,192,25024,1,0,1:0:0:0:
64,192,25289,1,0,1:0:0:0:
320,192,25465,1,0,0:0:0:0:
192,192,25642,1,0,0:0:0:0:
64,192,25818,1,0,0:0:0:0:
448,192,25818,1,8,0:1:0:0:
192,192,25995,1,0,1:0:0:0:
320,192,26083,1,0,1:0:0:0:
192,192,26171,1,0,1:0:0:0:
192,192,26701,1,0,1:0:0:0:
448,192,26877,1,0,0:0:0:0:
320,192,27230,1,8,0:1:0:0:
64,192,27407,1,0,1:0:0:0:
64,192,27583,1,0,1:0:0:0:
64,192,27848,1,0,1:0:0:0:
64,192,28112,1,0,1:0:0:0:
448,192,28289,1,0,0:0:0:0:
320,192,28642,1,8,0:1:0:0:
192,192,28995,1,0,1:0:0:0:
192,192,29524,1,0,1:0:0:0:
320,192,29701,1,0,0:0:0:0:
192,192,29877,1,0,1:0:0:0:
320,192,29877,1,0,0:0:0:0:
448,192,30054,1,0,0:0:0:0:
64,192,30054,1,8,0:1:0:0:
320,192,30230,1,0,0:0:0:0:
64,192,30407,1,0,1:0:0:0:
64,192,30936,1,0,1:0:0:0:
192,192,31112,1,0,0:0:0:0:
64,192,31289,1,0,1:0:0:0:
192,192,31289,1,0,0:0:0:0:
320,192,31465,1,0,0:0:0:0:
448,192,31465,1,8,0:1:0:0:
192,192,31642,1,0,0:0:0:0:
192,192,31818,1,0,1:0:0:0:
64,192,31818,1,0,0:0:0:0:
192,192,32524,1,0,1:0:0:0:
192,192,32701,1,0,1:0:0:0:
320,192,32877,1,8,1:0:0:0:
320,192,33230,128,0,34642:0:0:0:0:
64,192,33230,1,0,1:0:0:0:
448,192,33407,1,0,0:0:0:0:
192,192,33583,1,0,1:0:0:0:
448,192,33759,1,0,0:0:0:0:
64,192,33936,1,0,1:0:0:0:
448,192,34112,1,0,0:0:0:0:
192,192,34289,1,0,1:0:0:0:
448,192,34465,1,0,0:0:0:0:
64,192,34642,1,0,1:0:0:0:
448,192,34995,1,8,0:0:0:0:
192,192,34995,1,0,0:0:0:0:
64,192,35348,1,0,1:0:0:0:
64,192,35524,1,0,1:0:0:0:
448,192,35701,1,8,0:0:0:0:
192,192,35701,1,0,0:0:0:0:
64,192,36054,1,0,1:0:0:0:
192,192,36407,1,8,0:0:0:0:
448,192,36407,1,0,0:0:0:0:
64,192,36583,1,0,1:0:0:0:
64,192,36936,1,0,1:0:0:0:
192,192,37112,1,8,0:0:0:0:
448,192,37112,1,0,0:0:0:0:
320,192,37465,1,0,1:0:0:0:
64,192,37818,1,8,0:0:0:0:
192,192,37818,1,0,0:0:0:0:
320,192,38171,1,0,1:0:0:0:
320,192,38348,1,0,1:0:0:0:
64,192,38524,1,8,0:0:0:0:
192,192,38524,1,0,0:0:0:0:
192,192,38877,1,0,1:0:0:0:
448,192,39230,1,8,0:0:0:0:
320,192,39230,1,0,0:0:0:0:
192,192,39407,1,0,1:0:0:0:
192,192,39759,1,0,1:0:0:0:
448,192,39936,1,8,0:0:0:0:
320,192,39936,1,0,0:0:0:0:
64,192,40289,1,0,1:0:0:0:
448,192,40642,1,8,0:0:0:0:
192,192,40642,1,0,0:0:0:0:
64,192,40818,1,0,1:0:0:0:
320,192,40995,1,0,0:0:0:0:
320,192,41171,1,0,0:0:0:0:
192,192,41171,1,0,1:0:0:0:
448,192,41348,1,0,0:0:0:0:
64,192,41348,1,8,0:0:0:0:
320,192,41524,1,0,0:0:0:0:
192,192,41701,1,0,1:0:0:0:
320,192,42054,1,8,0:0:0:0:
192,192,42230,1,0,1:0:0:0:
64,192,42407,1,0,0:0:0:0:
192,192,42583,1,0,1:0:0:0:
64,192,42583,1,0,0:0:0:0:
320,192,42759,1,8,0:0:0:0:
448,192,42759,1,0,0:0:0:0:
64,192,42936,1,0,0:0:0:0:
192,192,43112,1,0,1:0:0:0:
320,192,43465,1,8,0:0:0:0:
192,192,43818,1,0,1:0:0:0:
320,192,44171,1,8,0:0:0:0:
64,192,44524,1,0,1:0:0:0:
64,192,44701,1,0,1:0:0:0:
320,192,44877,1,8,0:0:0:0:
64,192,45230,1,0,1:0:0:0:
64,192,45407,1,0,1:0:0:0:
64,192,45583,1,0,1:0:0:0:
192,192,45936,1,0,1:0:0:0:
448,192,45936,1,4,0:0:0:0:
320,192,46289,1,0,0:0:0:0:
192,192,46465,1,0,1:0:0:0:
64,192,46465,1,0,0:0:0:0:
320,192,46818,1,0,0:0:0:0:
192,192,46995,1,0,1:0:0:0:
64,192,46995,1,0,0:0:0:0:
64,192,47348,1,0,1:0:0:0:
192,192,47524,1,2,0:0:0:0:
64,192,47524,1,0,1:0:0:0:
192,192,47701,1,2,0:0:0:0:
192,192,47877,1,2,0:0:0:0:
320,192,48054,1,2,0:0:0:0:
448,192,48230,1,2,0:0:0:0:
192,192,48407,1,8,0:0:0:0:
192,192,48583,1,8,0:0:0:0:
64,192,48671,1,8,0:0:0:0:
320,192,48759,1,0,1:0:0:0:
192,192,49112,1,0,0:0:0:0:
320,192,49289,1,0,1:0:0:0:
448,192,49289,1,0,0:0:0:0:
192,192,49642,1,0,0:0:0:0:
320,192,49818,1,0,1:0:0:0:
448,192,49818,1,0,0:0:0:0:
64,192,50171,1,0,1:0:0:0:
64,192,50348,1,0,1:0:0:0:
448,192,50348,1,2,0:0:0:0:
320,192,50524,1,2,0:0:0:0:
192,192,50701,1,2,0:0:0:0:
320,192,50877,1,2,0:0:0:0:
64,192,51054,1,0,1:0:0:0:
448,192,51054,1,2,0:0:0:0:
192,192,51230,1,8,0:0:0:0:
64,192,51407,1,8,0:0:0:0:
192,192,51495,1,8,0:3:0:0:
320,192,51583,1,0,1:0:0:0:
448,192,51936,1,8,0:0:0:0:
320,192,52112,1,0,1:0:0:0:
320,192,52465,1,0,1:0:0:0:
448,192,52642,1,8,0:0:0:0:
448,192,52818,1,8,0:0:0:0:
64,192,52995,1,0,1:0:0:0:
64,192,53171,1,0,1:0:0:0:
320,192,53348,1,8,0:0:0:0:
64,192,53524,1,0,1:0:0:0:
64,192,53877,1,0,1:0:0:0:
320,192,54054,1,8,0:0:0:0:
448,192,54407,1,8,0:0:0:0:
64,192,54583,1,0,1:0:0:0:
320,192,54759,1,8,0:0:0:0:
192,192,54936,1,0,1:0:0:0:
448,192,55112,1,8,0:0:0:0:
64,192,55289,1,0,1:0:0:0:
320,192,55465,1,8,0:0:0:0:
192,192,55642,1,0,1:0:0:0:
64,192,55818,1,8,0:0:0:0:
192,192,55995,1,0,1:0:0:0:
320,192,56083,1,0,1:0:0:0:
192,192,56171,1,0,1:0:0:0:
448,192,56348,1,0,1:0:0:0:
64,192,56524,1,8,0:0:0:0:
448,192,56701,1,0,1:0:0:0:
448,192,56877,1,0,1:0:0:0:
192,192,57230,1,0,1:0:0:0:
192,192,57407,1,0,1:0:0:0:
448,192,57583,1,8,0:0:0:0:
64,192,57936,1,0,1:0:0:0:
64,192,58112,1,0,1:0:0:0:
320,192,58289,1,8,0:0:0:0:
64,192,58465,1,0,1:0:0:0:
448,192,58465,1,4,0:0:0:0:
320,192,58818,1,8,0:3:0:0:
192,192,58907,1,0,1:0:0:0:
320,192,58995,1,0,1:0:0:0:
64,192,59171,1,0,1:0:0:0:
192,192,59524,1,0,1:0:0:0:
320,192,59701,1,8,0:0:0:0:
64,192,60054,1,0,1:0:0:0:
192,192,60230,1,0,0:0:0:0:
320,192,60407,1,8,0:0:0:0:
64,192,60759,1,0,1:0:0:0:
192,192,60936,1,0,0:0:0:0:
320,192,61112,1,8,0:0:0:0:
448,192,61289,1,2,0:0:0:0:
64,192,61465,1,0,1:0:0:0:
320,192,61642,1,2,0:0:0:0:
192,192,61818,1,2,0:0:0:0:
448,192,61818,1,8,0:0:0:0:
320,192,61995,1,2,0:0:0:0:
64,192,62171,1,0,1:0:0:0:
320,192,62348,1,0,0:0:0:0:
448,192,62524,1,8,0:0:0:0:
192,192,62877,1,0,1:0:0:0:
448,192,63054,1,0,0:0:0:0:
320,192,63230,1,8,0:0:0:0:
192,192,63583,1,0,1:0:0:0:
448,192,63759,1,0,0:0:0:0:
320,192,63936,1,8,0:0:0:0:
64,192,64289,1,0,1:0:0:0:
448,192,64465,1,0,0:0:0:0:
192,192,64642,1,8,0:0:0:0:
320,192,64818,1,0,0:0:0:0:
64,192,64995,1,0,0:0:0:0:
192,192,65171,1,8,0:0:0:0:
192,192,65348,1,8,0:0:0:0:
320,192,65701,1,0,1:0:0:0:
448,192,65701,1,4,0:0:0:0:
192,192,65877,1,0,0:0:0:0:
64,192,66054,1,8,0:0:0:0:
320,192,66407,1,0,1:0:0:0:
192,192,66583,1,0,0:0:0:0:
64,192,66759,1,8,0:0:0:0:
192,192,66936,1,2,0:0:0:0:
448,192,67112,1,0,1:0:0:0:
320,192,67289,1,2,0:0:0:0:
448,192,67465,1,2,0:0:0:0:
64,192,67465,1,8,0:0:0:0:
320,192,67642,1,2,0:0:0:0:
448,192,67818,1,0,1:0:0:0:
320,192,67995,1,0,0:0:0:0:
64,192,68171,1,8,0:0:0:0:
320,192,68524,1,0,1:0:0:0:
448,192,68701,1,8,0:0:0:0:
448,192,68877,1,8,0:0:0:0:
448,192,69054,1,8,0:0:0:0:
192,192,69230,1,0,1:0:0:0:
448,192,69583,1,8,0:0:0:0:
320,192,69759,1,8,0:3:0:0:
192,192,69936,1,0,1:0:0:0:
192,192,70112,1,0,1:0:0:0:
192,192,70289,1,0,1:0:0:0:
64,192,70465,1,0,0:0:0:0:
448,192,70554,1,0,0:0:0:0:
192,192,70642,1,0,1:0:0:0:
320,192,70730,1,8,0:0:0:0:
192,192,70818,1,0,1:0:0:0:
320,192,70995,1,8,0:0:0:0:
64,192,71348,1,0,1:0:0:0:
192,192,71348,1,4,0:0:0:0:
320,192,71524,1,0,0:0:0:0:
448,192,71701,1,8,0:0:0:0:
64,192,72054,1,0,1:0:0:0:
320,192,72230,1,0,0:0:0:0:
448,192,72407,1,8,0:0:0:0:
320,192,72583,1,2,0:0:0:0:
448,192,72759,1,0,1:0:0:0:
192,192,72936,1,2,0:0:0:0:
64,192,73112,1,2,0:0:0:0:
320,192,73112,1,8,0:0:0:0:
192,192,73289,1,2,0:0:0:0:
448,192,73465,1,0,1:0:0:0:
64,192,73642,1,0,0:0:0:0:
320,192,73818,1,8,0:0:0:0:
448,192,73818,1,0,0:0:0:0:
64,192,74171,1,0,1:0:0:0:
192,192,74348,1,0,0:0:0:0:
320,192,74524,1,8,0:0:0:0:
448,192,74524,1,0,0:0:0:0:
64,192,74877,1,0,1:0:0:0:
192,192,75054,1,0,0:0:0:0:
320,192,75230,1,8,0:0:0:0:
448,192,75583,1,0,0:0:0:0:
64,192,75583,1,0,1:0:0:0:
320,192,75759,1,0,0:0:0:0:
192,192,75936,1,0,0:0:0:0:
448,192,75936,1,8,0:0:0:0:
320,192,76112,1,0,0:0:0:0:
64,192,76289,1,0,1:0:0:0:
192,192,76465,1,8,0:0:0:0:
192,192,76642,1,8,0:0:0:0:
64,192,76995,1,0,1:0:0:0:
448,192,76995,1,4,0:0:0:0:
192,192,77171,1,0,0:0:0:0:
320,192,77348,1,8,0:0:0:0:
448,192,77348,1,0,0:0:0:0:
64,192,77701,1,0,1:0:0:0:
192,192,77877,1,0,0:0:0:0:
320,192,78054,1,8,0:0:0:0:
448,192,78054,1,0,0:0:0:0:
192,192,78230,1,2,0:0:0:0:
64,192,78407,1,0,1:0:0:0:
320,192,78583,1,2,0:0:0:0:
448,192,78759,1,2,0:0:0:0:
192,192,78759,1,8,0:0:0:0:
320,192,78936,1,2,0:0:0:0:
64,192,79112,1,0,1:0:0:0:
448,192,79289,1,0,0:0:0:0:
192,192,79465,1,8,0:0:0:0:
320,192,79465,1,0,0:0:0:0:
192,192,79818,1,0,1:0:0:0:
64,192,79995,1,0,0:0:0:0:
320,192,80171,1,8,0:0:0:0:
448,192,80171,1,0,0:0:0:0:
192,192,80524,1,0,1:0:0:0:
192,192,80701,1,0,1:0:0:0:
320,192,80877,1,8,0:0:0:0:
448,192,80877,1,0,0:0:0:0:
64,192,81230,1,0,1:0:0:0:
192,192,81318,1,8,0:0:0:0:
320,192,81407,1,8,0:0:0:0:
320,192,81583,1,8,0:0:0:0:
448,192,81936,1,0,1:0:0:0:
320,192,82024,1,8,0:0:0:0:
192,192,82112,1,0,1:0:0:0:
448,192,82289,1,8,0:0:0:0:
320,192,82465,1,8,0:3:0:0:
448,192,82642,128,0,83348:0:0:0:0:
192,192,82642,1,2,0:0:0:0:
64,192,82995,1,2,0:0:0:0:
192,192,83348,1,2,0:0:0:0:
64,192,83701,1,2,0:0:0:0:
320,192,83877,128,0,84583:0:0:0:0:
64,192,83877,1,2,0:0:0:0:
64,192,84230,1,2,0:0:0:0:
448,192,84407,1,2,0:0:0:0:
192,192,84583,1,2,0:0:0:0:
192,192,84936,1,0,1:0:0:0:
320,192,85112,1,8,0:0:0:0:
448,192,85201,1,8,0:0:0:0:
192,192,85289,1,0,1:0:0:0:
64,192,85465,1,8,0:0:0:0:
320,192,85642,1,0,1:0:0:0:
64,192,85818,1,8,0:0:0:0:
320,192,85995,1,0,1:0:0:0:
192,192,86171,1,8,0:0:0:0:
448,192,86348,1,0,1:0:0:0:
192,192,86524,1,8,0:0:0:0:
448,192,86701,1,0,1:0:0:0:
64,192,86877,1,8,0:0:0:0:
64,192,87054,1,8,0:0:0:0:
64,192,87230,1,8,0:0:0:0:
320,192,87407,1,0,1:0:0:0:
64,192,87583,1,8,0:0:0:0:
64,192,87759,1,8,0:0:0:0:
192,192,87848,1,2,0:0:0:0:
64,192,87936,1,8,0:0:0:0:
448,192,87936,1,4,0:0:0:0:
