osu file format v12

[General]
AudioFilename: Baby Sweet Berry Love.mp3
AudioLeadIn: 1500
PreviewTime: 59840
Countdown: 0
SampleSet: Soft
StackLeniency: 0.7
Mode: 0
LetterboxInBreaks: 0

[Editor]
DistanceSpacing: 1
BeatDivisor: 4
GridSize: 8

[Metadata]
Title:Baby Sweet Berry Love (TV Size)
TitleUnicode:Baby Sweet Berry Love (TV Size)
Artist:Ogura Yui
ArtistUnicode:小倉唯
Creator:Banana
Version:Hard
Source:Hentai Ouji to Warawanai Neko
Tags:変態王子と笑わない猫。 変猫。 へんねこ とわない ending Henneko Towanai The "HENTAI" prince and the stony cat.
BeatmapID:243494
BeatmapSetID:89596

[Difficulty]
HPDrainRate:5
CircleSize:4
OverallDifficulty:6
ApproachRate:8
SliderMultiplier:1.68
SliderTickRate:1

[Events]
//Background and Video events
0,0,"bg.jpg",0,0
Video,644,"henneko.avi"
//Break Periods
//Storyboard Layer 0 (Background)
//Storyboard Layer 1 (Fail)
//Storyboard Layer 2 (Pass)
//Storyboard Layer 3 (Foreground)
//Storyboard Sound Samples
//Background Colour Transformations
3,100,163,162,255

[TimingPoints]
1252,352.941176470588,4,2,1,67,1,0
17840,-125,4,2,1,67,0,0
18193,-125,4,2,1,50,0,0
18369,-125,4,2,1,67,0,0
23840,-156.25,4,2,1,60,0,0
35134,-125,4,2,1,60,0,0
45369,-125,4,2,1,50,0,0
45546,-125,4,2,1,60,0,0
45722,-125,4,2,1,50,0,0
45899,-125,4,2,1,60,0,0
46428,-156.25,4,2,1,50,0,0
47840,-156.25,4,2,1,60,0,0
49251,-156.25,4,2,1,50,0,0
50663,-156.25,4,2,1,60,0,0
52075,-125,4,2,1,60,0,0
56310,-125,4,2,1,50,0,0
56487,-125,4,2,1,60,0,0
60546,-100,4,2,1,67,0,1
83134,-100,4,2,1,67,0,0
84369,-100,4,2,1,50,0,1
84546,-100,4,2,1,50,0,0
85428,-100,4,2,1,67,0,0
85957,-100,4,2,1,50,0,0
86134,-100,4,2,1,40,0,0
86310,-100,4,2,1,67,0,0
87369,-100,4,2,1,50,0,0
87546,-100,4,2,1,67,0,0
88428,-100,4,2,1,50,0,0

[Colours]
Combo1 : 187,159,251
Combo2 : 255,255,181
Combo3 : 119,255,170
Combo4 : 255,164,164

[HitObjects]
159,134,722,2,0,P|124:198|91:213,2,84
227,84,1252,1,8,0:0:0:0:
394,74,1604,1,2,0:0:0:0:
470,223,1957,1,0,0:0:0:0:
348,339,2310,1,2,0:0:0:0:
286,280,2487,2,0,P|220:324|131:327,1,168
112,245,3016,1,2,0:0:0:0:
41,198,3193,1,0,0:0:0:0:
319,47,3899,5,8,0:0:0:0:
235,55,4075,2,0,P|184:71|135:68,1,84,8|0,0:0|0:0,0:0:0:0:
284,123,4428,2,0,P|330:128|374:118,1,84,2|0,0:0|0:0,0:0:0:0:
447,95,4781,2,0,L|443:278,1,168,0|2,0:0|0:0,0:0:0:0:
433,346,5310,2,0,P|484:335|525:283,2,84,0|8|0,0:0|0:0|0:0,0:0:0:0:
349,332,5840,6,0,P|305:335|257:326,1,84,2|0,0:0|0:0,0:0:0:0:
306,255,6193,2,0,P|358:248|395:228,1,84,8|0,0:0|0:0,0:0:0:0:
330,170,6546,2,0,P|272:177|225:168,1,84,2|8,0:0|0:0,0:0:0:0:
151,226,6899,6,0,P|129:310|64:353,2,168,4|0|10,0:0|0:0|0:0,0:0:0:0:
60,84,7957,1,0,0:0:0:0:
60,84,8134,2,0,P|112:84|159:98,1,84,0|10,0:0|0:0,0:0:0:0:
220,57,8487,2,0,P|248:84|294:103,2,84,0|10|0,0:0|0:0|0:0,0:0:0:0:
220,57,9016,1,10,0:0:0:0:
455,178,9546,5,0,0:0:0:0:
455,178,9634,1,0,0:0:0:0:
455,178,9722,2,0,P|434:245|404:279,1,84,10|0,0:0|0:0,0:0:0:0:
342,257,10075,1,10,0:0:0:0:
263,315,10251,1,0,0:0:0:0:
176,278,10428,1,8,0:0:0:0:
234,69,10781,2,0,L|246:161,1,84,2|0,0:0|0:0,0:0:0:0:
256,192,11134,12,0,12193,0:0:0:0:
421,116,12546,5,10,0:0:0:0:
474,190,12722,1,2,0:0:0:0:
400,246,12899,1,10,0:0:0:0:
347,172,13075,1,2,0:0:0:0:
269,121,13251,6,0,L|213:134,1,42,8|0,0:0|0:0,0:0:0:0:
247,221,13516,2,0,L|210:255,1,42,0|8,0:0|0:0,0:0:0:0:
402,272,13957,5,10,0:0:0:0:
494,270,14134,1,2,0:0:0:0:
494,362,14310,1,10,0:0:0:0:
402,364,14487,1,2,0:0:0:0:
323,315,14663,6,0,L|270:312,1,42,8|0,0:0|0:0,0:0:0:0:
195,347,14928,2,0,L|125:357,1,42,0|8,0:0|0:0,0:0:0:0:
60,193,15369,5,10,0:0:0:0:
42,284,15546,1,2,0:0:0:0:
129,256,15722,1,10,0:0:0:0:
182,79,16075,1,10,0:0:0:0:
168,170,16251,1,2,0:0:0:0:
255,138,16428,1,10,0:0:0:0:
438,113,16781,6,0,L|354:70,1,84,10|2,0:0|0:0,0:0:0:0:
417,205,17134,2,0,L|333:162,1,84,10|2,0:0|0:0,0:0:0:0:
306,252,17487,6,0,L|249:255,1,42,8|0,0:0|0:0,0:0:0:0:
248,350,17751,2,0,L|292:345,1,42,0|8,0:0|0:0,0:0:0:0:
466,270,18193,6,0,P|470:320|495:361,2,67.2,4|0|8,0:0|0:0|0:0,0:0:0:0:
417,205,18722,2,0,P|436:140|418:67,1,134.4,10|8,0:0|0:0,0:0:0:0:
341,74,19251,1,0,0:0:0:0:
180,56,19604,2,0,P|163:92|129:115,1,67.2,2|0,0:0|0:0,0:0:0:0:
61,117,19957,1,0,0:0:0:0:
61,117,20134,1,2,0:0:0:0:
192,210,20487,6,0,P|172:240|139:262,1,67.2,8|8,0:0|0:0,0:0:0:0:
118,182,20840,1,10,0:0:0:0:
173,333,21193,2,0,P|128:334|106:327,1,67.2
249,278,21546,1,0,0:0:0:0:
328,269,21722,1,10,0:0:0:0:
389,321,21899,1,0,0:0:0:0:
457,278,22075,1,8,0:0:0:0:
442,198,22251,1,8,0:0:0:0:
361,194,22428,1,2,0:0:0:0:
256,192,22604,12,2,23840,0:0:0:0:
281,126,24193,6,0,P|354:128|400:106,1,107.52
465,120,24722,2,0,P|453:165|392:197,1,107.52
349,255,25251,2,0,P|393:275|438:266,2,80.64,8|8|8,0:0|0:0|0:0,0:0:0:0:
268,246,25957,1,0,0:0:0:0:
224,314,26134,1,0,0:0:0:0:
144,324,26310,1,8,0:3:0:0:
83,270,26487,1,0,0:0:0:0:
89,189,26663,6,0,P|139:131|188:117,1,107.52
148,40,27193,2,0,P|208:48|247:98,1,107.52,8|0,0:0|0:0,0:0:0:0:
316,54,27722,2,0,L|386:75,1,53.76,8|8,0:3|0:0,0:0:0:0:
394,145,28075,2,0,P|438:113|444:70,2,80.64,8|8|8,0:0|0:0|0:0,0:0:0:0:
352,214,28781,2,0,L|385:277,1,53.76,0|0,0:0|0:0,0:0:0:0:
351,338,29134,1,8,0:3:0:0:
174,338,29487,6,0,P|139:322|70:318,1,107.52,8|0,0:0|0:0,0:0:0:0:
43,242,30016,1,8,0:0:0:0:
12,167,30193,1,0,0:0:0:0:
73,115,30369,1,8,0:0:0:0:
142,155,30546,1,8,0:3:0:0:
125,233,30722,1,0,0:0:0:0:
125,233,30899,6,0,P|179:245|241:228,1,107.52,8|0,0:0|0:0,0:0:0:0:
299,274,31428,1,8,0:0:0:0:
370,310,31604,1,0,0:0:0:0:
431,257,31781,1,8,0:0:0:0:
395,184,31957,1,8,0:3:0:0:
314,194,32134,1,0,0:0:0:0:
233,187,32310,6,0,P|254:135|312:112,1,107.52,8|0,0:0|0:0,0:0:0:0:
436,111,33016,2,0,P|385:80|367:28,1,107.52,8|8,0:0|0:3,0:0:0:0:
206,55,33722,2,0,L|186:117,3,53.76,10|2|10|2,0:0|0:0|0:0|0:0,0:0:0:0:
108,101,34428,2,0,L|69:148,3,53.76,10|2|10|2,0:0|0:0|0:0|0:0,0:0:0:0:
20,202,35134,6,0,P|38:253|15:332,1,134.4,4|10,0:0|0:0,0:0:0:0:
178,347,35840,2,0,P|209:299|209:270,1,67.2,8|8,0:0|0:0,0:0:0:0:
287,312,36193,2,0,P|288:266|274:232,1,67.2,10|0,0:0|0:0,0:0:0:0:
352,207,36546,2,0,P|408:271|458:290,1,134.4,8|10,0:0|0:0,0:0:0:0:
496,133,37251,2,0,P|440:69|390:50,1,134.4,8|10,0:0|0:0,0:0:0:0:
233,54,37957,6,0,P|216:111|145:155,1,134.4,8|10,0:0|0:0,0:0:0:0:
47,272,38663,1,8,0:0:0:0:
89,203,38840,1,8,0:0:0:0:
163,232,39016,2,0,P|182:268|176:322,1,67.2,10|0,0:0|0:0,0:0:0:0:
237,354,39369,2,0,L|370:332,1,134.4,8|10,0:0|0:0,0:0:0:0:
457,225,39899,1,8,0:0:0:0:
457,225,40075,2,0,L|324:247,1,134.4,0|10,0:0|0:0,0:0:0:0:
206,136,40781,6,0,P|164:161|138:188,2,67.2,8|0|10,0:0|0:0|0:0,0:0:0:0:
262,78,41310,1,8,0:0:0:0:
186,50,41487,2,0,P|121:82|44:82,1,134.4,0|10,0:0|0:0,0:0:0:0:
11,149,42016,1,0,0:0:0:0:
88,170,42193,6,0,P|134:184|164:211,2,67.2,8|0|10,0:0|0:0|0:0,0:0:0:0:
30,226,42722,1,8,0:0:0:0:
5,303,42899,2,0,P|64:341|143:351,1,134.4,0|10,0:0|0:0,0:0:0:0:
287,337,43604,5,12,0:0:0:0:
432,313,43957,1,10,0:0:0:0:
295,260,44310,1,8,0:0:0:0:
432,205,44663,1,10,0:0:0:0:
481,65,45016,2,0,P|453:101|418:118,1,67.2,12|0,0:0|0:0,0:0:0:0:
354,101,45369,2,0,P|320:113|282:108,1,67.2,12|0,0:0|0:0,0:0:0:0:
218,71,45722,2,0,P|162:58|142:42,1,67.2,12|0,0:0|0:0,0:0:0:0:
74,59,46075,1,8,0:0:0:0:
74,59,46428,6,0,P|44:161|59:236,2,161.28,12|12|12,0:0|0:0|0:0,0:0:0:0:
218,131,47840,1,8,0:0:0:0:
218,131,48016,2,0,P|189:163|166:172,1,53.76,10|8,0:0|0:0,0:0:0:0:
212,241,48369,2,0,P|159:246|106:211,1,107.52,2|0,0:0|0:0,0:0:0:0:
46,265,48899,6,0,L|6:280,4,26.88,8|8|8|8|12,0:0|0:0|0:0|0:0|0:0,0:0:0:0:
273,348,49781,1,12,0:0:0:0:
491,245,50310,1,12,0:0:0:0:
454,87,50663,5,8,0:0:0:0:
454,87,50840,2,0,P|441:137|379:170,1,107.52,10|0,0:0|0:0,0:0:0:0:
371,90,51369,2,0,L|294:98,1,53.76,2|8,0:0|0:0,0:0:0:0:
246,56,51722,5,8,0:0:0:0:
233,69,51810,1,8,0:0:0:0:
218,80,51898,1,8,0:0:0:0:
201,88,51986,1,8,0:0:0:0:
182,92,52075,2,0,P|118:102|55:75,1,134.4,4|10,0:0|0:0,0:0:0:0:
11,143,52604,2,0,P|38:178|28:275,1,134.4,8|8,0:0|0:0,0:0:0:0:
35,345,53134,2,0,P|93:326|110:302,1,67.2,10|0,0:0|0:0,0:0:0:0:
158,271,53487,5,12,0:0:0:0:
199,339,53663,1,8,0:0:0:0:
241,270,53840,1,10,0:0:0:0:
292,208,54016,2,0,P|324:253|321:282,1,67.2,8|0,0:0|0:0,0:0:0:0:
397,297,54369,2,0,P|366:332|328:342,1,67.2,8|2,0:0|0:0,0:0:0:0:
495,229,54899,6,0,L|505:139,1,67.2,12|0,0:0|0:0,0:0:0:0:
418,143,55251,2,0,L|414:60,1,67.2,10|0,0:0|0:0,0:0:0:0:
334,40,55604,2,0,L|253:63,1,67.2,10|0,0:0|0:0,0:0:0:0:
221,131,55957,2,0,L|143:133,1,67.2,10|0,0:0|0:0,0:0:0:0:
101,62,56310,5,12,0:0:0:0:
40,125,56487,2,0,L|8:137,2,33.6,8|8|8,0:0|0:0|0:0,0:0:0:0:
68,207,56840,2,0,L|35:213,2,33.6,8|8|8,0:0|0:0|0:0,0:0:0:0:
78,294,57193,2,0,L|31:293,2,33.6,8|8|8,0:0|0:0|0:0,0:0:0:0:
216,330,57722,5,10,0:0:0:0:
216,330,57899,1,10,0:0:0:0:
216,330,58075,1,10,0:0:0:0:
314,227,58428,1,10,0:0:0:0:
314,227,58605,1,10,0:0:0:0:
314,227,58781,1,10,0:0:0:0:
387,260,58957,1,12,0:0:0:0:
449,77,60016,6,0,L|463:147,2,67.2,8|8|0,0:0|0:0|0:0,0:0:0:0:
370,44,60546,2,0,P|314:86|211:85,1,168,12|10,0:0|0:0,0:0:0:0:
75,147,61251,2,0,P|183:129|218:88,1,168,8|10,0:0|0:0,0:0:0:0:
288,136,61781,1,0,0:0:0:0:
267,302,62134,1,0,0:0:0:0:
183,298,62310,1,10,0:0:0:0:
111,342,62487,2,0,P|99:292|114:252,1,84,0|8,0:0|0:0,0:0:0:0:
178,216,62840,2,0,P|236:233|257:266,1,84,0|10,0:0|0:0,0:0:0:0:
326,284,63193,5,0,0:0:0:0:
383,345,63369,2,0,P|450:327|488:229,1,168,8|10,0:0|0:0,0:0:0:0:
501,158,63899,1,0,0:0:0:0:
474,75,64075,2,0,P|433:103|370:104,1,84,8|0,0:0|0:0,0:0:0:0:
316,97,64428,1,10,0:0:0:0:
364,28,64604,1,0,0:0:0:0:
295,178,64781,6,0,P|252:153|233:120,1,84,8|0,0:0|0:0,0:0:0:0:
167,174,65134,2,0,P|154:123|160:83,1,84,10|0,0:0|0:0,0:0:0:0:
77,96,65487,2,0,B|69:145|86:189,1,84,8|0,0:0|0:0,0:0:0:0:
0,190,65840,2,0,P|20:231|56:259,1,84,10|0,0:0|0:0,0:0:0:0:
33,347,66193,5,12,0:0:0:0:
256,272,66546,1,10,0:0:0:0:
479,347,66899,1,8,0:0:0:0:
371,218,67251,1,10,0:0:0:0:
433,274,67428,2,0,P|481:206|478:109,1,168
399,135,67957,1,10,0:0:0:0:
399,135,68134,1,0,0:0:0:0:
110,88,68840,5,0,0:0:0:0:
110,88,68928,1,0,0:0:0:0:
110,88,69016,2,0,P|177:108|221:98,1,84,8|0,0:0|0:0,0:0:0:0:
149,201,69369,2,0,P|194:194|239:168,1,84,10|0,0:0|0:0,0:0:0:0:
282,266,69722,2,0,P|330:212|319:102,2,168,8|10|8,0:0|0:0|0:0,0:0:0:0:
202,294,70604,6,0,L|188:336,2,42,8|8|10,0:0|0:0|0:0,0:0:0:0:
118,280,70957,2,0,L|87:307,2,42,8|8|8,0:0|0:0|0:0,0:0:0:0:
80,204,71310,1,0,0:0:0:0:
3,239,71487,1,10,0:0:0:0:
80,204,71663,1,2,0:0:0:0:
54,124,71840,5,12,0:0:0:0:
280,60,72193,1,10,0:0:0:0:
498,150,72546,1,8,0:0:0:0:
343,215,72899,1,10,0:0:0:0:
403,141,73075,2,0,P|428:193|377:300,1,168
306,295,73604,1,10,0:0:0:0:
221,299,73781,2,0,P|194:334|141:355,1,84,0|8,0:0|0:0,0:0:0:0:
103,288,74134,2,0,P|130:253|183:232,1,84,0|10,0:0|0:0,0:0:0:0:
204,160,74487,5,0,0:0:0:0:
204,160,74575,1,0,0:0:0:0:
204,160,74663,2,0,P|156:153|106:111,1,84,8|0,0:0|0:0,0:0:0:0:
116,51,75016,1,10,0:0:0:0:
196,74,75193,1,0,0:0:0:0:
277,53,75369,2,0,P|376:52|443:83,1,168,8|10,0:0|0:0,0:0:0:0:
490,145,75899,6,0,P|491:218|448:322,1,168
377,327,76428,1,10,0:0:0:0:
342,250,76604,1,0,0:0:0:0:
276,303,76781,1,8,0:0:0:0:
216,244,76957,1,0,0:0:0:0:
176,318,77134,1,10,0:0:0:0:
107,269,77310,1,0,0:0:0:0:
75,346,77487,5,12,0:0:0:0:
6,192,77840,1,10,0:0:0:0:
75,38,78193,1,8,0:0:0:0:
242,55,78546,1,10,0:0:0:0:
311,102,78722,2,0,P|367:87|398:63,2,84,0|8|0,0:0|0:0|0:0,0:0:0:0:
236,140,79251,1,10,0:0:0:0:
178,201,79428,6,0,P|89:166|36:100,2,168,0|0|2,0:0|0:0|0:0,0:0:0:0:
200,221,80222,1,0,0:0:0:0:
225,236,80310,2,0,P|269:231|326:242,1,84,8|0,0:0|0:0,0:0:0:0:
377,188,80663,2,0,P|427:220|450:263,1,84,10|0,0:0|0:0,0:0:0:0:
497,302,81016,2,0,P|418:338|319:325,1,168,8|10,0:0|0:0,0:0:0:0:
255,315,81546,2,0,P|200:344|81:350,2,168,0|2|2,0:0|0:0|0:0,0:0:0:0:
255,230,82428,1,10,0:0:0:0:
256,149,82604,6,0,L|256:55,2,84,0|2|0,0:0|0:0|0:0,0:0:0:0:
176,119,83134,1,0,0:0:0:0:
336,119,83487,1,2,0:0:0:0:
336,265,83840,1,0,0:0:0:0:
176,265,84193,1,2,0:0:0:0:
105,214,84369,5,12,0:0:0:0:
256,74,84722,1,12,0:0:0:0:
407,214,85075,1,12,0:0:0:0:
407,214,85428,1,0,0:0:0:0:
467,272,85604,6,0,P|449:323|414:354,2,84,8|0|12,0:0|0:0|0:0,0:0:0:0:
485,189,86134,2,0,P|483:126|493:84,1,84,4|8,0:0|0:0,0:0:0:0:
398,38,86487,2,0,P|403:86|391:138,1,84,0|8,0:0|0:0,0:0:0:0:
250,202,87016,2,0,P|266:250|252:310,1,84,8|0,0:0|0:0,0:0:0:0:
202,340,87369,5,12,0:0:0:0:
182,257,87546,1,0,0:0:0:0:
123,317,87722,2,0,L|85:333,3,42
63,296,88075,2,0,L|11:285,3,42
23,244,88428,1,4,0:0:0:0:
