osu file format v14

[General]
AudioFilename: LOVE LOVE WARS (Short ver..mp3
AudioLeadIn: 0
PreviewTime: 64485
Countdown: 0
SampleSet: Soft
StackLeniency: 0.5
Mode: 0
LetterboxInBreaks: 0
WidescreenStoryboard: 1

[Editor]
Bookmarks: 31203,39875,91086
DistanceSpacing: 2
BeatDivisor: 4
GridSize: 4
TimelineZoom: 1

[Metadata]
Title:LOVE LOVE WARS (Short ver.)
TitleUnicode:LOVE LOVE WARS (Short ver.)
Artist:Ogura Yui & Tamiyasu Tomoe
ArtistUnicode:小倉結衣&民安ともえ
Creator:imoutosan
Version:Hard 4.44
Source:おとなり恋戦争!
Tags:sugar house
BeatmapID:828138
BeatmapSetID:343507

[Difficulty]
HPDrainRate:5.5
CircleSize:3.7
OverallDifficulty:7
ApproachRate:8.5
SliderMultiplier:1.6
SliderTickRate:1

[Events]
//Background and Video events
0,0,"bg.jpg",0,0
//Break Periods
2,23484,28210
//Storyboard Layer 0 (Background)
//Storyboard Layer 1 (Fail)
//Storyboard Layer 2 (Pass)
//Storyboard Layer 3 (Foreground)
//Storyboard Sound Samples

[TimingPoints]
760,234.375,4,2,0,60,1,0
760,-200,4,2,0,60,0,0
6385,-133.333333333333,4,2,0,40,0,0
7791,-100,4,2,0,80,0,0
8260,-100,4,2,0,60,0,1
13885,-100,4,2,0,80,0,1
14119,-100,4,2,0,60,0,1
15760,-100,4,2,0,60,0,1
23260,-100,4,2,0,60,0,0
30760,-133.333333333333,4,2,0,40,0,0
38260,-100,4,2,0,60,0,0
45760,-133.333333333333,4,2,0,60,0,0
53260,-100,4,2,0,60,0,0
60994,-100,4,2,0,40,0,0
65681,-66.6666666666667,4,2,0,60,0,0
66385,-100,4,2,0,60,0,1
72010,-100,4,2,0,80,0,1
72166,-100,4,2,0,20,0,1
72244,-100,4,2,0,60,0,1
72947,-123.456790123457,4,2,0,60,0,1
73885,-100,4,2,0,60,0,1
87010,-100,4,2,0,80,0,1
87244,-100,4,2,0,60,0,1
92635,-100,4,2,0,60,0,0
92869,-133.333333333333,4,2,0,40,0,0
94510,-133.333333333333,4,2,0,60,0,1
94627,-133.333333333333,4,2,0,60,0,0
96619,-133.333333333333,4,2,0,40,0,0
98260,-133.333333333333,4,2,0,30,0,0
99080,-133.333333333333,4,2,0,40,0,0
99138,-200,4,2,0,5,0,0

[Colours]
Combo1 : 255,128,255
Combo2 : 255,169,128
Combo3 : 255,128,192
Combo4 : 255,128,128

[HitObjects]
184,132,760,6,0,L|212:88,2,40
164,168,1111,2,0,P|164:224|184:256,1,80
248,272,1463,2,0,P|248:216|228:184,1,80
308,224,1814,2,0,L|352:240,2,40
296,148,2166,2,0,L|331:117,2,40
237,195,2517,5,0,0:0:0:0:
237,195,2635,2,0,L|261:241,2,40
216,160,2986,2,0,P|167:132|129:133,1,80
84,181,3338,2,0,P|132:209|170:207,1,80
96,256,3689,2,0,L|60:286,2,40
167,284,4041,2,0,L|175:330,1,40
256,344,4275,2,0,L|250:305,1,40
234,221,4510,6,0,L|227:169,2,40
241,261,4861,2,0,P|276:303|312:315,1,80
372,286,5213,2,0,P|336:243|300:231,1,80
387,211,5564,2,0,L|430:194,2,40
254,185,5916,2,0,L|218:154,2,40
315,235,6267,1,0,0:0:0:0:
334,157,6385,5,0,0:0:0:0:
334,157,6502,1,0,0:0:0:0:
334,157,6619,1,0,0:0:0:0:
334,157,6736,1,0,0:0:0:0:
334,157,6853,2,0,L|345:90,1,60.0000022888184
398,225,7088,2,0,L|421:93,1,120.000004577637
434,29,7439,2,0,P|486:65|486:145,1,120.000004577637
478,245,7791,2,0,B|458:301|402:321|354:293|354:293|302:309|302:365,1,240
302,355,8260,6,0,P|309:297|297:263,1,80
398,225,8494,2,0,P|356:183|323:172,1,80
228,196,8728,2,0,P|160:260|36:216,1,160
260,108,9080,2,0,P|324:176|280:300,1,160
128,164,9431,2,0,P|64:96|108:-27,2,160
420,84,10135,6,0,P|374:119|358:152,1,80
260,108,10369,2,0,P|260:166|276:197,1,80
243,287,10603,2,0,P|303:337|382:334,1,160
248,180,10955,2,0,P|174:207|138:276,1,160
339,237,11306,2,0,P|352:159|309:94,2,160
244,288,11892,1,0,0:0:0:0:
244,288,12010,1,0,0:0:0:0:
96,148,12244,6,0,L|154:202,1,80
116,60,12478,2,0,L|174:114,1,80
300,232,12713,1,0,0:0:0:0:
300,232,12830,2,0,P|276:208|280:88,1,160
471,62,13181,2,0,P|434:130|360:152,1,160
278,90,13533,1,0,0:0:0:0:
278,90,13650,2,0,L|223:148,1,80
140,232,13885,5,0,0:0:0:0:
36,112,14119,1,0,0:0:0:0:
36,112,14197,1,0,0:0:0:0:
36,112,14275,1,0,0:0:0:0:
36,112,14353,1,0,0:0:0:0:
88,382,14588,5,0,0:0:0:0:
88,382,14666,1,0,0:0:0:0:
88,382,14744,1,0,0:0:0:0:
88,382,14822,1,0,0:0:0:0:
296,208,15056,5,0,0:0:0:0:
301,190,15134,1,0,0:0:0:0:
306,172,15212,1,0,0:0:0:0:
312,152,15291,2,0,L|328:102,5,53.3333333333333
312,152,15760,6,0,L|216:172,1,80
252,84,15994,2,0,L|156:104,1,80
252,256,16228,2,0,P|228:344|164:380,1,160
22,342,16580,2,0,P|74:283|151:275,1,160
338,346,16931,2,0,P|416:338|468:280,2,160
388,162,17635,6,0,L|368:240,1,80
280,256,17869,2,0,L|300:178,1,80
373,56,18103,2,0,P|450:72|496:136,1,160
336,160,18455,2,0,P|277:107|269:29,1,160
424,204,18806,2,0,L|448:364,2,160
408,108,19392,1,0,0:0:0:0:
336,160,19510,6,0,L|187:267,1,160
356,360,19861,2,0,L|337:177,1,160
171,277,20213,2,0,L|291:330,2,80
0,200,20681,1,0,0:0:0:0:
76,29,20916,1,0,0:0:0:0:
247,105,21150,1,0,0:0:0:0:
171,276,21385,6,0,L|118:396,1,80
52,308,21619,1,0,0:0:0:0:
52,308,21736,1,0,0:0:0:0:
52,308,21853,1,0,0:0:0:0:
75,28,22088,6,0,L|43:101,1,80
246,104,22322,2,0,L|174:72,1,80
144,156,22556,1,0,0:0:0:0:
144,156,22673,1,0,0:0:0:0:
144,156,22790,1,0,0:0:0:0:
171,276,23025,6,0,P|115:216|143:154,1,160
408,96,28885,5,0,0:0:0:0:
408,96,29002,1,0,0:0:0:0:
344,48,29119,1,0,0:0:0:0:
344,48,29236,1,0,0:0:0:0:
332,128,29353,2,0,P|316:170|298:189,5,53.3333333333333
276,216,29822,1,0,0:0:0:0:
276,216,29939,2,0,P|192:208|136:256,1,160
88,344,30291,2,0,P|172:352|228:304,1,160
276,216,30642,1,0,0:0:0:0:
276,216,30760,6,0,L|360:232,1,60.0000022888184
366,311,30994,2,0,L|308:300,1,60.0000022888184
137,253,31228,2,0,P|156:180|188:152,1,120.000004577637
224,56,31580,1,0,0:0:0:0:
224,56,31697,2,0,P|278:109|286:150,1,120.000004577637
351,230,32049,2,0,P|277:250|237:236,1,120.000004577637
187,152,32400,2,0,L|104:132,1,60.0000022888184
12,216,32635,6,0,L|95:195,1,60.0000022888184
196,268,32869,2,0,L|112:247,1,60.0000022888184
19,331,33103,2,0,B|88:348|88:348|160:328,1,120.000004577637
196,268,33455,1,0,0:0:0:0:
260,332,33572,2,0,L|388:368,1,120.000004577637
396,284,33924,2,0,L|280:251,1,120.000004577637
196,268,34275,2,0,L|137:253,1,60.0000022888184
280,251,34510,6,0,L|294:192,1,60.0000022888184
277,108,34744,2,0,L|218:93,1,60.0000022888184
134,110,34978,2,0,L|119:168,1,60.0000022888184
137,253,35213,2,0,L|196:268,1,60.0000022888184
335,196,35447,2,0,P|334:250|280:252,1,120.000004577637
276,108,35799,2,0,P|348:88|404:120,1,120.000004577637
448,172,36150,1,0,0:0:0:0:
448,172,36267,1,0,0:0:0:0:
335,196,36385,5,0,0:0:0:0:
408,256,36619,1,0,0:0:0:0:
295,280,36853,5,0,0:0:0:0:
368,340,37088,1,0,0:0:0:0:
255,364,37322,5,0,0:0:0:0:
295,280,37556,1,0,0:0:0:0:
295,280,37674,2,0,P|224:276|184:304,1,120.000004577637
204,196,38025,2,0,L|214:136,1,60.0000022888184
185,302,38260,6,0,P|134:332|76:325,1,80
56,200,38494,2,0,P|107:229|129:283,1,80
33,363,38728,2,0,P|32:304|68:257,1,80
126,168,38963,2,0,P|131:207|118:245,1,80
56,200,39197,6,0,P|56:132|160:96,1,160
200,139,39549,2,0,P|188:214|118:245,1,160
128,88,39900,2,0,P|176:55|235:59,1,80
288,168,40135,6,0,L|284:247,1,80
440,264,40369,2,0,L|351:208,1,80
280,347,40603,2,0,L|372:298,1,80
359,131,40838,2,0,L|288:168,1,80
211,278,41072,2,0,P|219:202|288:168,1,160
424,302,41424,2,0,B|387:311|387:311|284:247,1,160
286,89,41775,2,0,P|294:127|288:167,1,80
211,278,42010,5,0,0:0:0:0:
211,278,42244,1,0,0:0:0:0:
364,200,42478,5,0,0:0:0:0:
364,200,42713,1,0,0:0:0:0:
154,189,42947,6,0,L|100:185,5,53.3333333333333
67,185,43416,1,0,0:0:0:0:
211,278,43650,1,0,0:0:0:0:
147,60,43885,5,0,0:0:0:0:
147,60,44002,1,0,0:0:0:0:
219,106,44119,5,0,0:0:0:0:
219,106,44236,1,0,0:0:0:0:
144,146,44353,5,0,0:0:0:0:
144,146,44470,1,0,0:0:0:0:
222,20,44705,6,0,P|272:40|296:140,1,160
198,266,45056,2,0,P|201:227|220:192,1,80
403,285,45291,2,0,L|288:252,2,120
484,312,45760,5,0,0:0:0:0:
287,251,46228,1,0,0:0:0:0:
403,285,46697,1,0,0:0:0:0:
199,259,47165,1,0,0:0:0:0:
318,272,47635,1,0,0:0:0:0:
113,282,48103,1,0,0:0:0:0:
232,274,48572,1,0,0:0:0:0:
32,319,49040,1,0,0:0:0:0:
158,243,49275,6,0,P|137:264|113:281,1,60.0000022888184
32,319,49510,1,0,0:0:0:0:
212,176,49744,5,0,0:0:0:0:
174,362,49978,1,0,0:0:0:0:
32,236,50213,1,0,0:0:0:0:
232,274,50447,2,0,L|360:298,1,120.000004577637
120,156,50916,2,0,L|3:134,1,120.000004577637
2,133,51267,1,0,0:0:0:0:
156,80,51385,2,0,P|200:132|188:200,1,120.000004577637
53,242,51853,2,0,P|69:186|120:156,1,120.000004577637
246,251,52322,2,0,P|178:263|126:218,1,120.000004577637
156,80,52791,5,0,0:0:0:0:
156,80,52908,1,0,0:0:0:0:
197,180,53025,1,0,0:0:0:0:
197,180,53142,1,0,0:0:0:0:
240,100,53260,2,0,P|288:68|384:88,2,160
197,180,53845,2,0,L|160:260,2,80
316,168,54197,2,0,L|394:331,2,160
240,100,54783,2,0,P|182:88|136:116,2,80
197,180,55135,6,0,P|128:216|54:193,2,160
240,100,55720,2,0,L|274:27,2,80
162,252,56072,2,0,L|197:180,1,80
240,100,56306,2,0,L|312:135,1,80
392,177,56541,2,0,L|357:249,1,80
314,329,56775,2,0,L|242:294,1,80
84,212,57010,6,0,P|100:296|36:356,2,160
12,148,57595,1,0,0:0:0:0:
11,246,57713,2,0,L|84:212,1,80
168,76,57947,2,0,L|95:110,1,80
212,152,58181,2,0,L|178:224,1,80
300,152,58416,2,0,L|333:224,1,80
344,76,58650,2,0,L|416:110,1,80
500,148,58885,5,0,0:0:0:0:
428,304,59119,1,0,0:0:0:0:
272,232,59353,1,0,0:0:0:0:
344,76,59588,1,0,0:0:0:0:
328,316,59822,2,0,P|296:340|252:352,2,53.3333333333333
260,352,60056,2,0,P|220:356|176:345,2,53.3333333333333
183,349,60291,2,0,P|146:333|113:301,2,53.3333333333333
117,308,60525,2,0,P|93:276|81:232,2,53.3333333333333
80,240,60760,5,0,0:0:0:0:
166,222,60994,2,0,P|121:160|44:160,1,160
40,155,61697,6,0,P|128:156|156:288,1,240
92,344,62635,5,0,0:0:0:0:
117,337,62752,1,0,0:0:0:0:
143,331,62869,1,0,0:0:0:0:
169,325,62986,1,0,0:0:0:0:
195,318,63103,1,0,0:0:0:0:
221,312,63220,1,0,0:0:0:0:
248,304,63455,6,0,P|232:212|304:152,1,160
396,265,63806,2,0,L|320:244,1,80
116,120,64041,1,0,0:0:0:0:
270,164,64197,1,0,0:0:0:0:
232,8,64353,1,0,0:0:0:0:
155,277,64510,5,0,0:0:0:0:
155,277,64978,5,0,0:0:0:0:
155,277,65447,5,0,0:0:0:0:
155,277,65681,2,0,P|124:204|256:148,1,240.000009155274
265,159,65994,1,0,0:0:0:0:
280,187,66072,1,0,0:0:0:0:
284,218,66150,1,0,0:0:0:0:
274,249,66228,1,0,0:0:0:0:
254,273,66306,1,0,0:0:0:0:
226,288,66385,6,0,P|284:296|324:332,1,80
460,368,66619,2,0,P|402:360|362:324,1,80
367,165,66853,2,0,P|434:203|444:280,1,160
276,156,67205,2,0,P|314:88|390:79,1,160
364,252,67556,2,0,P|325:319|249:328,1,160
276,244,67908,1,0,0:0:0:0:
276,244,68025,2,0,P|236:232|208:208,1,80
144,56,68260,6,0,P|153:96|146:132,1,80,0|0,3:0|3:0,3:0:0:0:
112,336,68494,2,0,P|102:295|109:259,1,80
325,264,68728,2,0,P|266:313|191:295,1,160
143,55,69080,2,0,P|204:8|278:29,1,160
248,232,69431,2,0,B|243:202|224:184|224:184|245:158|245:158|227:135|218:85,2,160
136,144,70017,1,0,0:0:0:0:
316,92,70135,1,0,0:0:0:0:
190,294,70369,6,0,P|220:264|255:252,1,80
344,256,70603,2,0,P|384:267|412:291,2,80
190,294,70955,2,0,P|138:218|152:156,1,160
104,340,71306,2,0,P|76:367|39:381,1,80
232,208,71541,2,0,P|272:197|308:204,1,80
256,368,71775,2,0,P|255:326|271:293,1,80
512,292,72010,5,0,0:0:0:0:
335,60,72244,1,0,0:0:0:0:
342,352,72478,1,0,0:0:0:0:
512,114,72713,1,0,0:0:0:0:
229,212,72947,6,0,P|157:182|140:137,1,129.600003164063
148,105,73260,1,0,0:0:0:0:
167,79,73338,1,0,0:0:0:0:
196,64,73416,1,0,0:0:0:0:
228,61,73494,1,0,0:0:0:0:
257,74,73572,1,0,0:0:0:0:
280,96,73650,1,0,0:0:0:0:
291,126,73728,1,0,0:0:0:0:
288,158,73806,1,0,0:0:0:0:
281,185,73885,6,0,P|279:242|303:278,1,80
424,384,74119,2,0,P|397:332|358:314,1,80
179,259,74353,2,0,P|210:332|279:367,1,160
511,230,74705,2,0,P|444:190|368:208,1,160
179,259,75056,2,0,P|142:245|116:216,1,80
36,96,75291,2,0,L|108:128,1,80
184,76,75525,2,0,P|207:43|241:26,1,80,0|0,0:0|0:0,3:0:0:0:
272,116,75760,6,0,P|288:152|286:190,1,80
279,367,75994,2,0,P|263:331|265:293,1,80
380,196,76228,2,0,P|432:216|467:311,1,160,0|0,3:0|3:0,3:0:0:0:
285,191,76580,2,0,P|305:139|400:104,1,160
368,296,76931,2,0,P|348:348|253:383,2,160,0|0|0,3:0|3:0|3:0,3:0:0:0:
380,196,77517,1,0,0:0:0:0:
268,284,77635,6,0,L|108:280,1,160
40,164,77986,2,0,L|200:168,1,160
108,280,78338,6,0,P|116:232|140:200,1,80
65,115,78572,2,0,P|113:107|150:120,1,80
208,23,78806,2,0,P|229:66|229:106,1,80
339,131,79041,2,0,P|304:165|266:176,1,80,0|0,0:0|0:0,0:0:0:0:
278,289,79275,2,0,P|234:266|211:233,1,80
133,206,79510,5,0,0:0:0:0:
142,116,79627,1,0,0:0:0:0:
230,97,79744,1,0,0:0:0:0:
275,175,79861,1,0,0:0:0:0:
215,242,79978,1,0,0:0:0:0:
215,242,80213,6,0,L|300:228,1,80
468,192,80447,1,0,3:0:0:0:
380,212,80564,1,0,0:0:0:0:
380,212,80681,2,0,L|416:283,1,80
460,360,80916,1,0,0:0:0:0:
460,360,81150,6,0,P|484:376|508:380,2,53.3333333333333
416,283,81385,6,0,P|424:217|449:186,1,80,0|0,3:0|3:0,3:0:0:0:
348,156,81619,2,0,P|400:114|439:110,1,80,0|0,3:0|3:0,3:0:0:0:
328,240,81853,2,0,P|248:264|176:200,1,160
239,27,82205,2,0,B|260:40|260:40|264:176,1,160
120,292,82556,2,0,B|99:279|99:279|95:143,1,160
95,143,82908,1,0,0:0:0:0:
188,225,83025,2,0,L|296:270,1,80
384,364,83260,6,0,L|310:333,1,80
248,156,83494,2,0,P|256:128|292:92,1,80
470,139,83728,2,0,P|411:189|336:172,1,160
188,64,84080,2,0,P|112:46|53:96,1,160
96,268,84431,2,0,P|148:211|135:135,2,160,0|0|0,3:0|3:0|3:0,3:0:0:0:
20,296,85017,1,0,0:0:0:0:
188,308,85135,1,0,0:0:0:0:
0,140,85369,6,0,L|64:188,1,80
96,268,85603,2,0,L|172:216,1,80
228,176,85838,1,0,0:0:0:0:
188,308,85955,2,0,P|272:308|320:364,1,160
428,352,86306,2,0,P|398:325|383:288,1,80
316,232,86541,2,0,P|324:193|349:162,1,80,0|0,3:0|3:0,3:0:0:0:
363,75,86775,2,0,P|400:63|440:68,1,80,0|0,3:0|3:0,3:0:0:0:
512,120,87010,5,0,0:0:0:0:
280,108,87244,1,0,0:0:0:0:
392,312,87478,1,0,0:0:0:0:
160,300,87712,1,0,0:0:0:0:
280,108,87947,6,0,L|48:96,1,160
93,97,88260,1,0,0:0:0:0:
66,96,88338,1,0,0:0:0:0:
40,94,88416,1,0,0:0:0:0:
70,111,88494,1,0,0:0:0:0:
93,138,88572,1,0,0:0:0:0:
105,171,88650,1,0,0:0:0:0:
105,207,88728,1,0,0:0:0:0:
92,240,88806,1,0,0:0:0:0:
69,266,88885,6,0,B|52:280|52:280|84:312|140:308,1,80
192,308,89119,2,0,P|244:300|288:268,1,80
340,236,89353,2,0,P|375:218|415:214,1,80
352,320,89588,1,0,0:0:0:0:
340,236,89705,2,0,P|364:152|452:144,1,160
340,235,90056,2,0,P|256:211|248:123,2,160
488,54,90760,6,0,P|452:37|413:36,1,80
320,160,90994,2,0,P|367:118|378:73,1,80
256,16,91228,2,0,P|199:44|176:83,1,80,0|0,3:0|0:0,0:0:0:0:
136,122,91463,1,0,0:0:0:0:
136,122,91580,2,0,B|188:152|232:136|260:100|260:100|272:100|278:92,1,160
336,36,91931,2,0,P|374:28|413:36,1,80,0|0,0:0|0:0,0:0:0:0:
480,84,92166,5,0,0:0:0:0:
512,164,92283,1,0,0:0:0:0:
504,256,92400,1,0,0:0:0:0:
456,340,92517,1,0,0:0:0:0:
364,384,92635,1,0,0:0:0:0:
281,312,92869,6,0,P|336:332|364:383,1,120.000004577637
281,312,93572,5,0,0:0:0:0:
363,383,93689,1,0,0:0:0:0:
368,296,93806,1,0,0:0:0:0:
281,312,93924,2,0,P|300:356|364:383,1,120.000004577637
364,383,94510,6,0,L|435:362,1,60.0000022888184
376,288,94744,2,0,L|447:266,1,60.0000022888184
444,174,94978,2,0,L|387:192,1,60.0000022888184
304,220,95213,1,0,0:0:0:0:
304,220,95330,2,0,P|260:172|188:176,1,120.000004577637
132,212,95681,6,0,P|112:248|112:272,1,60.0000022888184
152,344,95916,1,0,0:0:0:0:
199,269,96033,2,0,L|224:252,2,30.0000011444092
64,344,96267,1,0,0:0:0:0:
152,344,96385,1,0,0:0:0:0:
152,344,96619,6,0,L|276:344,1,120.000004577637
272,344,97322,5,0,0:0:0:0:
212,240,97439,1,0,0:0:0:0:
152,344,97556,1,0,0:0:0:0:
272,344,97674,2,0,P|320:320|340:256,1,120.000004577637
216,163,98260,6,0,P|218:222|258:265,1,120.000004577637
402,206,98728,2,0,P|351:177|294:190,1,120.000004577637
340,260,99080,5,0,0:0:0:0:
