osu file format v12

[General]
AudioFilename: I Feel Fine!.mp3
AudioLeadIn: 0
PreviewTime: 41143
Countdown: 0
SampleSet: Normal
StackLeniency: 0.7
Mode: 0
LetterboxInBreaks: 1
WidescreenStoryboard: 0

[Editor]
Bookmarks: 385,15281,28522,41764,55005,68247,74867,81488,88109,101350,114591,127833,137764
DistanceSpacing: 0.9
BeatDivisor: 4
GridSize: 4
TimelineZoom: 1.7

[Metadata]
Title:I Feel Fine!
TitleUnicode:I Feel Fine!
Artist:Ogawa Mana
ArtistUnicode:小川 真奈
Creator:asaink
Version:Hard
Source:みんなのリズム天国
Tags:rhythm heaven fever 3rd remix MakJang Cute_Bunny
BeatmapID:391249
BeatmapSetID:157625

[Difficulty]
HPDrainRate:5
CircleSize:4
OverallDifficulty:6
ApproachRate:7
SliderMultiplier:1.4
SliderTickRate:2

[Events]
//Background and Video events
0,0,"BG.jpg",0,0
//Break Periods
2,74867,80247
2,101350,105902
//Storyboard Layer 0 (Background)
//Storyboard Layer 1 (Fail)
//Storyboard Layer 2 (Pass)
//Storyboard Layer 3 (Foreground)
//Storyboard Sound Samples
//Background Colour Transformations
3,100,0,0,0

[TimingPoints]
385,413.793103448276,4,1,1,65,1,0
1936,-100,4,1,1,60,0,0
2143,-100,4,1,1,65,0,0
5350,-100,4,1,1,60,0,0
5453,-100,4,1,1,65,0,0
8557,-100,4,1,1,60,0,0
8764,-100,4,1,1,65,0,0
11971,-100,4,1,1,60,0,0
12074,-100,4,1,1,65,0,0
15178,-100,4,1,1,60,0,0
15385,-100,4,1,1,65,0,0
21798,-100,4,1,1,60,0,0
22005,-100,4,1,1,65,0,0
28522,-100,4,1,1,60,0,0
28626,-100,4,1,1,65,0,0
31833,-100,4,1,1,60,0,0
31936,-100,4,1,1,65,0,0
35040,-100,4,1,1,60,0,0
35247,-100,4,1,1,65,0,0
41764,-100,4,1,1,65,0,1
43729,-100,4,1,2,65,0,1
43936,-100,4,1,1,65,0,1
50350,-100,4,1,2,65,0,1
50557,-100,4,1,1,65,0,1
52936,-100,4,1,1,65,0,0
55005,-100,4,1,1,65,0,1
56971,-100,4,1,2,65,0,1
57178,-100,4,1,1,65,0,1
63591,-100,4,1,2,65,0,1
63798,-100,4,1,1,65,0,1
66178,-100,4,1,1,65,0,0
68143,-100,4,1,1,60,0,0
68350,-100,4,1,1,65,0,0
68867,-100,4,1,1,60,0,0
68971,-100,4,1,1,65,0,0
69798,-100,4,1,1,60,0,0
70005,-100,4,1,1,65,0,0
70522,-100,4,1,1,60,0,0
70626,-100,4,1,1,65,0,0
81488,-100,4,1,1,60,0,0
81591,-100,4,1,1,65,0,0
86453,-117.647058823529,4,1,1,65,0,0
87591,-100,4,1,1,65,0,0
88109,-100,4,1,1,60,0,0
88212,-100,4,1,1,65,0,0
90902,-100,4,1,2,65,0,0
91109,-100,4,1,1,65,0,0
92867,-117.647058823529,4,1,1,65,0,0
94109,-100,4,1,1,65,0,0
94729,-100,4,1,1,60,0,0
94833,-100,4,1,1,65,0,0
99488,-100,4,1,1,50,0,0
99695,-100,4,1,1,55,0,0
100109,-100,4,1,1,60,0,0
100522,-100,4,1,1,65,0,0
100936,-100,4,1,1,70,0,0
101247,-100,4,1,1,65,0,0
107143,-100,4,1,1,65,0,1
109936,-100,4,1,2,65,0,1
110143,-100,4,1,1,65,0,1
112522,-100,4,1,1,65,0,0
114591,-100,4,1,1,65,0,1
116557,-100,4,1,2,65,0,1
116764,-100,4,1,1,65,0,1
123178,-100,4,1,2,65,0,1
123385,-100,4,1,1,65,0,1
125764,-100,4,1,1,65,0,0
127729,-100,4,1,1,60,0,0
127936,-100,4,1,1,65,0,0
128453,-100,4,1,1,60,0,0
128557,-100,4,1,1,65,0,0
129385,-100,4,1,1,60,0,0
129591,-100,4,1,1,65,0,0
130109,-100,4,1,1,60,0,0
130212,-100,4,1,1,65,0,0
135902,-117.64705882353,4,1,1,65,0,0
136316,-100,4,1,1,65,0,0
137660,-100,4,1,1,60,0,0
137867,-100,4,1,1,65,0,0
141074,-100,4,1,1,60,0,0
141178,-100,4,1,1,65,0,0
144281,-100,4,1,1,60,0,0
144488,-100,4,1,1,65,0,0
147695,-100,4,1,1,60,0,0
147798,-100,4,1,1,65,0,0

[Colours]
Combo1 : 255,60,60
Combo2 : 240,240,240
Combo3 : 128,128,255
Combo4 : 0,128,255
Combo5 : 128,255,0
Combo6 : 255,128,64

[HitObjects]
200,300,385,6,0,P|236:308|268:300,1,70,2|0,0:3|0:0,0:0:0:0:
304,224,798,2,0,P|268:216|236:224,1,70,2|0,0:3|0:0,0:0:0:0:
156,248,1212,1,2,0:3:0:0:
76,224,1419,1,2,0:3:0:0:
55,208,1522,1,2,0:3:0:0:
41,187,1626,1,8,0:3:0:0:
42,162,1729,1,8,0:3:0:0:
53,138,1833,1,4,0:3:0:0:
112,76,2040,6,0,P|176:52|240:76,1,140,4|8,0:0|0:0,0:0:0:0:
304,132,2660,1,0,0:0:0:0:
388,128,2867,2,0,B|392:168|364:192|364:192|392:256,1,140,0|8,0:0|0:0,0:0:0:0:
428,332,3488,1,0,0:0:0:0:
476,264,3695,6,0,P|493:231|493:198,2,70,0|0|8,0:0|0:0|0:0,0:0:0:0:
428,332,4316,2,2,P|359:327|311:279,1,140
272,204,4936,1,10,0:0:0:0:
228,132,5143,1,2,0:0:0:0:
180,64,5350,6,0,P|111:57|56:97,1,140,4|8,0:0|0:0,0:0:0:0:
24,176,5971,1,0,0:0:0:0:
84,236,6178,2,0,B|113:280|172:259|201:304,1,140,0|8,0:0|0:0,0:0:0:0:
272,352,6798,1,0,0:0:0:0:
272,352,7005,6,0,P|244:376|213:386,2,70,0|0|8,0:0|0:0|0:0,0:0:0:0:
311,279,7626,2,2,B|328:232|300:192|300:192|320:148,1,140,2|2,0:0|0:0,0:0:0:0:
380,88,8247,1,10,0:0:0:0:
464,88,8453,1,2,0:0:0:0:
484,172,8660,6,0,P|455:234|393:262,1,140,4|8,0:0|0:0,0:0:0:0:
311,279,9281,1,0,0:0:0:0:
256,216,9488,2,0,P|200:176|132:182,1,140,0|8,0:0|0:0,0:0:0:0:
52,208,10109,1,0,0:0:0:0:
40,292,10316,6,0,P|28:327|6:350,2,70,0|0|8,0:0|0:0|0:0,0:0:0:0:
52,208,10936,2,2,B|40:152|80:120|80:120|100:84,1,140
168,32,11557,1,10,0:0:0:0:
212,104,11764,1,2,0:0:0:0:
256,32,11971,6,0,B|296:60|296:104|296:104|344:132,1,140,4|8,0:0|0:0,0:0:0:0:
400,192,12591,1,0,0:0:0:0:
456,256,12798,2,0,P|455:288|438:321,1,70
368,368,13212,1,8,0:0:0:0:
368,368,13316,1,0,0:0:0:0:
368,368,13419,1,0,0:0:0:0:
288,340,13626,5,4,0:2:0:0:
246,266,14040,1,4,0:2:0:0:
204,193,14453,1,4,0:2:0:0:
161,121,14867,1,4,0:2:0:0:
52,208,15281,6,0,P|36:274|83:323,1,140,4|8,0:0|0:0,0:0:0:0:
246,266,16109,2,0,P|282:257|314:265,2,70,0|0|8,0:0|0:0|0:0,0:0:0:0:
168,300,16729,1,0,0:0:0:0:
168,300,16936,6,2,B|148:252|176:216|176:216|156:168,1,140,2|10,0:0|0:0,0:0:0:0:
120,92,17557,2,2,B|168:72|204:100|204:100|252:80,1,140,2|2,0:0|0:0,0:0:0:0:
332,104,18178,1,10,0:0:0:0:
456,256,18591,5,0,0:0:0:0:
280,344,19005,1,8,0:0:0:0:
82,323,19419,2,0,P|45:318|14:330,2,70,0|0|8,0:0|0:0|0:0,0:0:0:0:
164,344,20040,6,0,P|211:295|216:227,1,140
184,148,20660,1,8,0:0:0:0:
120,92,20867,1,2,0:0:0:0:
120,92,20971,1,2,0:0:0:0:
120,92,21074,2,0,P|83:93|54:109,1,70,2|2,0:0|0:0,0:0:0:0:
8,180,21488,1,8,0:0:0:0:
52,252,21695,1,0,0:0:0:0:
52,252,21902,6,0,L|187:215,1,140,4|8,0:0|0:0,0:0:0:0:
332,104,22729,1,0,0:0:0:0:
332,104,22936,2,0,P|312:72|283:55,2,70,0|8|0,0:0|0:0|0:0,0:0:0:0:
360,184,23557,6,2,P|395:241|463:244,1,140,2|10,0:0|0:0,0:0:0:0:
431,179,24178,2,2,L|360:300,1,140,2|2,0:0|0:0,0:0:0:0:
292,348,24798,1,10,0:0:0:0:
152,348,25212,5,0,0:0:0:0:
52,252,25626,1,8,0:0:0:0:
88,116,26040,1,0,0:0:0:0:
104,104,26143,1,0,0:0:0:0:
120,92,26247,2,0,P|184:68|248:92,1,140
360,184,27074,5,8,0:3:0:0:
360,184,27281,1,2,0:3:0:0:
396,260,27488,2,0,L|364:278,2,35,2|2|0,0:3|0:3|0:0,0:0:0:0:
476,232,27902,1,8,0:3:0:0:
504,152,28109,1,4,0:3:0:0:
476,72,28316,1,2,0:3:0:0:
456,56,28419,1,2,0:3:0:0:
432,48,28522,6,2,P|363:41|308:81,1,140,6|10,0:0|0:0,0:0:0:0:
256,148,29143,1,10,0:0:0:0:
152,280,29557,1,0,0:0:0:0:
80,298,29764,1,8,0:0:0:0:
99,228,29971,1,8,0:0:0:0:
256,288,30385,5,0,0:0:0:0:
332,324,30591,2,0,P|368:322|397:306,1,70,8|0,0:0|0:0,0:0:0:0:
464,256,31005,1,2,0:0:0:0:
492,176,31212,2,0,L|510:106,2,70,2|10|0,0:0|0:0|0:0,0:0:0:0:
464,256,31833,6,2,P|395:262|340:222,1,140,6|8,0:0|0:0,0:0:0:0:
288,156,32453,1,10,0:0:0:0:
148,60,32867,1,0,0:0:0:0:
76,80,33074,1,8,0:0:0:0:
127,131,33281,1,8,0:0:0:0:
200,284,33695,5,0,0:0:0:0:
144,348,33902,2,0,P|107:346|78:330,1,70,8|0,0:0|0:0,0:0:0:0:
32,260,34316,1,2,0:0:0:0:
20,176,34522,2,0,P|18:139|2:110,2,70,2|10|4,0:0|0:0|0:3,0:0:0:0:
32,260,35143,6,0,P|89:222|107:156,1,140,4|8,0:0|0:0,0:0:0:0:
76,80,35764,1,8,0:0:0:0:
256,40,36178,1,0,0:0:0:0:
256,40,36385,1,8,0:0:0:0:
256,40,36591,6,0,L|325:58,1,70,4|0,0:2|0:0,0:0:0:0:
376,124,37005,2,0,L|306:142,1,70,4|0,0:2|0:0,0:0:0:0:
256,208,37419,2,0,L|325:226,1,70,4|0,0:2|0:0,0:0:0:0:
376,292,37833,2,0,L|306:310,1,70,4|0,0:2|0:0,0:0:0:0:
282,319,38143,1,0,0:0:0:0:
256,328,38247,1,0,0:0:0:0:
180,292,38453,5,4,0:2:0:0:
76,332,38867,2,0,L|58:363,2,35
40,256,39281,1,4,0:2:0:0:
104,200,39488,1,4,0:2:0:0:
188,208,39695,2,0,P|224:216|256:208,1,70,4|0,0:2|0:0,0:0:0:0:
404,80,40316,5,0,0:0:0:0:
404,80,40419,1,0,0:0:0:0:
404,80,40522,2,0,P|376:104|345:114,1,70,2|0,0:2|0:0,0:0:0:0:
256,96,40936,2,0,L|224:78,3,35
196,72,41350,2,0,L|160:75,3,35
132,84,41764,6,0,P|88:136|104:200,1,140,4|8,0:0|0:0,0:0:0:0:
148,272,42385,1,8,0:0:0:0:
68,296,42591,2,0,P|32:304|0:296,2,70,0|0|8,0:0|0:0|0:0,0:0:0:0:
148,272,43212,1,0,0:0:0:0:
224,236,43419,5,4,0:2:0:0:
308,248,43626,2,0,P|375:259|418:312,2,140,0|8|0,0:0|0:0|0:0,0:0:0:0:
256,316,44660,1,8,0:0:0:0:
332,352,44867,1,0,0:0:0:0:
360,368,44971,1,0,0:0:0:0:
392,376,45074,6,0,P|460:372|488:312,1,140,4|8,0:2|0:0,0:0:0:0:
480,228,45695,1,8,0:0:0:0:
480,228,45798,1,0,0:0:0:0:
480,228,45902,1,0,0:0:0:0:
488,144,46109,1,0,0:0:0:0:
488,144,46316,2,0,P|455:126|422:126,1,70,8|0,0:0|0:0,0:0:0:0:
344,156,46729,6,0,P|288:195|220:189,1,140,4|8,0:2|0:0,0:0:0:0:
148,144,47350,2,0,L|130:112,2,35,8|0|0,0:0|0:0|0:0,0:0:0:0:
148,228,47764,1,0,0:0:0:0:
148,228,47971,2,0,L|112:290,1,70,8|0,0:0|0:0,0:0:0:0:
48,344,48385,6,0,B|16:308|32:260|32:260|20:212,1,140,4|8,0:2|0:0,0:0:0:0:
36,128,49005,2,0,P|79:75|146:64,1,140,8|0,0:0|0:0,0:0:0:0:
228,88,49626,1,8,0:0:0:0:
308,64,49833,1,0,0:0:0:0:
388,88,50040,5,4,0:2:0:0:
469,66,50247,2,0,P|433:8|365:6,2,140,0|8|0,0:0|0:0|0:0,0:0:0:0:
448,148,51281,1,8,0:0:0:0:
448,148,51488,6,0,L|378:269,1,140
308,316,52109,1,8,0:0:0:0:
228,344,52316,2,0,L|237:378,2,35,8|0|0,0:0|0:0|0:0,0:0:0:0:
206,262,52729,1,0,0:0:0:0:
206,262,52936,1,8,0:0:0:0:
160,192,53143,5,4,0:2:0:0:
36,128,53557,2,0,P|12:192|36:256,1,140,4|0,0:2|0:0,0:0:0:0:
72,332,54178,2,0,P|36:340|4:332,2,70,8|8|4,0:0|0:0|0:3,0:0:0:0:
160,288,54798,1,0,0:0:0:0:
184,276,54902,1,0,0:0:0:0:
206,262,55005,6,0,P|270:238|334:262,1,140,4|8,0:0|0:0,0:0:0:0:
404,308,55626,1,8,0:0:0:0:
484,284,55833,2,0,P|495:319|518:342,2,70,0|0|8,0:0|0:0|0:0,0:0:0:0:
480,200,56453,1,0,0:0:0:0:
480,200,56660,5,4,0:2:0:0:
444,124,56867,2,0,B|424:70|367:81|347:27,2,140,0|8|0,0:0|0:0|0:0,0:0:0:0:
408,200,57901,1,8,0:0:0:0:
332,164,58108,1,0,0:0:0:0:
332,164,58212,1,0,0:0:0:0:
332,164,58315,6,0,P|265:146|204:177,1,140,4|8,0:2|0:0,0:0:0:0:
164,252,58936,2,0,L|182:283,2,35,8|0|0,0:0|0:0|0:0,0:0:0:0:
122,179,59350,1,0,0:0:0:0:
80,106,59557,2,0,B|44:117|44:117|21:139,1,70,8|0,0:0|0:0,0:0:0:0:
39,223,59971,6,0,P|95:260|163:251,1,140,4|8,0:2|0:0,0:0:0:0:
224,192,60591,2,0,L|206:160,2,35,8|0|0,0:0|0:0|0:0,0:0:0:0:
266,265,61005,1,0,0:0:0:0:
308,338,61212,2,0,B|340:355|340:355|373:355,1,70,8|0,0:0|0:0,0:0:0:0:
456,340,61626,6,0,B|448:300|408:280|408:280|420:220,1,140,4|8,0:2|0:0,0:0:0:0:
416,136,62247,2,0,P|372:83|305:72,1,140,8|0,0:0|0:0,0:0:0:0:
224,96,62867,1,8,0:0:0:0:
144,72,63074,1,0,0:0:0:0:
64,96,63281,5,4,0:2:0:0:
4,156,63488,2,0,P|-20:220|4:284,2,140,0|8|0,0:0|0:0|0:0,0:0:0:0:
64,96,64522,1,8,0:0:0:0:
64,96,64729,6,0,L|134:217,1,140
192,280,65350,1,8,0:0:0:0:
256,336,65557,2,0,L|237:367,2,35,8|0|0,0:0|0:0|0:0,0:0:0:0:
297,263,65970,1,0,0:0:0:0:
340,192,66177,1,8,0:0:0:0:
340,192,66281,1,0,0:0:0:0:
340,192,66384,5,4,0:2:0:0:
464,128,66798,2,0,P|488:192|464:256,1,140,4|0,0:2|0:0,0:0:0:0:
452,276,67316,1,0,0:0:0:0:
404,368,67626,2,0,P|440:376|472:368,2,70
324,340,68247,6,0,B|288:332|288:332|256:340,1,70,4|0,0:0|0:0,0:0:0:0:
172,340,68660,1,0,0:0:0:0:
172,340,68764,1,0,0:0:0:0:
172,340,68867,2,0,P|104:328|61:276,1,140,4|0,0:0|0:0,0:0:0:0:
48,192,69488,2,0,L|13:201,2,35,8|8|8,0:0|0:0|0:0,0:0:0:0:
132,192,69902,6,0,B|168:200|168:200|200:192,1,70,4|0,0:0|0:0,0:0:0:0:
284,192,70315,1,0,0:0:0:0:
284,192,70419,1,0,0:0:0:0:
284,192,70522,2,0,P|351:203|394:256,1,140,4|0,0:0|0:0,0:0:0:0:
408,340,71143,2,0,L|442:330,2,35,8|8|8,0:0|0:0|0:0,0:0:0:0:
256,192,71557,12,4,74453,0:0:0:0:
160,320,81488,6,0,P|102:284|100:216,1,140,4|2,0:0|0:0,0:0:0:0:
140,144,82109,1,0,0:0:0:0:
208,96,82316,1,0,0:0:0:0:
288,72,82522,2,0,P|324:64|356:72,1,70,0|2,0:0|0:0,0:0:0:0:
436,96,82936,1,0,0:0:0:0:
472,172,83143,6,0,L|481:206,3,35
484,232,83557,2,0,L|484:268,3,35,2|0|0|0,0:0|0:0|0:0|0:0,0:0:0:0:
476,292,83971,2,0,L|458:323,3,35
440,340,84385,2,0,L|408:358,2,35,2|0|0,0:0|0:0|0:0,0:0:0:0:
328,348,84798,5,0,0:0:0:0:
274,283,85005,2,0,P|207:271|159:320,1,140
92,368,85626,1,0,0:0:0:0:
92,368,85833,2,0,P|59:385|26:385,2,70,0|2|0,0:0|0:0|0:0,0:0:0:0:
84,284,86453,6,0,B|66:263|66:263|83:234|83:234|55:225|55:225|74:203|74:203|46:190|46:190|65:168|65:168|38:159|38:159|57:137|57:137|71:96|119:75,1,327.250006241799
144,64,87695,5,0,0:0:0:0:
172,56,87798,1,0,0:0:0:0:
200,52,87902,1,0,0:0:0:0:
228,52,88005,1,0,0:0:0:0:
256,52,88109,6,0,P|323:59|369:109,1,140,4|8,0:0|0:0,0:0:0:0:
392,192,88729,1,0,0:0:0:0:
369,273,88936,2,0,P|324:324|256:332,1,140,0|8,0:0|0:0,0:0:0:0:
176,304,89557,1,0,0:0:0:0:
132,232,89764,5,0,0:0:0:0:
132,232,89867,1,0,0:0:0:0:
132,232,89971,2,0,P|112:200|83:183,1,70,0|8,0:0|0:0,0:0:0:0:
29,120,90385,2,0,P|76:70|144:63,2,140
4,200,91419,6,0,P|15:267|68:310,1,140,0|8,0:0|0:0,0:0:0:0:
152,320,92040,1,0,0:0:0:0:
228,284,92247,2,0,P|236:320|228:352,2,70,0|0|8,0:0|0:0|0:0,0:0:0:0:
188,216,92867,6,0,P|232:61|388:100,1,357.000006809235
428,176,94316,1,8,0:0:0:0:
420,260,94522,1,8,0:0:0:0:
399,281,94626,1,8,0:0:0:0:
372,292,94729,6,0,P|305:309|244:278,1,140,4|8,0:0|0:0,0:0:0:0:
188,216,95350,1,0,0:0:0:0:
132,152,95557,2,0,B|100:180|104:228|104:228|68:272,1,140,0|8,0:0|0:0,0:0:0:0:
44,352,96178,1,0,0:0:0:0:
124,376,96385,5,0,0:0:0:0:
124,376,96488,1,0,0:0:0:0:
124,376,96591,2,0,P|160:382|191:372,1,70,0|8,0:0|0:0,0:0:0:0:
255,317,97005,2,0,P|307:273|372:292,1,140
322,343,97626,2,2,L|292:206,1,140,10|4,0:0|0:2,0:0:0:0:
256,72,98453,5,4,0:2:0:0:
184,116,98660,1,0,0:0:0:0:
188,120,98764,1,0,0:0:0:0:
192,124,98867,2,0,P|256:148|320:124,1,140,4|4,0:2|0:2,0:0:0:0:
256,192,99488,12,4,101143,0:0:0:0:
440,100,107143,6,0,L|458:131,5,35
464,156,107764,6,0,P|452:223|400:266,1,140,4|0,0:0|0:0,0:0:0:0:
320,292,108385,1,8,0:0:0:0:
240,268,108591,2,0,P|171:261|116:301,1,140,8|0,0:0|0:0,0:0:0:0:
48,352,109212,1,8,0:0:0:0:
48,352,109419,1,0,0:0:0:0:
12,276,109626,5,4,0:2:0:0:
48,200,109833,2,0,P|97:153|163:168,2,140,0|8|0,0:0|0:0|0:0,0:0:0:0:
121,242,110867,1,8,0:0:0:0:
121,242,111074,6,0,P|187:257|236:210,1,140
276,136,111695,1,8,0:0:0:0:
274,53,111902,2,0,L|242:34,2,35,8|0|0,0:0|0:0|0:0,0:0:0:0:
348,94,112315,1,0,0:0:0:0:
348,94,112522,1,8,0:0:0:0:
432,88,112729,5,4,0:2:0:0:
496,212,113143,2,0,P|432:236|368:212,1,140,4|0,0:2|0:0,0:0:0:0:
284,220,113764,2,0,P|264:251|235:268,2,70,8|8|4,0:0|0:0|0:3,0:0:0:0:
276,136,114384,1,0,0:0:0:0:
260,116,114488,1,0,0:0:0:0:
240,100,114591,6,0,P|178:69|112:86,1,140,4|8,0:0|0:0,0:0:0:0:
64,156,115212,1,8,0:0:0:0:
79,238,115419,2,0,P|42:236|13:220,2,70,0|0|8,0:0|0:0|0:0,0:0:0:0:
160,216,116039,1,0,0:0:0:0:
160,216,116246,5,4,0:2:0:0:
224,272,116453,2,0,B|253:316|312:295|341:340,2,140,0|8|0,0:0|0:0|0:0,0:0:0:0:
240,188,117487,1,8,0:0:0:0:
276,112,117694,1,0,0:0:0:0:
276,112,117798,1,0,0:0:0:0:
276,112,117902,6,0,P|331:72|399:78,1,140,4|8,0:2|0:0,0:0:0:0:
464,132,118522,1,8,0:0:0:0:
464,132,118626,1,0,0:0:0:0:
464,132,118729,1,0,0:0:0:0:
500,208,118936,2,0,P|508:244|500:276,1,70,0|8,0:0|0:0,0:0:0:0:
440,336,119350,6,0,L|304:299,1,140
224,272,119971,5,8,0:0:0:0:
144,300,120178,2,0,L|153:334,2,35,8|0|0,0:0|0:0|0:0,0:0:0:0:
100,228,120591,1,0,0:0:0:0:
108,144,120798,2,0,B|119:108|119:108|142:85,1,70,8|0,0:0|0:0,0:0:0:0:
220,52,121212,6,0,B|236:80|220:120|220:120|256:180,1,140,4|8,0:2|0:0,0:0:0:0:
292,256,121833,2,0,P|335:308|402:320,1,140,8|0,0:0|0:0,0:0:0:0:
480,288,122453,1,8,0:0:0:0:
512,212,122660,1,0,0:0:0:0:
488,132,122867,5,4,0:2:0:0:
416,176,123074,2,0,P|349:193|288:162,2,140,0|8|0,0:0|0:0|0:0,0:0:0:0:
358,113,124108,1,8,0:0:0:0:
358,113,124315,6,0,P|296:82|230:99,1,140
164,152,124936,1,8,0:0:0:0:
116,220,125143,2,0,L|106:254,2,35,8|0|0,0:0|0:0|0:0,0:0:0:0:
80,144,125557,1,0,0:0:0:0:
16,88,125764,1,8,0:0:0:0:
16,88,125867,1,0,0:0:0:0:
16,88,125970,5,4,0:2:0:0:
164,24,126384,2,0,P|188:88|164:152,1,140,4|0,0:2|0:0,0:0:0:0:
152,172,126902,1,0,0:0:0:0:
84,252,127212,2,0,P|48:263|25:286,2,70
168,240,127833,6,0,B|204:232|204:232|236:240,1,70,4|0,0:0|0:0,0:0:0:0:
320,240,128246,1,0,0:0:0:0:
320,240,128350,1,0,0:0:0:0:
320,240,128453,2,0,P|388:228|431:176,1,140,4|0,0:0|0:0,0:0:0:0:
444,92,129074,2,0,L|479:101,2,35,8|8|8,0:0|0:0|0:0,0:0:0:0:
360,92,129488,6,0,B|324:100|324:100|292:92,1,70,4|0,0:0|0:0,0:0:0:0:
208,92,129901,1,0,0:0:0:0:
208,92,130005,1,0,0:0:0:0:
208,92,130108,2,0,P|141:103|98:156,1,140,4|0,0:0|0:0,0:0:0:0:
84,240,130729,2,0,L|50:230,2,35,8|8|8,0:0|0:0|0:0,0:0:0:0:
256,192,131143,12,4,134039,0:0:0:0:
168,248,134453,5,0,0:0:0:0:
344,136,135074,1,0,0:0:0:0:
256,192,135488,1,0,0:0:0:0:
256,192,135902,2,0,B|236:136|236:136|256:80,1,119.000002269745
460,40,136936,5,2,0:3:0:0:
460,40,137040,1,2,0:3:0:0:
460,40,137143,1,8,0:3:0:0:
460,40,137247,1,8,0:3:0:0:
460,40,137350,1,4,0:3:0:0:
492,176,137764,6,0,P|480:243|428:286,1,140,4|8,0:0|0:0,0:0:0:0:
348,316,138384,1,0,0:0:0:0:
264,332,138591,2,0,B|216:348|180:316|180:316|132:328,1,140,0|8,0:0|0:0,0:0:0:0:
48,316,139212,1,0,0:0:0:0:
4,244,139419,6,0,P|-4:208|4:176,2,70,0|0|8,0:0|0:0|0:0,0:0:0:0:
48,316,140040,2,2,B|84:292|88:256|88:256|136:208,1,140
200,156,140660,1,10,0:0:0:0:
280,184,140867,1,2,0:0:0:0:
362,166,141074,6,0,P|329:106|261:100,1,140,4|8,0:0|0:0,0:0:0:0:
200,156,141695,1,0,0:0:0:0:
136,100,141902,2,0,P|69:106|36:165,1,140,0|8,0:0|0:0,0:0:0:0:
56,248,142522,1,0,0:0:0:0:
83,327,142729,6,0,P|46:331|15:319,2,70,0|0|8,0:0|0:0|0:0,0:0:0:0:
164,304,143350,2,2,B|213:308|245:270|245:270|292:278,1,140,2|2,0:0|0:0,0:0:0:0:
372,304,143971,1,10,0:0:0:0:
372,304,144177,1,2,0:0:0:0:
452,328,144384,6,0,P|491:272|485:204,1,140,4|8,0:0|0:0,0:0:0:0:
424,144,145005,1,0,0:0:0:0:
344,172,145212,2,0,P|275:178|220:138,1,140,0|8,0:0|0:0,0:0:0:0:
164,76,145833,1,0,0:0:0:0:
92,32,146040,6,0,P|56:24|24:32,2,70,0|0|8,0:0|0:0|0:0,0:0:0:0:
164,76,146660,2,2,L|94:197,1,140
76,280,147281,1,10,0:0:0:0:
120,352,147488,1,2,0:0:0:0:
196,316,147695,6,0,B|236:292|276:308|276:308|332:300,1,140,4|8,0:0|0:0,0:0:0:0:
416,312,148315,1,0,0:0:0:0:
500,300,148522,2,0,P|488:264|466:241,1,70
396,192,148936,1,8,0:0:0:0:
396,192,149040,1,0,0:0:0:0:
396,192,149143,1,0,0:0:0:0:
316,168,149350,5,4,0:2:0:0:
232,159,149764,1,4,0:2:0:0:
148,150,150177,1,4,0:2:0:0:
65,141,150591,1,4,0:2:0:0:
