osu file format v9

[General]
AudioFilename: 33 Of Monsters And Men - Little Talks - Kopie.mp3
AudioLeadIn: 0
PreviewTime: -1
Countdown: 1
SampleSet: Normal
StackLeniency: 0.7
Mode: 0
LetterboxInBreaks: 1

[Editor]
Bookmarks: 0
DistanceSpacing: 0.8
BeatDivisor: 6
GridSize: 32

[Metadata]
Title:Little Talks
Artist:Of Monsters And Men
Creator:gelala1999
Version:Normal
Source:
Tags:Little Talks

[Difficulty]
HPDrainRate:5
CircleSize:5
OverallDifficulty:5
ApproachRate:5
SliderMultiplier:1.6
SliderTickRate:2

[Events]
//Background and Video events
0,0,"of-monsters-and-men-little-talks-L-Vr45oE.jpg"
//Break Periods
2,3948,4787
//Storyboard Layer 0 (Background)
//Storyboard Layer 1 (Fail)
//Storyboard Layer 2 (Pass)
//Storyboard Layer 3 (Foreground)
//Storyboard Sound Samples
//Background Colour Transformations
3,100,163,162,255

[TimingPoints]
1360.82178217822,596.959405940595,4,1,0,100,1,0

[Colours]
Combo1 : 62,152,242
Combo2 : 157,245,10
Combo3 : 157,82,241
Combo4 : 126,237,199
Combo5 : 249,159,26

[HitObjects]
64,64,943,1,0
352,256,2703,1,0
160,192,3748,1,0
128,32,5987,5,0
320,128,7031,1,0
160,192,7927,1,0
128,96,8375,1,0
256,64,8972,1,0
320,160,9569,1,0
224,224,10165,1,0
128,160,11061,1,0
224,128,12106,1,0
320,160,13300,1,0
192,96,14046,6,0,B|416:96|288:224|448:64,1,280
352,128,15389,2,0,B|224:224,2,160
192,96,18672,2,0,B|352:192,3,160
32,32,21955,1,0
160,64,23000,1,0
256,224,24045,1,0
416,64,25089,1,0
256,128,25985,1,0
192,256,26731,1,0
256,192,29268,12,0,31496
128,96,32701,6,0,B|288:192,2,160
288,64,35089,2,0,B|128:160,2,160
224,96,36879,2,0,B|224:224,3,120
352,96,39118,2,0,B|192:192,1,160
64,64,40909,2,0,B|256:192,1,200
128,0,43744,2,0,B|256:128|96:224,3,240
320,96,47923,2,0,B|160:224,2,200
160,96,50311,2,0,B|320:224,1,200
192,96,51953,2,0,B|352:160,1,160
384,192,52848,1,0
320,160,53296,1,0
128,192,54191,1,0
416,352,55684,1,0
352,64,57027,1,0
192,224,58071,1,0
224,128,59265,1,0
32,320,60459,1,0
256,224,61653,1,0
128,224,62996,1,0
448,128,64638,1,0
224,224,65832,1,0
352,128,66578,1,0
416,128,68220,2,0,B|320:224,1,120
320,128,69115,6,0,B|160:192|416:288|128:320,1,320
128,128,71652,6,0,B|288:224|384:64|384:256|352:320|352:384|224:64|160:288|384:32,4,600
288,96,81353,2,0,B|192:224|128:96|352:256,1,280
448,128,84338,2,0,B|192:224|192:224|224:224,3,280
96,64,88964,2,0,B|320:64,1,200
224,96,90009,1,0
416,160,90904,1,0
192,224,91949,1,0
320,0,93143,1,0
224,160,93889,1,0
320,256,94486,1,0
128,128,95531,2,0,B|320:96|320:64|288:256|448:64,1,360
96,64,97769,2,0,B|288:160|224:192,3,200
320,64,101351,2,0,B|192:160|352:192,2,200
160,64,103590,2,0,B|448:288,1,360
480,64,105828,2,0,B|128:256,1,400
96,160,107768,1,0
256,256,108515,1,0
352,128,109261,1,0
224,160,109858,1,0
256,64,110305,1,0
256,192,111798,12,0,115231
384,256,116573,6,0,B|192:128,1,200
256,96,117767,2,0,B|384:64,1,120
160,160,119111,2,0,B|96:32,1,120
256,224,120603,1,0
224,32,121498,1,0
160,160,122095,1,0
288,160,122692,1,0
288,288,123289,1,0
160,256,123886,1,0
320,128,124931,1,0
192,96,125528,1,0
256,192,126125,1,0
128,256,126722,1,0
256,256,127319,1,0
352,160,127916,1,0
256,128,128513,1,0
160,64,128960,1,0
256,192,130005,12,0,133887
192,160,134781,5,0
320,96,135825,1,0
352,192,136572,1,0
64,32,138064,2,0,B|224:160,1,200
352,96,139407,2,0,B|192:224,1,200
160,96,140750,2,0,B|256:256,1,160
160,128,142840,1,0
288,96,143437,1,0
288,224,144183,1,0
192,192,144780,1,0
416,96,145974,2,0,B|320:256,1,160
288,256,146869,6,0,B|96:256,1,160
320,64,147466,1,0
192,160,148212,1,0
128,128,149406,2,0,B|288:224,2,160
352,256,154779,2,0,B|192:160,1,160
96,128,156421,1,0
256,96,157167,1,0
224,224,157764,1,0
96,224,158361,1,0
320,160,159405,1,0
160,128,161644,1,0
288,96,162241,1,0
32,64,163435,2,0,B|256:160,1,240
288,128,164479,2,0,B|256:288,1,160
192,32,166270,1,0
160,256,168360,1,0
256,192,168807,1,0
128,96,169554,1,0
224,96,170001,1,0
288,192,170598,1,0
320,96,171941,2,0,B|256:224,1,120
192,224,173732,2,0,B|288:256,2,80
224,32,175225,5,0
160,192,175971,1,0
288,224,176568,1,0
384,128,177165,1,0
224,224,178060,1,0
160,128,179851,1,0
256,192,180299,1,0
192,256,180747,1,0
288,224,181194,1,0
224,128,181791,1,0
384,256,182687,1,0
224,288,183433,1,0
288,192,183881,1,0
192,128,184478,1,0
128,224,184925,1,0
256,224,185522,1,0
352,128,186119,1,0
128,128,187164,2,0,B|352:256,1,240
352,192,188358,2,0,B|128:288,1,240
160,160,189999,2,0,B|352:256,1,200
352,128,191193,2,0,B|96:288,1,280
128,96,193581,1,0
256,96,194178,1,0
288,224,194775,1,0
128,256,195521,1,0
352,160,196566,1,0
224,96,197312,1,0
160,192,197909,1,0
256,224,198357,1,0
64,96,199402,2,0,B|256:256,1,240
256,224,200446,2,0,B|224:288,6,40
256,192,202536,12,0,204177
160,96,205371,6,0,B|320:192,1,160
384,64,206565,2,0,B|256:256,1,200
160,128,208058,2,0,B|224:256,1,120
320,128,209251,2,0,B|128:128|192:256,4,200
192,96,212833,2,0,B|288:224,1,160
352,96,214027,2,0,B|192:256,1,200
384,192,215669,1,0
288,224,216116,1,0
224,96,216863,1,0
128,192,217460,1,0
224,256,218057,1,0
352,224,218654,1,0
352,96,219251,1,0
224,96,219847,1,0
128,160,220444,1,0
192,256,221041,1,0
288,256,221489,1,0
352,160,222086,1,0
256,96,222683,1,0
192,192,223280,1,0
416,64,224175,2,0,B|288:224,1,200
224,160,224922,2,0,B|288:288,2,120
320,96,226265,2,0,B|160:128,1,160
192,96,228056,1,0
320,160,228802,1,0
192,224,229399,1,0
128,96,229996,1,0
256,96,230593,1,0
352,192,231190,1,0
256,224,231936,1,0
384,256,232533,2,0,B|128:192,1,240
160,96,233876,6,0,B|256:256,1,160
320,128,235070,2,0,B|192:224,1,160
288,256,236115,2,0,B|192:96,1,160
160,288,237607,2,0,B|352:96,1,240
224,96,239099,2,0,B|352:256,1,200
352,160,240293,2,0,B|160:192,1,160
128,64,241636,2,0,B|320:192,1,200
352,96,243129,2,0,B|224:224,1,160
256,192,244771,12,0,245368
160,192,246114,5,0
288,128,246711,1,0
320,288,247457,1,0
160,224,248203,1,0
288,128,248949,1,0
256,192,250442,12,0,252531
256,192,255964,12,0,259844
