osu file format v13

[General]
AudioFilename: Song.mp3
AudioLeadIn: 0
PreviewTime: -1
Countdown: 1
SampleSet: Normal
StackLeniency: 0.7
Mode: 0
LetterboxInBreaks: 1
WidescreenStoryboard: 0

[Editor]
DistanceSpacing: 1.3
BeatDivisor: 4
GridSize: 4
TimelineZoom: 1

[Metadata]
Title:Nyanpaia Taicore
TitleUnicode:Nyanpaia Taicore
Artist:Odaxelagnia (Feat Nerosha)
ArtistUnicode:Odaxelagnia (Feat Nerosha)
Creator:Suzuki
Version:SuzuStyle
Source:
Tags:why
BeatmapID:479155
BeatmapSetID:202565

[Difficulty]
HPDrainRate:5
CircleSize:4.5
OverallDifficulty:8
ApproachRate:9.5
SliderMultiplier:1.3
SliderTickRate:2

[Events]
//Background and Video events
0,0,"BG.jpg",0,0
//Break Periods
//Storyboard Layer 0 (Background)
//Storyboard Layer 1 (Fail)
//Storyboard Layer 2 (Pass)
//Storyboard Layer 3 (Foreground)
//Storyboard Sound Samples
//Background Colour Transformations
3,100,163,162,255

[TimingPoints]
341,250,4,1,0,100,1,0

[HitObjects]
312,100,7591,6,0,P|368:48|416:104,1,162.5
415,98,7966,5,0,0:0:0:0:
415,117,8028,1,0,0:0:0:0:
415,136,8091,1,0,0:0:0:0:
415,154,8153,1,0,0:0:0:0:
415,173,8216,1,0,0:0:0:0:
415,191,8278,1,0,0:0:0:0:
415,210,8341,1,0,0:0:0:0:
415,228,8403,1,0,0:0:0:0:
416,232,8466,6,0,L|440:260,7,32.5,0|0|0|0|0|0|0|0,0:0|0:0|0:0|0:0|0:0|0:0|0:0|0:0,0:0:0:0:
437,256,8966,5,0,0:0:0:0:
441,274,9028,1,0,0:0:0:0:
439,292,9091,1,0,0:0:0:0:
430,309,9153,1,0,0:0:0:0:
416,320,9216,1,0,0:0:0:0:
399,326,9278,1,0,0:0:0:0:
380,325,9341,1,0,0:0:0:0:
364,317,9403,1,0,0:0:0:0:
360,316,9466,6,0,L|336:288,8,32.5,0|0|0|0|0|0|0|0|0,0:0|0:0|0:0|0:0|0:0|0:0|0:0|0:0|0:0,0:0:0:0:
338,291,10028,5,0,0:0:0:0:
326,277,10090,1,0,0:0:0:0:
315,262,10153,1,0,0:0:0:0:
303,248,10215,1,0,0:0:0:0:
291,234,10278,1,0,0:0:0:0:
279,220,10340,1,0,0:0:0:0:
267,205,10403,1,0,0:0:0:0:
255,191,10465,1,0,0:0:0:0:
256,188,10528,6,0,B|280:160|280:160|312:176,3,65,0|0|0|0,0:0|0:0|0:0|0:0,0:0:0:0:
256,188,11028,2,0,B|224:200|224:200|224:236,3,65,0|0|0|0,0:0|0:0|0:0|0:0,0:0:0:0:
256,188,11466,2,0,L|232:160,4,32.5,0|0|0|0|0,0:0|0:0|0:0|0:0|0:0,0:0:0:0:
256,188,11778,2,0,L|320:160,1,65
315,161,12028,5,0,0:0:0:0:
396,80,12153,1,0,0:0:0:0:
256,40,12278,1,0,0:0:0:0:
104,80,12403,1,0,0:0:0:0:
116,232,12591,2,0,L|144:260,5,32.5,0|0|0|0|0|0,0:0|0:0|0:0|0:0|0:0|0:0,0:0:0:0:
138,254,12966,6,0,L|164:280,1,32.5
456,340,13153,1,0,0:0:0:0:
40,36,13278,1,0,0:0:0:0:
256,40,13403,1,0,0:0:0:0:
360,152,13528,1,0,0:0:0:0:
256,192,13653,2,0,L|280:168,6,32.5,0|0|0|0|0|0|0,0:0|0:0|0:0|0:0|0:0|0:0|0:0,0:0:0:0:
256,192,14091,6,0,L|224:164,6,32.5,0|0|0|0|0|0|0,0:0|0:0|0:0|0:0|0:0|0:0|0:0,0:0:0:0:
256,192,14528,5,0,0:0:0:0:
227,206,14590,1,0,0:0:0:0:
208,232,14653,1,0,0:0:0:0:
204,264,14715,1,0,0:0:0:0:
215,295,14778,1,0,0:0:0:0:
238,316,14840,1,0,0:0:0:0:
270,325,14903,1,0,0:0:0:0:
301,318,14965,1,0,0:0:0:0:
304,316,15028,6,0,L|320:276,7,32.5,0|0|0|0|0|0|0|0,0:0|0:0|0:0|0:0|0:0|0:0|0:0|0:0,0:0:0:0:
316,285,15528,2,0,L|352:288,1,32.5
468,136,15716,1,8,0:0:0:0:
476,116,15841,1,8,0:0:0:0:
284,104,16028,5,8,0:0:0:0:
272,80,16153,1,8,0:0:0:0:
112,136,16278,5,8,0:0:0:0:
92,112,16403,1,8,0:0:0:0:
368,200,16528,6,0,L|384:232,2,32.5,0|0|0,0:0|0:0|0:0,0:0:0:0:
192,212,16778,2,0,L|176:240,2,32.5,0|0|0,0:0|0:0|0:0,0:0:0:0:
192,212,17028,5,0,0:0:0:0:
206,175,17090,1,0,0:0:0:0:
231,146,17153,1,0,0:0:0:0:
264,126,17215,1,0,0:0:0:0:
302,117,17278,1,0,0:0:0:0:
341,121,17340,1,0,0:0:0:0:
341,121,17403,2,0,L|380:144,7,32.5,0|0|0|0|0|0|0|0,0:0|0:0|0:0|0:0|0:0|0:0|0:0|0:0,0:0:0:0:
88,72,17966,5,0,0:0:0:0:
64,52,18091,1,0,0:0:0:0:
360,224,18216,5,0,0:0:0:0:
388,236,18341,1,0,0:0:0:0:
124,256,18466,5,0,0:0:0:0:
100,276,18591,1,0,0:0:0:0:
272,80,18716,5,0,0:0:0:0:
292,60,18841,1,0,0:0:0:0:
344,136,18966,5,0,0:0:0:0:
368,136,19091,1,0,0:0:0:0:
172,184,19216,5,0,0:0:0:0:
164,192,19341,1,0,0:0:0:0:
336,192,19466,5,0,0:0:0:0:
348,204,19591,1,0,0:0:0:0:
372,60,19716,6,0,L|400:80,7,32.5,0|0|0|0|0|0|0|0,0:0|0:0|0:0|0:0|0:0|0:0|0:0|0:0,0:0:0:0:
398,78,20216,5,0,0:0:0:0:
418,94,20278,1,0,0:0:0:0:
431,117,20341,1,0,0:0:0:0:
432,143,20403,1,0,0:0:0:0:
423,167,20466,1,0,0:0:0:0:
405,185,20528,1,0,0:0:0:0:
405,185,20591,6,0,L|424:216,1,32.5
80,64,20778,5,0,0:0:0:0:
64,48,20903,1,0,0:0:0:0:
320,288,21028,5,0,0:0:0:0:
312,280,21153,1,0,0:0:0:0:
256,192,21278,5,0,0:0:0:0:
256,192,21341,1,0,0:0:0:0:
256,192,21403,1,0,0:0:0:0:
108,176,21528,6,0,P|72:192|80:228,1,65
324,76,21841,2,0,P|360:68|388:100,1,65
172,136,22153,2,0,L|136:204,1,65
328,144,22466,2,0,L|388:196,1,65
100,68,22778,5,0,0:0:0:0:
72,64,22903,1,0,0:0:0:0:
328,232,23091,5,0,0:0:0:0:
388,272,23216,1,0,0:0:0:0:
124,232,23403,5,0,0:0:0:0:
64,184,23528,1,0,0:0:0:0:
300,60,23591,6,0,L|336:72,3,32.5,0|0|0|0,0:0|0:0|0:0|0:0,0:0:0:0:
330,70,23903,5,8,0:0:0:0:
148,108,24028,6,0,B|112:116|112:100|112:100|136:84|104:160,1,97.5
340,136,24341,2,0,L|400:172,2,65,0|0|0,0:0|0:0|0:0,0:0:0:0:
220,264,24716,1,0,0:0:0:0:
220,264,24778,2,0,P|144:308|124:264,1,130
130,293,25091,1,0,0:0:0:0:
336,244,25216,6,2,L|368:264,3,32.5,0|0|0|0,0:0|0:0|0:0|0:0,0:0:0:0:
120,72,25528,6,0,L|68:28,1,65
328,88,25778,2,0,L|392:40,1,65
300,184,26028,2,0,P|252:140|208:192,1,130
344,72,26403,5,0,0:0:0:0:
375,77,26465,1,0,0:0:0:0:
403,94,26528,1,0,0:0:0:0:
421,121,26590,1,0,0:0:0:0:
429,152,26653,1,0,0:0:0:0:
424,184,26715,1,0,0:0:0:0:
407,212,26778,1,0,0:0:0:0:
407,212,26903,6,0,B|448:228|448:228|476:212,1,65
407,212,27153,2,0,B|372:200|372:200|360:172,1,65
407,212,27403,2,0,L|384:272,2,65,0|0|0,0:0|0:0|0:0,0:0:0:0:
407,212,27778,1,0,0:0:0:0:
112,64,27903,1,0,0:0:0:0:
72,44,28028,1,0,0:0:0:0:
352,64,28153,5,0,0:0:0:0:
404,52,28278,1,0,0:0:0:0:
308,144,28403,5,0,0:0:0:0:
200,244,28528,1,0,0:0:0:0:
200,144,28653,1,0,0:0:0:0:
308,240,28778,1,0,0:0:0:0:
256,144,28903,6,0,B|256:244|256:244|256:204,1,130
256,192,29278,12,0,29528,0:0:0:0:
436,192,29653,5,0,0:0:0:0:
410,171,29715,1,0,0:0:0:0:
384,151,29778,1,0,0:0:0:0:
363,168,29840,1,0,0:0:0:0:
344,194,29903,1,0,0:0:0:0:
326,178,29965,1,0,0:0:0:0:
308,151,30028,1,0,0:0:0:0:
288,162,30090,1,0,0:0:0:0:
268,188,30153,1,0,0:0:0:0:
249,193,30215,1,0,0:0:0:0:
230,167,30278,1,0,0:0:0:0:
212,140,30340,1,0,0:0:0:0:
193,165,30403,1,0,0:0:0:0:
173,192,30465,1,0,0:0:0:0:
155,181,30528,1,0,0:0:0:0:
136,154,30590,1,0,0:0:0:0:
118,127,30653,1,0,0:0:0:0:
103,149,30715,1,0,0:0:0:0:
404,72,30841,5,0,0:0:0:0:
424,56,30966,1,0,0:0:0:0:
160,48,31153,2,0,P|96:32|64:60,1,97.5
52,156,31528,1,0,0:0:0:0:
60,176,31653,1,0,0:0:0:0:
324,228,31778,5,0,0:0:0:0:
348,208,31903,1,0,0:0:0:0:
264,116,32028,1,0,0:0:0:0:
264,116,32091,2,0,P|184:112|160:164,1,130
161,147,32403,1,0,0:0:0:0:
161,147,32528,6,0,B|188:212|188:212|128:248|128:248|184:212,1,195
174,218,32966,1,0,0:0:0:0:
164,244,33091,1,0,0:0:0:0:
164,244,33153,6,0,L|208:272,3,32.5,0|0|0|0,0:0|0:0|0:0|0:0,0:0:0:0:
360,212,33466,6,0,L|340:240,1,32.5
341,238,33591,2,0,L|320:268,1,32.5
341,238,33716,2,0,L|376:264,1,32.5
341,238,33841,2,0,L|312:216,1,32.5
376,152,34028,6,0,P|424:96|376:76,1,130
396,75,34403,1,0,0:0:0:0:
373,70,34465,1,0,0:0:0:0:
350,66,34528,1,0,0:0:0:0:
327,62,34590,1,0,0:0:0:0:
304,58,34653,1,0,0:0:0:0:
285,63,34715,1,0,0:0:0:0:
269,80,34778,1,0,0:0:0:0:
253,97,34840,1,0,0:0:0:0:
252,100,34903,6,0,B|284:120|284:120|304:96,1,65
252,100,35091,2,0,B|224:76|224:76|248:44,1,65
253,97,35278,2,0,B|224:124|224:124|236:136|236:136|224:144|224:144|216:132|216:132|240:112,2,97.5,0|0|0,0:0|0:0|0:0,0:0:0:0:
253,97,35778,5,0,0:0:0:0:
286,100,35840,1,0,0:0:0:0:
318,102,35903,1,0,0:0:0:0:
343,116,35965,1,0,0:0:0:0:
359,144,36028,1,0,0:0:0:0:
359,144,36153,6,0,P|400:176|360:236,1,130
366,234,36466,1,0,0:0:0:0:
366,234,36528,2,0,P|296:200|364:144,1,195
359,144,36966,1,0,0:0:0:0:
132,88,37091,5,0,0:0:0:0:
416,64,37216,1,0,0:0:0:0:
272,92,37341,1,0,0:0:0:0:
184,192,37466,1,0,0:0:0:0:
416,64,37591,1,4,0:0:0:0:
140,276,37716,5,0,0:0:0:0:
128,288,37841,1,0,0:0:0:0:
320,196,37966,1,0,0:0:0:0:
336,212,38091,1,0,0:0:0:0:
196,72,38216,5,0,0:0:0:0:
180,60,38341,1,0,0:0:0:0:
108,164,38466,1,0,0:0:0:0:
88,152,38591,1,0,0:0:0:0:
316,120,38841,5,0,0:0:0:0:
336,124,38966,1,0,0:0:0:0:
184,224,39216,1,0,0:0:0:0:
168,232,39341,1,0,0:0:0:0:
408,60,39528,6,0,L|440:76,7,32.5,0|0|0|0|0|0|0|0,0:0|0:0|0:0|0:0|0:0|0:0|0:0|0:0,0:0:0:0:
164,76,40153,6,0,L|136:96,7,32.5,0|0|0|0|0|0|0|0,0:0|0:0|0:0|0:0|0:0|0:0|0:0|0:0,0:0:0:0:
304,136,40778,5,0,0:0:0:0:
312,120,40903,1,0,0:0:0:0:
200,220,41028,1,0,0:0:0:0:
188,236,41153,1,0,0:0:0:0:
372,236,41341,6,2,B|376:236|376:236|376:240|376:240|384:240|384:240|388:256|388:256|404:248|404:248|416:264|416:264|440:252|440:252|432:240|432:240|420:240|420:240|416:228|416:228,1,130
416,132,41716,5,0,0:0:0:0:
388,114,41778,1,0,0:0:0:0:
358,101,41841,1,0,0:0:0:0:
326,96,41903,1,0,0:0:0:0:
294,97,41966,1,0,0:0:0:0:
262,104,42028,1,0,0:0:0:0:
232,117,42091,1,0,0:0:0:0:
204,114,42153,1,0,0:0:0:0:
176,98,42216,1,0,0:0:0:0:
124,204,42403,5,0,0:0:0:0:
148,224,42465,1,0,0:0:0:0:
173,245,42528,1,0,0:0:0:0:
198,266,42590,1,0,0:0:0:0:
223,287,42653,1,0,0:0:0:0:
250,279,42715,1,0,0:0:0:0:
282,274,42778,1,0,0:0:0:0:
313,284,42840,1,0,0:0:0:0:
337,305,42903,1,0,0:0:0:0:
