osu file format v14

[General]
AudioFilename: Geometry Dash - Stay Inside Me.mp3
AudioLeadIn: 0
PreviewTime: 13651
Countdown: 0
SampleSet: Soft
StackLeniency: 0.7
Mode: 3
LetterboxInBreaks: 0
SpecialStyle: 0
WidescreenStoryboard: 0

[Editor]
DistanceSpacing: 1
BeatDivisor: 4
GridSize: 32
TimelineZoom: 1.2

[Metadata]
Title:Stay Inside Me
TitleUnicode:Stay Inside Me
Artist:OcularNebula
ArtistUnicode:OcularNebula
Creator:Janko
Version:MX
Source:Geometry Dash
Tags:Newgrounds ost streeteelf electro BGM WeoWeoTeo Fast as Lightning
BeatmapID:717551
BeatmapSetID:303763

[Difficulty]
HPDrainRate:8
CircleSize:4
OverallDifficulty:8
ApproachRate:5
SliderMultiplier:1.6
SliderTickRate:1

[Events]
//Background and Video events
0,0,"tlo.jpg",0,0
//Break Periods
//Storyboard Layer 0 (Background)
//Storyboard Layer 1 (Fail)
//Storyboard Layer 2 (Pass)
//Storyboard Layer 3 (Foreground)
//Storyboard Sound Samples

[TimingPoints]
132,468.75,4,2,0,20,1,0
15132,-100,4,2,0,20,0,1
30132,-100,4,2,0,20,0,0
44615,-100,4,2,0,10,0,0

[HitObjects]
448,192,132,5,0,0:0:0:0:
64,192,132,1,0,0:0:0:0:
320,192,132,1,0,0:0:0:0:
192,192,366,1,2,0:0:0:0:
320,192,483,1,2,0:0:0:0:
448,192,600,1,0,0:0:0:0:
192,192,600,1,0,0:0:0:0:
64,192,600,1,0,0:0:0:0:
448,192,835,1,2,0:0:0:0:
320,192,952,1,2,0:0:0:0:
192,192,1069,1,0,0:0:0:0:
64,192,1069,1,0,0:0:0:0:
448,192,1069,1,0,0:0:0:0:
320,192,1186,1,2,0:0:0:0:
448,192,1303,1,2,0:0:0:0:
64,192,1538,1,0,0:0:0:0:
192,192,1538,1,0,0:0:0:0:
320,192,1538,1,0,0:0:0:0:
448,192,1772,1,0,0:0:0:0:
64,192,1772,1,0,0:0:0:0:
448,192,2007,1,0,0:0:0:0:
320,192,2007,1,0,0:0:0:0:
192,192,2007,1,0,0:0:0:0:
64,192,2241,1,2,0:0:0:0:
192,192,2358,1,2,0:0:0:0:
320,192,2475,1,0,0:0:0:0:
448,192,2475,1,0,0:0:0:0:
64,192,2475,1,0,0:0:0:0:
192,192,2710,1,2,0:0:0:0:
64,192,2827,1,2,0:0:0:0:
448,192,2944,1,0,0:0:0:0:
192,192,2944,1,0,0:0:0:0:
64,192,3061,1,2,0:0:0:0:
192,192,3178,1,2,0:0:0:0:
448,192,3413,1,0,0:0:0:0:
320,192,3413,1,0,0:0:0:0:
192,192,3647,1,0,0:0:0:0:
64,192,3647,1,0,0:0:0:0:
320,192,3882,1,0,0:0:0:0:
64,192,3882,1,0,0:0:0:0:
448,192,3882,1,0,0:0:0:0:
192,192,4116,1,2,0:0:0:0:
320,192,4233,1,2,0:0:0:0:
448,192,4350,1,0,0:0:0:0:
64,192,4350,1,0,0:0:0:0:
320,192,4585,1,2,0:0:0:0:
192,192,4702,1,2,0:0:0:0:
64,192,4819,1,0,0:0:0:0:
448,192,4819,1,0,0:0:0:0:
192,192,4936,1,2,0:0:0:0:
320,192,5053,1,2,0:0:0:0:
192,192,5288,1,0,0:0:0:0:
64,192,5288,1,0,0:0:0:0:
448,192,5522,1,0,0:0:0:0:
320,192,5522,1,0,0:0:0:0:
320,192,5757,1,0,0:0:0:0:
192,192,5757,1,0,0:0:0:0:
64,192,5757,1,0,0:0:0:0:
448,192,5991,1,2,0:0:0:0:
192,192,6108,1,2,0:0:0:0:
320,192,6225,1,0,0:0:0:0:
64,192,6225,1,0,0:0:0:0:
448,192,6460,1,2,0:0:0:0:
192,192,6577,1,2,0:0:0:0:
448,192,6694,1,0,0:0:0:0:
64,192,6694,1,0,0:0:0:0:
320,192,6811,1,2,0:0:0:0:
64,192,6928,1,2,0:0:0:0:
448,192,7163,1,0,0:0:0:0:
192,192,7163,1,0,0:0:0:0:
64,192,7397,1,0,0:0:0:0:
320,192,7397,1,0,0:0:0:0:
448,192,7632,1,0,0:0:0:0:
320,192,7632,1,0,0:0:0:0:
192,192,7632,1,0,0:0:0:0:
64,192,7866,1,2,0:0:0:0:
192,192,7983,1,2,0:0:0:0:
448,192,8100,1,0,0:0:0:0:
320,192,8100,1,0,0:0:0:0:
64,192,8335,1,2,0:0:0:0:
320,192,8452,1,2,0:0:0:0:
448,192,8569,1,0,0:0:0:0:
64,192,8569,1,0,0:0:0:0:
192,192,8686,1,2,0:0:0:0:
320,192,8803,1,2,0:0:0:0:
64,192,9038,1,0,0:0:0:0:
320,192,9038,1,0,0:0:0:0:
192,192,9272,1,2,0:0:0:0:
448,192,9272,1,2,0:0:0:0:
64,192,9507,1,0,0:0:0:0:
192,192,9507,1,0,0:0:0:0:
448,192,9507,1,0,0:0:0:0:
320,192,9741,1,2,0:0:0:0:
192,192,9858,1,2,0:0:0:0:
448,192,9975,1,0,0:0:0:0:
320,192,9975,1,0,0:0:0:0:
64,192,10210,1,2,0:0:0:0:
192,192,10327,1,2,0:0:0:0:
448,192,10444,1,0,0:0:0:0:
320,192,10444,1,0,0:0:0:0:
64,192,10444,1,0,0:0:0:0:
192,192,10561,1,2,0:0:0:0:
64,192,10678,1,2,0:0:0:0:
320,192,10913,1,0,0:0:0:0:
192,192,10913,1,0,0:0:0:0:
448,192,11147,1,0,0:0:0:0:
320,192,11147,1,0,0:0:0:0:
64,192,11264,1,2,0:0:0:0:
192,192,11382,1,0,0:0:0:0:
320,192,11382,1,0,0:0:0:0:
448,192,11382,1,0,0:0:0:0:
64,192,11499,1,2,0:0:0:0:
448,192,11616,1,2,0:0:0:0:
64,192,11733,1,2,0:0:0:0:
320,192,11850,1,0,0:0:0:0:
192,192,11850,1,0,0:0:0:0:
64,192,12085,1,2,0:0:0:0:
448,192,12202,1,2,0:0:0:0:
320,192,12319,1,0,0:0:0:0:
192,192,12319,1,0,0:0:0:0:
448,192,12436,1,2,0:0:0:0:
64,192,12553,1,2,0:0:0:0:
448,192,12788,1,0,0:0:0:0:
192,192,12788,1,0,0:0:0:0:
64,192,13022,1,0,0:0:0:0:
192,192,13022,1,0,0:0:0:0:
320,192,13139,1,2,0:0:0:0:
448,192,13257,1,0,0:0:0:0:
64,192,13257,1,0,0:0:0:0:
192,192,13257,1,0,0:0:0:0:
448,192,13491,1,2,0:0:0:0:
320,192,13725,1,0,0:0:0:0:
192,192,13725,1,0,0:0:0:0:
448,192,13842,1,2,0:0:0:0:
320,192,13960,1,2,0:0:0:0:
192,192,14077,1,2,0:0:0:0:
448,192,14194,1,0,0:0:0:0:
64,192,14194,1,0,0:0:0:0:
192,192,14311,1,2,0:0:0:0:
320,192,14428,1,2,0:0:0:0:
64,192,14546,1,2,0:0:0:0:
448,192,14663,1,0,0:0:0:0:
192,192,14780,1,2,0:0:0:0:
64,192,14897,1,2,0:0:0:0:
192,192,15014,1,2,0:0:0:0:
320,192,15132,1,0,0:0:0:0:
448,192,15132,1,0,0:0:0:0:
64,192,15132,1,0,0:0:0:0:
192,192,15249,1,2,0:0:0:0:
64,192,15366,1,2,0:0:0:0:
448,192,15483,1,2,0:0:0:0:
320,192,15600,1,0,0:0:0:0:
192,192,15600,1,0,0:0:0:0:
448,192,15717,1,2,0:0:0:0:
320,192,15835,1,2,0:0:0:0:
192,192,15952,1,2,0:0:0:0:
320,192,16069,1,0,0:0:0:0:
64,192,16069,1,0,0:0:0:0:
192,192,16186,1,2,0:0:0:0:
320,192,16303,1,2,0:0:0:0:
448,192,16421,1,2,0:0:0:0:
64,192,16538,1,0,0:0:0:0:
192,192,16538,1,0,0:0:0:0:
320,192,16772,1,2,0:0:0:0:
448,192,16889,1,2,0:0:0:0:
320,192,17007,1,0,0:0:0:0:
192,192,17007,1,0,0:0:0:0:
64,192,17007,1,0,0:0:0:0:
448,192,17124,1,2,0:0:0:0:
320,192,17241,1,2,0:0:0:0:
192,192,17475,1,0,0:0:0:0:
64,192,17475,1,0,0:0:0:0:
320,192,17592,1,2,0:0:0:0:
448,192,17710,1,2,0:0:0:0:
320,192,17827,1,2,0:0:0:0:
448,192,17944,1,0,0:0:0:0:
192,192,17944,1,0,0:0:0:0:
64,192,18061,1,2,0:0:0:0:
448,192,18178,1,2,0:0:0:0:
64,192,18296,1,2,0:0:0:0:
320,192,18413,1,0,0:0:0:0:
192,192,18413,1,0,0:0:0:0:
64,192,18647,1,2,0:0:0:0:
192,192,18764,1,2,0:0:0:0:
64,192,18882,1,0,0:0:0:0:
320,192,18882,1,0,0:0:0:0:
448,192,18882,1,0,0:0:0:0:
192,192,18999,1,2,0:0:0:0:
64,192,19116,1,2,0:0:0:0:
448,192,19350,1,0,0:0:0:0:
192,192,19350,1,0,0:0:0:0:
64,192,19467,1,2,0:0:0:0:
320,192,19585,1,2,0:0:0:0:
64,192,19702,1,2,0:0:0:0:
192,192,19819,1,0,0:0:0:0:
448,192,19819,1,0,0:0:0:0:
64,192,19936,1,2,0:0:0:0:
192,192,20053,1,2,0:0:0:0:
320,192,20171,1,2,0:0:0:0:
64,192,20288,1,0,0:0:0:0:
448,192,20288,1,0,0:0:0:0:
448,192,20522,1,2,0:0:0:0:
320,192,20639,1,2,0:0:0:0:
448,192,20757,1,0,0:0:0:0:
192,192,20757,1,0,0:0:0:0:
64,192,20757,1,0,0:0:0:0:
320,192,20874,1,2,0:0:0:0:
448,192,20991,1,2,0:0:0:0:
320,192,21225,1,0,0:0:0:0:
64,192,21225,1,0,0:0:0:0:
192,192,21460,1,2,0:0:0:0:
448,192,21577,1,2,0:0:0:0:
320,192,21694,1,0,0:0:0:0:
64,192,21694,1,0,0:0:0:0:
448,192,21811,1,2,0:0:0:0:
192,192,21928,1,2,0:0:0:0:
64,192,22046,1,2,0:0:0:0:
448,192,22163,1,0,0:0:0:0:
320,192,22163,1,0,0:0:0:0:
192,192,22397,1,2,0:0:0:0:
320,192,22514,1,2,0:0:0:0:
192,192,22632,1,0,0:0:0:0:
64,192,22632,1,0,0:0:0:0:
448,192,22632,1,0,0:0:0:0:
320,192,22749,1,2,0:0:0:0:
64,192,22866,1,2,0:0:0:0:
448,192,23100,1,0,0:0:0:0:
192,192,23100,1,0,0:0:0:0:
320,192,23335,1,2,0:0:0:0:
192,192,23452,1,2,0:0:0:0:
64,192,23569,1,0,0:0:0:0:
448,192,23569,1,0,0:0:0:0:
192,192,23686,1,2,0:0:0:0:
320,192,23803,1,2,0:0:0:0:
192,192,24038,1,0,0:0:0:0:
64,192,24038,1,0,0:0:0:0:
320,192,24272,1,2,0:0:0:0:
448,192,24389,1,2,0:0:0:0:
320,192,24507,1,0,0:0:0:0:
192,192,24507,1,0,0:0:0:0:
64,192,24507,1,0,0:0:0:0:
448,192,24624,1,2,0:0:0:0:
320,192,24741,1,2,0:0:0:0:
320,192,24975,1,0,0:0:0:0:
192,192,24975,1,0,0:0:0:0:
64,192,25210,1,2,0:0:0:0:
320,192,25327,1,2,0:0:0:0:
448,192,25444,1,0,0:0:0:0:
192,192,25444,1,0,0:0:0:0:
320,192,25561,1,2,0:0:0:0:
64,192,25678,1,2,0:0:0:0:
320,192,25913,1,0,0:0:0:0:
448,192,25913,1,0,0:0:0:0:
192,192,26147,1,2,0:0:0:0:
320,192,26264,1,2,0:0:0:0:
64,192,26382,1,0,0:0:0:0:
448,192,26382,1,0,0:0:0:0:
192,192,26499,1,2,0:0:0:0:
320,192,26616,1,2,0:0:0:0:
448,192,26850,1,0,0:0:0:0:
192,192,26850,1,0,0:0:0:0:
320,192,27085,1,2,0:0:0:0:
64,192,27202,1,2,0:0:0:0:
192,192,27319,1,0,0:0:0:0:
448,192,27319,1,0,0:0:0:0:
64,192,27436,1,2,0:0:0:0:
320,192,27553,1,2,0:0:0:0:
64,192,27788,1,0,0:0:0:0:
192,192,27788,1,0,0:0:0:0:
448,192,27905,1,2,0:0:0:0:
320,192,28022,1,0,0:0:0:0:
448,192,28139,1,2,0:0:0:0:
192,192,28257,1,0,0:0:0:0:
64,192,28257,1,0,0:0:0:0:
320,192,28257,1,0,0:0:0:0:
448,192,28374,1,2,0:0:0:0:
320,192,28491,1,2,0:0:0:0:
448,192,28608,1,2,0:0:0:0:
320,192,28725,1,0,0:0:0:0:
192,192,28725,1,0,0:0:0:0:
64,192,28842,1,2,0:0:0:0:
192,192,28960,1,2,0:0:0:0:
320,192,29077,1,2,0:0:0:0:
64,192,29194,1,0,0:0:0:0:
448,192,29194,1,0,0:0:0:0:
320,192,29311,1,2,0:0:0:0:
192,192,29428,1,2,0:0:0:0:
64,192,29546,1,2,0:0:0:0:
320,192,29663,1,0,0:0:0:0:
448,192,29663,1,0,0:0:0:0:
192,192,29780,1,2,0:0:0:0:
64,192,29897,1,2,0:0:0:0:
192,192,30014,1,2,0:0:0:0:
64,192,30132,1,0,0:0:0:0:
320,192,30132,1,0,0:0:0:0:
448,192,30132,1,0,0:0:0:0:
192,192,30249,1,2,0:0:0:0:
320,192,30366,1,2,0:0:0:0:
448,192,30483,1,2,0:0:0:0:
320,192,30600,1,0,0:0:0:0:
192,192,30600,1,0,0:0:0:0:
64,192,30717,1,2,0:0:0:0:
192,192,30835,1,2,0:0:0:0:
320,192,30952,1,2,0:0:0:0:
64,192,31069,1,0,0:0:0:0:
448,192,31069,1,0,0:0:0:0:
320,192,31186,1,2,0:0:0:0:
192,192,31303,1,2,0:0:0:0:
64,192,31421,1,2,0:0:0:0:
448,192,31538,1,0,0:0:0:0:
320,192,31538,1,0,0:0:0:0:
192,192,31772,1,2,0:0:0:0:
64,192,31889,1,2,0:0:0:0:
320,192,32007,1,0,0:0:0:0:
192,192,32007,1,0,0:0:0:0:
448,192,32007,1,0,0:0:0:0:
64,192,32124,1,2,0:0:0:0:
192,192,32241,1,2,0:0:0:0:
320,192,32358,1,2,0:0:0:0:
448,192,32475,1,0,0:0:0:0:
64,192,32475,1,0,0:0:0:0:
192,192,32710,1,2,0:0:0:0:
64,192,32827,1,2,0:0:0:0:
448,192,32944,1,0,0:0:0:0:
320,192,32944,1,0,0:0:0:0:
64,192,33061,1,2,0:0:0:0:
192,192,33178,1,2,0:0:0:0:
320,192,33413,1,0,0:0:0:0:
448,192,33413,1,0,0:0:0:0:
64,192,33530,1,2,0:0:0:0:
320,192,33647,1,2,0:0:0:0:
192,192,33764,1,2,0:0:0:0:
448,192,33882,1,0,0:0:0:0:
320,192,33882,1,0,0:0:0:0:
64,192,33882,1,0,0:0:0:0:
192,192,33999,1,2,0:0:0:0:
320,192,34116,1,2,0:0:0:0:
448,192,34350,1,0,0:0:0:0:
192,192,34350,1,0,0:0:0:0:
64,192,34585,1,2,0:0:0:0:
192,192,34702,1,2,0:0:0:0:
64,192,34819,1,0,0:0:0:0:
448,192,34819,1,0,0:0:0:0:
192,192,34936,1,2,0:0:0:0:
320,192,35053,1,2,0:0:0:0:
192,192,35171,1,2,0:0:0:0:
64,192,35288,1,0,0:0:0:0:
448,192,35288,1,0,0:0:0:0:
192,192,35522,1,2,0:0:0:0:
320,192,35639,1,2,0:0:0:0:
192,192,35757,1,0,0:0:0:0:
448,192,35757,1,0,0:0:0:0:
64,192,35757,1,0,0:0:0:0:
320,192,35874,1,2,0:0:0:0:
192,192,35991,1,2,0:0:0:0:
320,192,36225,1,0,0:0:0:0:
64,192,36225,1,0,0:0:0:0:
192,192,36460,1,2,0:0:0:0:
448,192,36577,1,2,0:0:0:0:
320,192,36694,1,0,0:0:0:0:
192,192,36694,1,0,0:0:0:0:
448,192,36811,1,2,0:0:0:0:
64,192,36928,1,2,0:0:0:0:
192,192,37046,1,2,0:0:0:0:
320,192,37163,1,0,0:0:0:0:
448,192,37163,1,0,0:0:0:0:
64,192,37397,1,2,0:0:0:0:
320,192,37514,1,2,0:0:0:0:
448,192,37632,1,0,0:0:0:0:
64,192,37632,1,0,0:0:0:0:
192,192,37632,1,0,0:0:0:0:
320,192,37749,1,2,0:0:0:0:
64,192,37866,1,2,0:0:0:0:
320,192,38100,1,0,0:0:0:0:
192,192,38100,1,0,0:0:0:0:
192,192,38335,1,0,0:0:0:0:
64,192,38452,1,2,0:0:0:0:
320,192,38569,1,0,0:0:0:0:
448,192,38569,1,0,0:0:0:0:
192,192,38686,1,2,0:0:0:0:
64,192,38803,1,2,0:0:0:0:
320,192,39038,1,0,0:0:0:0:
448,192,39038,1,0,0:0:0:0:
192,192,39272,1,2,0:0:0:0:
64,192,39389,1,2,0:0:0:0:
192,192,39507,1,0,0:0:0:0:
320,192,39507,1,0,0:0:0:0:
448,192,39507,1,0,0:0:0:0:
64,192,39624,1,2,0:0:0:0:
192,192,39741,1,2,0:0:0:0:
448,192,39975,1,0,0:0:0:0:
64,192,39975,1,0,0:0:0:0:
192,192,40210,1,2,0:0:0:0:
320,192,40327,1,2,0:0:0:0:
64,192,40444,1,0,0:0:0:0:
448,192,40444,1,0,0:0:0:0:
320,192,40561,1,2,0:0:0:0:
192,192,40678,1,2,0:0:0:0:
64,192,40913,1,0,0:0:0:0:
320,192,40913,1,0,0:0:0:0:
448,192,41147,1,2,0:0:0:0:
320,192,41264,1,2,0:0:0:0:
64,192,41382,1,0,0:0:0:0:
192,192,41382,1,0,0:0:0:0:
448,192,41382,1,0,0:0:0:0:
320,192,41499,1,2,0:0:0:0:
448,192,41616,1,2,0:0:0:0:
320,192,41733,1,2,0:0:0:0:
192,192,41850,1,0,0:0:0:0:
64,192,41850,1,0,0:0:0:0:
448,192,42085,1,2,0:0:0:0:
192,192,42202,1,2,0:0:0:0:
320,192,42319,1,0,0:0:0:0:
64,192,42319,1,0,0:0:0:0:
192,192,42436,1,2,0:0:0:0:
448,192,42553,1,2,0:0:0:0:
320,192,42788,1,0,0:0:0:0:
192,192,42788,1,0,0:0:0:0:
64,192,43022,1,0,0:0:0:0:
448,192,43139,1,2,0:0:0:0:
64,192,43257,1,0,0:0:0:0:
192,192,43257,1,0,0:0:0:0:
320,192,43257,1,0,0:0:0:0:
448,192,43374,1,2,0:0:0:0:
320,192,43491,1,2,0:0:0:0:
192,192,43725,1,0,0:0:0:0:
320,192,43960,1,2,0:0:0:0:
448,192,44077,1,2,0:0:0:0:
64,192,44194,1,2,0:0:0:0:
192,192,44311,1,2,0:0:0:0:
320,192,44428,1,2,0:0:0:0:
64,192,44663,1,2,0:0:0:0:
448,192,44897,1,2,0:0:0:0:
