osu file format v14

[General]
AudioFilename: Geometry Dash - Stay Inside Me.mp3
AudioLeadIn: 0
PreviewTime: 13651
Countdown: 0
SampleSet: Soft
StackLeniency: 0.7
Mode: 3
LetterboxInBreaks: 0
SpecialStyle: 0
WidescreenStoryboard: 0

[Editor]
DistanceSpacing: 1
BeatDivisor: 4
GridSize: 32
TimelineZoom: 1

[Metadata]
Title:Stay Inside Me
TitleUnicode:Stay Inside Me
Artist:OcularNebula
ArtistUnicode:OcularNebula
Creator:Janko
Version:EZ
Source:Geometry Dash
Tags:Newgrounds ost streeteelf electro BGM WeoWeoTeo Fast as Lightning
BeatmapID:705115
BeatmapSetID:303763

[Difficulty]
HPDrainRate:7
CircleSize:4
OverallDifficulty:7
ApproachRate:5
SliderMultiplier:1.6
SliderTickRate:1

[Events]
//Background and Video events
0,0,"tlo.jpg",0,0
//Break Periods
//Storyboard Layer 0 (Background)
//Storyboard Layer 1 (Fail)
//Storyboard Layer 2 (Pass)
//Storyboard Layer 3 (Foreground)
//Storyboard Sound Samples

[TimingPoints]
132,468.75,4,2,0,20,1,0
15132,-100,4,2,0,20,0,1
30132,-100,4,2,0,20,0,0
44615,-100,4,2,0,10,0,0

[HitObjects]
192,192,132,128,0,366:0:0:0:0:
320,192,600,1,2,0:0:0:0:
192,192,1069,1,2,0:0:0:0:
320,192,1538,1,2,0:0:0:0:
448,192,2007,128,0,2241:0:0:0:0:
64,192,2475,1,2,0:0:0:0:
448,192,2944,1,2,0:0:0:0:
64,192,3413,1,2,0:0:0:0:
192,192,3882,128,0,4116:0:0:0:0:
448,192,4350,1,2,0:0:0:0:
64,192,4819,1,2,0:0:0:0:
320,192,5288,1,2,0:0:0:0:
192,192,5757,128,0,5991:0:0:0:0:
448,192,6225,1,2,0:0:0:0:
320,192,6694,1,2,0:0:0:0:
192,192,7163,1,2,0:0:0:0:
64,192,7632,128,0,7866:0:0:0:0:
320,192,8100,1,2,0:0:0:0:
448,192,8569,1,2,0:0:0:0:
320,192,9038,1,2,0:0:0:0:
192,192,9507,128,0,9741:0:0:0:0:
448,192,9975,1,2,0:0:0:0:
64,192,10444,1,2,0:0:0:0:
320,192,10913,1,2,0:0:0:0:
448,192,11382,128,0,11616:0:0:0:0:
64,192,11850,1,2,0:0:0:0:
448,192,12319,1,2,0:0:0:0:
64,192,12788,1,2,0:0:0:0:
192,192,13257,128,0,13491:0:0:0:0:
448,192,13725,1,2,0:0:0:0:
192,192,13960,1,2,0:0:0:0:
320,192,14194,1,0,0:0:0:0:
64,192,14428,1,2,0:0:0:0:
192,192,14663,1,2,0:0:0:0:
448,192,14897,1,2,0:0:0:0:
64,192,15132,128,0,15366:0:0:0:0:
320,192,15132,1,0,0:0:0:0:
320,192,15600,1,2,0:0:0:0:
192,192,15835,1,2,0:0:0:0:
64,192,16069,1,0,0:0:0:0:
448,192,16303,1,2,0:0:0:0:
64,192,16538,1,2,0:0:0:0:
320,192,16772,1,2,0:0:0:0:
192,192,17007,128,0,17241:0:0:0:0:
64,192,17475,1,2,0:0:0:0:
448,192,17710,1,2,0:0:0:0:
320,192,17944,1,0,0:0:0:0:
64,192,18178,1,2,0:0:0:0:
192,192,18413,1,2,0:0:0:0:
320,192,18647,1,2,0:0:0:0:
192,192,18882,128,0,19116:0:0:0:0:
448,192,19350,1,2,0:0:0:0:
64,192,19585,1,2,0:0:0:0:
320,192,19819,1,0,0:0:0:0:
192,192,20053,1,2,0:0:0:0:
448,192,20288,1,2,0:0:0:0:
64,192,20522,1,2,0:0:0:0:
320,192,20757,128,0,20991:0:0:0:0:
192,192,21225,1,2,0:0:0:0:
448,192,21460,1,2,0:0:0:0:
64,192,21694,1,0,0:0:0:0:
192,192,21928,1,2,0:0:0:0:
320,192,22163,1,2,0:0:0:0:
448,192,22397,1,2,0:0:0:0:
64,192,22632,128,0,22866:0:0:0:0:
192,192,23100,1,2,0:0:0:0:
448,192,23335,1,2,0:0:0:0:
320,192,23569,1,0,0:0:0:0:
64,192,23803,1,2,0:0:0:0:
448,192,24038,1,2,0:0:0:0:
320,192,24272,1,2,0:0:0:0:
192,192,24507,128,0,24741:0:0:0:0:
448,192,24975,1,2,0:0:0:0:
64,192,25210,1,2,0:0:0:0:
320,192,25444,1,0,0:0:0:0:
192,192,25678,1,2,0:0:0:0:
448,192,25913,1,2,0:0:0:0:
64,192,26147,1,2,0:0:0:0:
448,192,26382,128,0,26616:0:0:0:0:
64,192,26850,1,2,0:0:0:0:
192,192,27085,1,2,0:0:0:0:
320,192,27319,1,0,0:0:0:0:
448,192,27553,1,2,0:0:0:0:
64,192,27788,1,2,0:0:0:0:
192,192,28022,1,2,0:0:0:0:
320,192,28257,128,0,28491:0:0:0:0:
192,192,28725,1,2,0:0:0:0:
64,192,28960,1,2,0:0:0:0:
448,192,29194,1,0,0:0:0:0:
320,192,29428,1,2,0:0:0:0:
192,192,29663,1,2,0:0:0:0:
64,192,29897,1,2,0:0:0:0:
192,192,30132,128,0,30366:0:0:0:0:
320,192,30600,1,2,0:0:0:0:
192,192,31069,1,0,0:0:0:0:
320,192,31538,1,2,0:0:0:0:
64,192,31772,1,2,0:0:0:0:
448,192,32007,128,0,32241:0:0:0:0:
192,192,32475,1,2,0:0:0:0:
64,192,32944,1,0,0:0:0:0:
192,192,33413,1,2,0:0:0:0:
448,192,33647,1,2,0:0:0:0:
320,192,33882,128,0,34116:0:0:0:0:
64,192,34350,1,2,0:0:0:0:
448,192,34819,1,0,0:0:0:0:
64,192,35288,1,2,0:0:0:0:
320,192,35522,1,2,0:0:0:0:
192,192,35757,128,0,35991:0:0:0:0:
448,192,36225,1,2,0:0:0:0:
64,192,36694,1,0,0:0:0:0:
320,192,37163,1,2,0:0:0:0:
192,192,37397,1,2,0:0:0:0:
448,192,37632,128,0,37866:0:0:0:0:
64,192,38100,1,2,0:0:0:0:
320,192,38569,1,0,0:0:0:0:
192,192,39038,1,2,0:0:0:0:
448,192,39272,1,2,0:0:0:0:
64,192,39507,128,0,39741:0:0:0:0:
320,192,39975,1,2,0:0:0:0:
448,192,40444,1,0,0:0:0:0:
320,192,40913,1,2,0:0:0:0:
64,192,41147,1,2,0:0:0:0:
192,192,41382,128,0,41616:0:0:0:0:
320,192,41850,1,2,0:0:0:0:
448,192,42319,1,0,0:0:0:0:
64,192,42788,1,2,0:0:0:0:
192,192,43022,1,2,0:0:0:0:
320,192,43257,128,0,43491:0:0:0:0:
192,192,43725,1,2,0:0:0:0:
64,192,44194,128,0,44428:0:0:0:0:
448,192,44663,1,2,0:0:0:0:
192,192,44897,1,2,0:0:0:0:
