osu file format v13

[General]
AudioFilename: 8 Awesome Angles of YouTube.mp3
AudioLeadIn: 0
PreviewTime: 345282
Countdown: 0
SampleSet: Normal
StackLeniency: 0.7
Mode: 1
LetterboxInBreaks: 0
EpilepsyWarning: 1
WidescreenStoryboard: 0

[Editor]
Bookmarks: 21415,53415,86748,126092,157212,185835,216653,242598,266381,289691,311385,345282,366734,390734,414733,439605
DistanceSpacing: 0.9
BeatDivisor: 6
GridSize: 32
TimelineZoom: 2

[Metadata]
Title:8 Awesome Angles of YouTube
TitleUnicode:8 Awesome Angles of YouTube
Artist:OctagonCollaboration
ArtistUnicode:OctagonCollaboration
Creator:Leader
Version:Octaikon
Source:
Tags:-kevincela- Blue Dragon Kyshiro RLC Irreversible cheesiest Chewin Sayaka- dialgadu77 _Gezo_ KinomiCandy DarkDunskin TKS TKSalt Stefan TheNutritiousGuy xWillx Jack Black Octagon Sesame Street bloomin' feeling CAPTAIN JACK (GRANDALE REMIX) Time to Air Almagest Masked Dedede Cave Story Overworld Theme Elmo's World Opening Song Star Maze Dou Iu Koto Nano!? 5way Demon Tale Sonata Marisa Stole the Precious Thing wa Taihen na Mono wo Nusunde Ikimashita Butterfly Wonderboy Ryu* Seiryu Galdeira Jun Ishikawa Koji Kondo Daisuke Amaya Kevin Clash Kazumi Totaka Kuchibashi-P tetsuo Honeybee ZUN IOSYS Smile.dk Tenacious D Kirby Super Mario Bros. Land 2 Hatsune Miku Vocaloid Star Soldier Touhou Koishi Komeiji Alice Margatroid Marisa Kirisame Noma DKCPlayer dpritch16 geturenanoka7 KAPAOG KinkyOats KJ Negaman XLovesMiku MatrixMarioX MenorahOnFire MowtenDoo SgtScrubnoob Stuff3 svaugra Tukaari22 wehesomushi
BeatmapID:372211
BeatmapSetID:143844

[Difficulty]
HPDrainRate:4
CircleSize:4
OverallDifficulty:5
ApproachRate:9
SliderMultiplier:1.4
SliderTickRate:1

[Events]
//Background and Video events
Video,-320,"octagonnew5.avi"
0,0,"lol.jpg",0,0
//Break Periods
2,157431,163236
//Storyboard Layer 0 (Background)
//Storyboard Layer 1 (Fail)
//Storyboard Layer 2 (Pass)
//Storyboard Layer 3 (Foreground)
Sprite,Foreground,Centre,"angles\sub1.png",320,390 F,0,333589,,1 F,0,334267,,0
Sprite,Foreground,Centre,"angles\sub2.png",320,390 F,0,334775,,1 F,0,335453,,0
Sprite,Foreground,Centre,"angles\sub3.png",320,390 F,0,336131,,1 F,0,336809,,0
Sprite,Foreground,Centre,"angles\sub4.png",320,390 F,0,337487,,1 F,0,338165,,0
Sprite,Foreground,Centre,"angles\sub5.png",320,390 F,0,338843,,1 F,0,339521,,0
Sprite,Foreground,Centre,"angles\sub6.png",320,390 F,0,340199,,1 F,0,340877,,0
Sprite,Foreground,Centre,"angles\sub7.png",320,390 F,0,341555,,1 F,0,342233,,0
Sprite,Foreground,Centre,"angles\sub9.png",320,390 F,0,343928,344606,0,1 F,0,345282,,0
Sprite,Foreground,Centre,"angles\sub8.png",320,390 F,0,342911,343928,1,0
Sprite,Foreground,BottomLeft,"angles\titles\1BLOOM.png",0,370 S,0,82,,0.75 F,0,82,248,0.2,0.99 M,1,82,415,-360,370,-4,370 M,0,415,4081,-4,370,0,370 M,2,4081,4415,0,370,-360,370 F,0,4248,4415,0.99,0.2
Sprite,Foreground,BottomLeft,"angles\collab parts\1BLOOM-Leader.png",0,420 S,0,248,,0.75 F,0,248,415,0.2,0.99 M,1,248,581,-360,420,-4,420 M,0,581,4081,-4,420,0,420 M,2,4081,4415,0,420,-360,420 F,0,4248,4415,0.99,0.2
Sprite,Foreground,BottomLeft,"angles\titles\2CAPT.png",0,370 S,0,21415,,0.75 F,0,21415,21665,0,0.99 M,0,21415,25414,-4,370,0,370 F,0,25248,25748,0.99,0
Sprite,Foreground,BottomLeft,"angles\collab parts\2CAPT-xWillx-T.png",0,420 S,0,21581,,0.75 F,0,21581,21748,0,0.99 M,0,21581,25248,-4,420,0,420 F,0,25248,25582,0.99,0
Sprite,Foreground,BottomLeft,"angles\titles\3TIME.png",0,370 S,0,53415,,0.75 F,0,53415,53581,0.2,0.99 M,1,53415,53748,-360,370,-4,370 M,0,53748,57414,-4,370,0,370 M,2,57414,57748,0,370,-360,370 F,0,57581,57748,0.99,0.2
Sprite,Foreground,BottomLeft,"angles\collab parts\3TIME-dialgadu-T.png",0,420 S,0,53415,,0.75 F,0,53415,53582,0.2,0.99 M,1,53415,53748,-360,420,-4,420 M,0,53748,57248,-4,420,0,420 M,2,57248,57582,0,420,-360,420 F,0,57415,57582,0.99,0.2
Sprite,Foreground,BottomLeft,"angles\titles\4OCTAG.png",0,370 F,0,86748,,0.99 S,0,86748,,0.75 M,0,86748,92081,-4,370,0,370 F,0,92081,,0
Sprite,Foreground,BottomLeft,"angles\collab parts\4OCTAG-tks-T.png",0,420 F,0,86748,,0.99 S,0,86748,,0.75 M,0,86748,92081,-4,420,0,420 F,0,92081,,0
Sprite,Foreground,BottomLeft,"angles\titles\XXwhiteover.png",0,370 S,0,86748,,0.75 F,0,86748,87415,0.99,0 M,0,86748,92081,-4,370,0,370 F,0,92081,92581,0.99,0
Sprite,Foreground,BottomLeft,"angles\collab parts\XXwhiteover.png",0,420 S,0,86748,,0.75 F,0,86748,87415,0.99,0 M,0,86748,92081,-4,420,0,420 F,0,92081,92581,0.99,0
Sprite,Foreground,BottomLeft,"angles\titles\5MASK-old.png",0,370 S,0,126092,,0.75 F,0,126092,126949,0,0.99 M,0,126092,133876,-4,370,0,370 F,0,133876,,0
Sprite,Foreground,BottomLeft,"angles\collab parts\5MASK-dialgadu-T-old.png",0,420 S,0,126092,,0.75 F,0,126092,126949,0,0.99 M,0,126092,133876,-4,420,0,420 F,0,133876,,0
Sprite,Foreground,BottomLeft,"angles\titles\5MASK.png",0,370 F,0,133876,,0.99 S,0,133876,,0.75 F,0,134576,,0
Sprite,Foreground,BottomLeft,"angles\collab parts\5MASK-dialgadu-T.png",0,420 F,0,133876,,0.99 S,0,133876,,0.75 F,0,134576,,0
Sprite,Foreground,BottomLeft,"angles\titles\5MASK-invert.png",0,370 M,0,134576,,0,370 F,0,134576,,0.99 S,0,134576,,0.75 F,0,135076,,0.5 S,0,135076,,1.166 M,0,135176,,0,419 F,0,135176,,0.9 S,0,135176,,0.975 M,0,135276,,0,370 F,0,135276,,0.7 S,0,135276,,1.166 F,0,135379,,0
Sprite,Foreground,BottomLeft,"angles\collab parts\5MASK-dialgadu-T-invert.png",0,420 M,0,134576,,0,420 F,0,134576,,0.99 S,0,134576,,0.75 M,0,135076,,0,290 F,0,135076,,0.3 M,0,135176,,0,255 F,0,135176,,0.7 S,0,135176,,1.275 M,0,135276,,0,470 F,0,135276,,0.5 F,0,135379,,0
Sprite,Foreground,BottomLeft,"angles\titles\6STORY-base.png",-4,370 S,0,163817,,0.75 R,1,163817,164367,-1.57,0 M,0,164367,167983,-4,370,0,370 F,0,167120,,0.99 R,2,167670,168221,0,-1.57 F,0,167983,168150,0.99,0.2
Sprite,Foreground,BottomLeft,"angles\titles\6STORY.png",-4,370 S,0,163817,,0.75 F,0,163817,163983,0.2,0.99 R,1,163817,164367,-1.57,0 M,0,164367,167983,-4,370,0,370 F,0,167120,,0
Animation,Foreground,Centre,"angles\smok.png",20,370,4,45,LoopOnce M,0,167120,,83,349 F,0,167120,,0.99 S,0,167120,,0.2726666 F,0,167300,,0
Animation,Foreground,Centre,"angles\smok.png",20,370,4,45,LoopOnce M,0,167120,,59,334 F,0,167120,,0.99 S,0,167120,,0.4006665 F,0,167300,,0
Animation,Foreground,Centre,"angles\smok.png",20,370,4,45,LoopOnce M,0,167120,,21,316 F,0,167120,,0.99 S,0,167120,,0.1660001 F,0,167300,,0
Animation,Foreground,Centre,"angles\smok.png",20,370,4,45,LoopOnce M,0,167120,,36,352 F,0,167120,,0.99 S,0,167120,,0.3 F,0,167300,,0
Animation,Foreground,Centre,"angles\smok.png",20,370,4,45,LoopOnce M,0,167120,,82,311 F,0,167120,,0.99 S,0,167120,,0.2726666 F,0,167300,,0
Sprite,Foreground,TopLeft,"angles\collab parts\6STORY-Stefan-T.png",-4,370 S,0,163817,,0.75 F,0,163817,163984,0.2,0.99 R,1,163817,164367,1.57,0 M,0,164367,167817,-4,370,0,370 R,2,167670,168221,0,1.57 F,0,167817,167984,0.99,0.2
Sprite,Foreground,TopLeft,"angles\collab parts\6STORY-2-xWillx-T.png",-4,370 S,0,185835,,0.75 F,0,185835,186002,0.2,0.99 R,1,185835,186385,1.57,0 M,0,186385,189835,-4,370,0,370 R,2,189688,190239,0,1.57 F,0,189835,190002,0.99,0.2
Animation,Foreground,BottomLeft,"angles\titles\7BROS-anim.png",-4,388,6,45,LoopOnce F,0,216653,,0.99 S,0,216653,,0.75 F,0,216923,,0
Sprite,Foreground,BottomLeft,"angles\titles\7BROS.png",0,370 F,0,216923,,0.99 S,0,216923,,0.75 M,0,217058,220977,-4,370,0,370 F,0,220977,,0
Animation,Foreground,BottomLeft,"angles\titles\7BROS-anim-end.png",0,388,6,45,LoopOnce F,0,220977,,0.99 S,0,220977,,0.75 F,0,221247,,0
Sprite,Foreground,BottomLeft,"angles\collab parts\7BROS-DD-T.png",0,420 S,0,216923,,0.75 F,0,216923,216955,0.2,0.99 M,1,216923,217328,-360,420,-4,420 M,0,217328,220621,-4,420,0,420 M,2,220621,220955,0,420,-360,420 F,0,220788,220955,0.99,0.2
Sprite,Foreground,BottomLeft,"angles\titles\8ELMO.png",0,370 S,0,242598,,0.75 F,0,242598,242848,0,0.99 M,0,242598,246653,-4,370,0,370 F,0,246247,246315,0.99,0
Sprite,Foreground,BottomLeft,"angles\collab parts\8ELMO-Leader-T.png",0,430 S,0,242734,,0.75 F,0,242734,242901,0,0.99 M,0,242734,246653,-4,430,0,430 F,0,246382,246517,0.99,0
Sprite,Foreground,BottomLeft,"angles\titles\8ELMO-blur.png",0,370 F,0,242598,,0 S,0,242598,,0.75 M,0,242598,246653,-4,370,0,370 F,0,244761,244963,0.99,0 F,0,245031,245234,0.99,0 F,0,245301,245774,0.99,0 F,0,246247,246315,0.99,0
Sprite,Foreground,BottomLeft,"angles\collab parts\8ELMO-Leader-T-blur.png",0,430 F,0,242598,,0 S,0,242734,,0.75 M,0,242734,246653,-4,430,0,430 F,0,244761,244963,0.99,0 F,0,245031,245234,0.99,0 F,0,245301,245774,0.99,0 F,0,246382,246517,0.99,0
Sprite,Foreground,CentreRight,"angles\box.png",330,240 F,0,245842,246112,0,1 V,0,245977,246247,1,1,5,1 F,0,246247,246382,0.99,0 M,0,246382,,410,320
Sprite,Foreground,CentreRight,"angles\box.png",330,240 F,0,246112,246382,0,0.9 V,0,246247,246517,1,0.6,4,0.6 F,0,246517,246652,0.99,0 M,0,246652,,310,405
Sprite,Foreground,BottomLeft,"angles\titles\9LAND.png",0,370 S,0,267752,,0.75 F,0,267752,267918,0.2,0.99 M,1,267752,268085,-360,370,-4,370 M,0,268085,271751,-4,370,0,370 M,2,271751,272085,0,370,-360,370 F,0,271918,272085,0.99,0.2
Sprite,Foreground,BottomLeft,"angles\collab parts\9LAND-Geshu-T.png",0,420 S,0,267838,,0.75 F,0,267838,268005,0.2,0.99 M,1,267838,268171,-360,420,-4,420 M,0,268171,271671,-4,420,0,420 M,2,271671,272005,0,420,-360,420 F,0,271838,272005,0.99,0.2
Sprite,Foreground,BottomLeft,"angles\titles\10HOW.png",0,370 S,0,289691,,0.75 F,0,289691,289857,0.2,0.99 M,1,289691,290024,-360,370,-4,370 M,0,290024,293690,-4,370,0,370 M,2,293690,294024,0,370,-360,370 F,0,293857,294024,0.99,0.2
Sprite,Foreground,BottomLeft,"angles\titles\10HOW-pink.png",0,370 F,0,289691,,0 S,0,289691,,0.75 M,1,289691,290024,-360,370,-4,370 M,0,290024,293690,-4,370,0,370 F,0,290029,,0.99 F,0,290368,,0 F,0,290538,,0.99 F,0,290707,,0 F,0,290877,,0.99 F,0,291046,,0 F,0,291385,,0.99 F,0,291724,,0 F,0,291894,,0.99 F,0,292036,,0 F,0,292233,,0.99 F,0,292402,,0 M,2,293690,294024,0,370,-360,370 F,0,293857,,0
Sprite,Foreground,BottomLeft,"angles\collab parts\10HOW-KinomiCandy-T.png",0,420 S,0,289775,,0.75 F,0,289775,289942,0.2,0.99 M,1,289775,290108,-360,420,-4,420 M,0,290108,293608,-4,420,0,420 M,2,293608,293942,0,420,-360,420 F,0,293775,293942,0.99,0.2
Sprite,Foreground,BottomLeft,"angles\collab parts\10HOW-KinomiCandy-T-pink.png",0,420 F,0,289691,,0 S,0,289775,,0.75 M,1,289775,290108,-360,420,-4,420 F,0,290029,,0.99 M,0,290108,293608,-4,420,0,420 F,0,290368,,0 F,0,290538,,0.99 F,0,290707,,0 F,0,290877,,0.99 F,0,291046,,0 F,0,291385,,0.99 F,0,291724,,0 F,0,291894,,0.99 F,0,292036,,0 F,0,292233,,0.99 F,0,292402,,0 M,2,293608,293942,0,420,-360,420 F,0,293775,,0
Animation,Foreground,BottomLeft,"angles\titles\11FULL.png",0,370,2,678,LoopForever M,0,311385,,0,370 S,0,311385,,0.75 F,0,311385,311635,0,0.99 M,1,312063,312233,0,370,0,362 M,2,312223,312402,0,362,0,370 M,1,312741,312911,0,370,0,362 M,2,312911,313080,0,362,0,370 M,1,313419,313589,0,370,0,362 M,2,313589,313758,0,362,0,370 M,1,314097,314267,0,370,0,362 F,0,314097,314436,0.99,0 M,2,314267,314436,0,362,0,370
Animation,Foreground,BottomLeft,"angles\collab parts\11FULL-TKS-T.png",0,420,2,678,LoopForever M,0,311385,,0,420 S,0,311385,,0.75 M,1,312063,312233,0,420,0,408 M,2,312223,312402,0,408,0,420 M,1,312741,312911,0,420,0,408 M,2,312911,313080,0,408,0,420 M,1,313419,313589,0,420,0,408 M,2,313589,313758,0,408,0,420 M,1,314097,314267,0,420,0,408 F,0,314097,314436,0.99,0 M,2,314267,314436,0,408,0,420
Sprite,Foreground,BottomLeft,"angles\titles\12DEMON.png",0,370 S,0,345282,,0.75 F,0,345282,345448,0,0.99 M,0,345615,349281,-4,370,0,370 M,2,349281,349615,0,370,-360,370 F,0,349365,349555,0.99,0
Sprite,Foreground,BottomLeft,"angles\collab parts\12DEMON-DD-T.png",0,420 S,0,345365,,0.75 F,0,345365,345532,0,0.99 M,0,345698,349198,-4,420,0,420 M,2,349198,349532,0,420,-360,420 F,0,349365,349555,0.99,0
Sprite,Foreground,BottomLeft,"angles\titles\13STOLE.png",0,370 S,0,366734,,0.75 F,0,366734,366900,0.2,0.99 M,1,366734,366901,-360,370,-4,370 M,0,367067,370733,-4,370,0,370 M,2,370733,371067,0,370,-360,370 F,0,370900,371067,0.99,0.2
Sprite,Foreground,BottomLeft,"angles\collab parts\13STOLE-Geshu-T.png",0,420 S,0,366734,,0.75 M,1,366734,366901,-360,420,-4,420 F,0,366734,366901,0.2,0.99 M,0,367067,370567,-4,420,0,420 M,2,370567,370901,0,420,-360,420 F,0,370734,370901,0.99,0.2
Sprite,Foreground,BottomLeft,"angles\titles\14DANCES.png",0,370 S,0,393400,,0.75 F,0,393400,393566,0.2,0.99 M,1,393400,393567,-360,370,-4,370 M,0,393733,397399,-4,370,0,370 M,2,397399,397733,0,370,-360,370 F,0,397566,397733,0.99,0.2
Sprite,Foreground,BottomLeft,"angles\collab parts\14DANCES-KinomiCandy-T.png",0,420 S,0,393484,,0.75 M,1,393484,393651,-360,420,-4,420 F,0,393484,393651,0.2,0.99 M,0,393817,397317,-4,420,0,420 M,2,397317,397651,0,420,-360,420 F,0,397484,397651,0.99,0.2
Sprite,Foreground,BottomLeft,"angles\collab parts\14DANCES-2-Stefan-T.png",0,420 S,0,414733,,0.75 M,1,414733,414900,-360,420,-4,420 F,0,414733,414900,0.2,0.99 M,0,415066,418566,-4,420,0,420 M,2,418566,418900,0,420,-360,420 F,0,418733,418900,0.99,0.2
Sprite,Foreground,BottomLeft,"angles\titles\15WOND.png",0,370 S,0,439605,,0.75 F,0,439605,439772,0,0.99 M,0,439605,449353,-8,370,0,370 F,0,446781,447375,0.99,0
Sprite,Foreground,BottomLeft,"angles\collab parts\15WOND-Leader.png",0,420 S,0,439605,,0.75 F,0,439605,439772,0,0.99 M,0,439605,449353,-8,420,0,420 F,0,446781,447375,0.99,0
//Storyboard Sound Samples

[TimingPoints]
80,333.333333333333,4,1,0,90,1,0
126079,431.654676258993,4,1,0,90,1,8
126942,436.363636363636,4,1,0,90,1,0
132178,428.571428571429,4,1,0,90,1,0
133035,-95.2380952380952,4,1,0,90,0,0
133892,387.096774193548,4,1,0,90,1,0
157117,387.096774193548,4,1,0,90,1,8
157231,550.45871559633,4,1,0,90,1,0
157231,-70.4225352112676,4,1,0,90,0,0
163836,-62.5,4,1,0,90,0,0
199060,550.711335474988,4,1,0,90,1,0
199060,-62.5,4,1,0,90,0,0
216682,550.711335474988,4,1,0,90,1,8
216693,540.05400540054,4,1,0,90,1,0
216693,-62.5,4,1,0,90,0,0
233949,540.05400540054,4,1,0,90,1,0
233949,-62.5,4,1,0,90,0,0
242588,540.540540540541,4,1,0,90,1,0
242588,-62.5,4,1,0,90,0,0
243669,-64.5161290322581,4,1,0,90,0,0
244750,-66.6666666666667,4,1,0,90,0,0
245831,-68.9655172413793,4,1,0,90,0,0
246912,-71.4285714285714,4,1,0,90,0,0
266371,540.540540540541,4,1,0,90,1,8
266375,342.857142857143,4,1,0,90,1,0
276660,-95.2380952380952,4,1,0,90,0,0
277346,-90.9090909090909,4,1,0,90,0,0
278889,-100,4,1,0,90,0,0
289689,338.983050847458,4,1,0,90,1,0
345282,335.195530726257,4,1,0,90,1,0
366734,333.333333333333,4,1,0,90,1,0
393400,-100,4,1,0,90,0,1
404067,-100,4,1,0,90,0,0
439598,600,4,1,0,90,1,0
443198,612.244897959184,4,1,0,90,1,0
444422,594.059405940594,4,1,0,90,1,0
453926,582.52427184466,4,1,0,90,1,0
463246,576.923076923077,4,1,0,90,1,0

[HitObjects]
256,192,80,5,2,0:0:0:0:
256,192,246,1,0,0:0:0:0:
256,192,413,1,2,0:0:0:0:
256,192,496,1,0,0:0:0:0:
256,192,579,1,0,0:0:0:0:
256,192,746,1,2,0:0:0:0:
256,192,913,1,0,0:0:0:0:
256,192,1079,1,2,0:0:0:0:
256,192,1163,1,0,0:0:0:0:
256,192,1246,1,2,0:0:0:0:
256,192,1413,1,2,0:0:0:0:
256,192,1579,1,0,0:0:0:0:
256,192,1746,1,2,0:0:0:0:
256,192,1913,1,0,0:0:0:0:
256,192,2079,1,2,0:0:0:0:
256,192,2246,1,0,0:0:0:0:
256,192,2413,1,2,0:0:0:0:
256,192,2496,1,2,0:0:0:0:
256,192,2579,1,0,0:0:0:0:
256,192,2746,1,2,0:0:0:0:
256,192,2913,1,2,0:0:0:0:
256,192,3079,1,0,0:0:0:0:
256,192,3246,1,2,0:0:0:0:
256,192,3413,1,0,0:0:0:0:
256,192,3496,1,0,0:0:0:0:
256,192,3579,1,2,0:0:0:0:
256,192,3746,1,2,0:0:0:0:
256,192,3913,1,2,0:0:0:0:
256,192,4079,1,0,0:0:0:0:
256,192,4246,1,0,0:0:0:0:
256,192,4413,1,2,0:0:0:0:
256,192,4579,1,0,0:0:0:0:
256,192,4746,1,2,0:0:0:0:
256,192,4913,1,0,0:0:0:0:
256,192,5079,1,0,0:0:0:0:
256,192,5163,1,0,0:0:0:0:
256,192,5246,1,0,0:0:0:0:
256,192,5413,1,2,0:0:0:0:
256,192,5579,1,0,0:0:0:0:
256,192,5746,1,2,0:0:0:0:
256,192,5829,1,0,0:0:0:0:
256,192,5913,1,0,0:0:0:0:
256,192,6079,1,2,0:0:0:0:
256,192,6246,1,0,0:0:0:0:
256,192,6413,1,2,0:0:0:0:
256,192,6579,1,0,0:0:0:0:
256,192,6746,1,2,0:0:0:0:
256,192,6829,1,0,0:0:0:0:
256,192,6913,1,0,0:0:0:0:
256,192,7079,1,2,0:0:0:0:
256,192,7246,1,0,0:0:0:0:
256,192,7413,1,2,0:0:0:0:
256,192,7579,1,0,0:0:0:0:
256,192,7746,1,0,0:0:0:0:
256,192,7829,1,0,0:0:0:0:
256,192,7913,1,0,0:0:0:0:
256,192,8079,1,2,0:0:0:0:
256,192,8246,1,0,0:0:0:0:
256,192,8413,1,2,0:0:0:0:
256,192,8579,1,0,0:0:0:0:
256,192,8746,1,0,0:0:0:0:
256,192,8829,1,0,0:0:0:0:
256,192,8913,1,0,0:0:0:0:
256,192,8996,1,0,0:0:0:0:
256,192,9079,1,0,0:0:0:0:
256,192,9163,1,0,0:0:0:0:
256,192,9246,1,0,0:0:0:0:
256,192,9329,1,0,0:0:0:0:
256,192,9413,1,2,0:0:0:0:
256,192,9579,1,2,0:0:0:0:
256,192,9746,1,2,0:0:0:0:
256,192,9913,1,2,0:0:0:0:
256,192,10079,1,2,0:0:0:0:
256,192,10246,1,4,0:0:0:0:
256,192,10413,1,4,0:0:0:0:
256,192,10579,1,0,0:0:0:0:
256,192,10746,1,2,0:0:0:0:
256,192,10829,1,0,0:0:0:0:
256,192,10913,1,0,0:0:0:0:
256,192,11079,1,2,0:0:0:0:
256,192,11246,1,0,0:0:0:0:
256,192,11413,1,2,0:0:0:0:
256,192,11579,1,2,0:0:0:0:
256,192,11746,1,2,0:0:0:0:
256,192,11913,1,2,0:0:0:0:
256,192,12079,1,0,0:0:0:0:
256,192,12246,1,0,0:0:0:0:
256,192,12413,1,2,0:0:0:0:
256,192,12496,1,0,0:0:0:0:
256,192,12579,1,0,0:0:0:0:
256,192,12746,1,2,0:0:0:0:
256,192,12913,1,0,0:0:0:0:
256,192,13079,1,0,0:0:0:0:
256,192,13246,1,0,0:0:0:0:
256,192,13329,1,0,0:0:0:0:
256,192,13413,1,2,0:0:0:0:
256,192,13579,1,0,0:0:0:0:
256,192,13746,1,2,0:0:0:0:
256,192,13913,1,0,0:0:0:0:
256,192,14079,1,2,0:0:0:0:
256,192,14246,1,2,0:0:0:0:
256,192,14413,1,2,0:0:0:0:
256,192,14579,1,2,0:0:0:0:
256,192,14746,1,6,0:0:0:0:
256,192,14913,1,0,0:0:0:0:
256,192,15079,1,6,0:0:0:0:
256,192,15246,1,0,0:0:0:0:
256,192,15413,1,6,0:0:0:0:
256,192,15579,1,0,0:0:0:0:
256,192,15663,1,2,0:0:0:0:
256,192,15746,1,0,0:0:0:0:
256,192,15913,1,0,0:0:0:0:
256,192,16079,1,2,0:0:0:0:
256,192,16163,1,0,0:0:0:0:
256,192,16246,1,0,0:0:0:0:
256,192,16413,1,2,0:0:0:0:
256,192,16579,1,0,0:0:0:0:
256,192,16746,1,2,0:0:0:0:
256,192,16913,1,2,0:0:0:0:
256,192,17079,1,2,0:0:0:0:
256,192,17246,1,2,0:0:0:0:
256,192,17413,1,2,0:0:0:0:
256,192,17496,1,0,0:0:0:0:
256,192,17579,1,2,0:0:0:0:
256,192,17746,1,2,0:0:0:0:
256,192,17913,1,0,0:0:0:0:
256,192,17996,1,0,0:0:0:0:
256,192,18079,1,2,0:0:0:0:
256,192,18246,1,0,0:0:0:0:
256,192,18413,1,0,0:0:0:0:
256,192,18579,1,0,0:0:0:0:
256,192,18746,1,2,0:0:0:0:
256,192,18913,1,0,0:0:0:0:
256,192,19079,1,2,0:0:0:0:
256,192,19246,1,0,0:0:0:0:
256,192,19413,1,0,0:0:0:0:
256,192,19468,1,0,0:0:0:0:
256,192,19524,1,0,0:0:0:0:
256,192,19579,1,0,0:0:0:0:
256,192,19635,1,0,0:0:0:0:
256,192,19691,1,0,0:0:0:0:
256,192,19746,1,2,0:0:0:0:
256,192,19913,1,2,0:0:0:0:
256,192,20079,5,6,0:0:0:0:
256,192,20246,1,2,0:0:0:0:
256,192,20413,1,6,0:0:0:0:
256,192,20579,1,2,0:0:0:0:
256,192,20746,2,4,B|320:192|320:192|352:224|352:224|384:192|384:192|448:192,1,210
78,180,21413,5,0,0:0:0:0:
224,192,21579,1,8,0:0:0:0:
224,192,21746,1,0,0:0:0:0:
114,285,21829,1,8,0:0:0:0:
114,285,21996,1,8,0:0:0:0:
114,285,22079,1,0,0:0:0:0:
114,285,22246,1,8,0:0:0:0:
96,160,22413,1,0,0:0:0:0:
114,285,22496,1,0,0:0:0:0:
114,285,22579,1,8,0:0:0:0:
160,160,22663,1,8,0:0:0:0:
78,180,22746,1,0,0:0:0:0:
78,180,22913,1,8,0:0:0:0:
114,285,23079,1,0,0:0:0:0:
114,285,23246,1,8,0:0:0:0:
96,160,23329,1,8,0:0:0:0:
114,285,23413,1,0,0:0:0:0:
114,285,23579,1,0,0:0:0:0:
114,285,23663,1,8,0:0:0:0:
114,285,23829,1,8,0:0:0:0:
114,285,23913,1,0,0:0:0:0:
192,160,23996,1,8,0:0:0:0:
78,180,24079,1,0,0:0:0:0:
145,183,24246,1,8,0:0:0:0:
145,183,24413,1,0,0:0:0:0:
224,192,24496,1,0,0:0:0:0:
145,183,24579,1,8,0:0:0:0:
145,183,24746,1,0,0:0:0:0:
145,183,24913,1,8,0:0:0:0:
145,183,24996,1,8,0:0:0:0:
145,183,25079,1,0,0:0:0:0:
145,183,25163,1,0,0:0:0:0:
128,160,25246,1,8,0:0:0:0:
78,180,25413,1,0,0:0:0:0:
78,180,25579,1,8,0:0:0:0:
145,183,25663,1,8,0:0:0:0:
64,160,25746,1,0,0:0:0:0:
78,180,25829,1,8,0:0:0:0:
145,183,25996,1,8,0:0:0:0:
145,183,26079,1,0,0:0:0:0:
64,160,26246,1,8,0:0:0:0:
145,183,26329,1,8,0:0:0:0:
160,160,26413,1,0,0:0:0:0:
145,183,26496,1,0,0:0:0:0:
0,159,26579,1,8,0:0:0:0:
145,183,26746,1,0,0:0:0:0:
0,159,26913,1,8,0:0:0:0:
0,159,26996,1,8,0:0:0:0:
0,159,27079,1,0,0:0:0:0:
0,159,27163,1,0,0:0:0:0:
0,159,27246,1,8,0:0:0:0:
0,159,27413,1,0,0:0:0:0:
0,159,27496,1,8,0:0:0:0:
0,159,27663,1,8,0:0:0:0:
0,159,27746,1,0,0:0:0:0:
0,159,27913,1,8,0:0:0:0:
0,159,28079,1,0,0:0:0:0:
0,159,28246,1,8,0:0:0:0:
87,142,28329,1,8,0:0:0:0:
87,142,28413,1,0,0:0:0:0:
87,142,28496,1,8,0:0:0:0:
87,142,28579,1,0,0:0:0:0:
87,142,28746,1,0,0:0:0:0:
87,142,28829,1,8,0:0:0:0:
87,142,28996,1,8,0:0:0:0:
0,159,29079,1,0,0:0:0:0:
128,160,29246,1,8,0:0:0:0:
162,227,29413,1,4,0:0:0:0:
87,142,29579,1,8,0:0:0:0:
87,142,29746,1,0,0:0:0:0:
87,142,29829,1,0,0:0:0:0:
87,142,29913,1,8,0:0:0:0:
162,227,30079,1,4,0:0:0:0:
87,142,30246,1,8,0:0:0:0:
87,142,30413,1,0,0:0:0:0:
87,142,30496,1,0,0:0:0:0:
87,142,30579,1,8,0:0:0:0:
162,227,30746,1,4,0:0:0:0:
87,142,30913,1,8,0:0:0:0:
162,227,31079,1,4,0:0:0:0:
87,142,31246,1,8,0:0:0:0:
162,227,31413,1,4,0:0:0:0:
87,142,31579,1,8,0:0:0:0:
162,227,31746,1,4,0:0:0:0:
162,227,32079,1,0,0:0:0:0:
130,162,32163,1,8,0:0:0:0:
71,158,32246,1,0,0:0:0:0:
130,162,32413,1,0,0:0:0:0:
130,162,32579,1,8,0:0:0:0:
130,162,32663,1,8,0:0:0:0:
130,162,32746,1,0,0:0:0:0:
130,162,32913,1,8,0:0:0:0:
130,162,33079,1,0,0:0:0:0:
71,158,33246,1,0,0:0:0:0:
130,162,33413,1,0,0:0:0:0:
71,158,33496,1,8,0:0:0:0:
130,162,33579,1,0,0:0:0:0:
130,162,33746,1,0,0:0:0:0:
130,162,33913,1,8,0:0:0:0:
96,128,33996,1,8,0:0:0:0:
130,162,34079,1,0,0:0:0:0:
71,158,34246,1,8,0:0:0:0:
130,162,34413,1,0,0:0:0:0:
71,158,34579,1,0,0:0:0:0:
130,162,34746,1,0,0:0:0:0:
130,162,34829,1,0,0:0:0:0:
130,162,34913,1,8,0:0:0:0:
130,162,34996,1,8,0:0:0:0:
130,162,35079,1,0,0:0:0:0:
160,128,35246,1,8,0:0:0:0:
160,128,35413,1,0,0:0:0:0:
130,162,35579,1,8,0:0:0:0:
160,128,35746,1,0,0:0:0:0:
71,158,35913,1,8,0:0:0:0:
159,199,36079,1,0,0:0:0:0:
159,199,36163,1,0,0:0:0:0:
159,199,36246,1,8,0:0:0:0:
159,199,36329,1,8,0:0:0:0:
159,199,36413,1,0,0:0:0:0:
192,160,36579,1,8,0:0:0:0:
159,199,36746,1,0,0:0:0:0:
159,199,36913,1,8,0:0:0:0:
71,158,37079,1,0,0:0:0:0:
96,128,37246,1,8,0:0:0:0:
120,165,37413,1,0,0:0:0:0:
120,165,37496,1,0,0:0:0:0:
120,165,37579,1,0,0:0:0:0:
120,165,37746,1,0,0:0:0:0:
120,165,37913,1,8,0:0:0:0:
159,199,38079,1,0,0:0:0:0:
120,165,38163,1,0,0:0:0:0:
120,165,38246,1,0,0:0:0:0:
159,199,38413,1,4,0:0:0:0:
120,165,38746,1,0,0:0:0:0:
120,165,38829,1,0,0:0:0:0:
120,165,38913,1,0,0:0:0:0:
120,165,39079,1,0,0:0:0:0:
120,165,39246,1,8,0:0:0:0:
159,199,39413,1,0,0:0:0:0:
128,192,39496,1,0,0:0:0:0:
96,192,39579,1,0,0:0:0:0:
159,199,39746,1,4,0:0:0:0:
92,164,40079,1,0,0:0:0:0:
92,164,40163,1,0,0:0:0:0:
92,164,40246,1,8,0:0:0:0:
58,164,40329,1,8,0:0:0:0:
26,164,40413,1,0,0:0:0:0:
92,164,40496,1,0,0:0:0:0:
92,164,40579,1,8,0:0:0:0:
26,164,40663,1,8,0:0:0:0:
92,164,40746,1,0,0:0:0:0:
92,164,40913,1,8,0:0:0:0:
92,164,41079,1,0,0:0:0:0:
26,164,41246,1,8,0:0:0:0:
92,164,41413,1,0,0:0:0:0:
92,164,41496,1,0,0:0:0:0:
92,164,41579,1,8,0:0:0:0:
58,164,41663,1,8,0:0:0:0:
26,164,41746,1,0,0:0:0:0:
92,164,41829,1,0,0:0:0:0:
92,164,41913,1,8,0:0:0:0:
26,164,41996,1,8,0:0:0:0:
92,164,42079,1,0,0:0:0:0:
92,164,42246,1,8,0:0:0:0:
92,164,42413,1,0,0:0:0:0:
26,164,42579,1,8,0:0:0:0:
101,168,42746,1,0,0:0:0:0:
65,146,42829,1,8,0:0:0:0:
101,168,42996,1,8,0:0:0:0:
101,168,43079,1,0,0:0:0:0:
101,168,43246,1,8,0:0:0:0:
101,168,43413,1,0,0:0:0:0:
112,104,43496,1,0,0:0:0:0:
112,104,43579,1,8,0:0:0:0:
101,168,43746,1,0,0:0:0:0:
112,104,43913,1,8,0:0:0:0:
101,168,44079,1,0,0:0:0:0:
113,132,44163,1,8,0:0:0:0:
101,168,44329,1,8,0:0:0:0:
101,168,44413,1,0,0:0:0:0:
101,168,44579,1,8,0:0:0:0:
101,168,44746,1,0,0:0:0:0:
112,104,44829,1,0,0:0:0:0:
112,104,44913,1,8,0:0:0:0:
101,168,45079,1,0,0:0:0:0:
112,104,45246,1,8,0:0:0:0:
101,168,45413,1,0,0:0:0:0:
65,146,45496,1,0,0:0:0:0:
101,168,45579,1,8,0:0:0:0:
101,168,45746,1,8,0:0:0:0:
101,168,45829,1,8,0:0:0:0:
41,187,45913,1,0,0:0:0:0:
101,168,46079,1,0,0:0:0:0:
160,224,46246,1,8,0:0:0:0:
101,168,46413,1,0,0:0:0:0:
101,168,46746,1,0,0:0:0:0:
112,104,46829,1,0,0:0:0:0:
101,168,46913,1,8,0:0:0:0:
101,168,47079,1,8,0:0:0:0:
101,168,47163,1,8,0:0:0:0:
101,168,47246,1,0,0:0:0:0:
101,168,47413,1,0,0:0:0:0:
192,256,47579,1,8,0:0:0:0:
101,168,47746,1,0,0:0:0:0:
70,203,48079,2,0,L|232:202,3,140
190,201,49413,1,0,0:0:0:0:
190,201,49496,1,0,0:0:0:0:
190,201,49579,1,8,0:0:0:0:
190,201,49663,1,8,0:0:0:0:
190,201,49746,1,0,0:0:0:0:
32,192,49913,1,8,0:0:0:0:
190,201,50079,1,0,0:0:0:0:
190,201,50246,1,8,0:0:0:0:
190,201,50413,1,0,0:0:0:0:
116,216,50746,1,0,0:0:0:0:
116,216,50913,1,0,0:0:0:0:
116,216,51079,1,0,0:0:0:0:
116,216,51246,1,0,0:0:0:0:
116,216,51413,1,0,0:0:0:0:
116,216,51468,1,0,0:0:0:0:
116,216,51524,1,0,0:0:0:0:
116,216,51579,1,8,0:0:0:0:
67,132,51635,1,8,0:0:0:0:
67,132,51691,1,8,0:0:0:0:
116,216,51746,1,0,0:0:0:0:
192,160,51913,1,8,0:0:0:0:
205,195,52079,1,0,0:0:0:0:
116,216,52163,1,0,0:0:0:0:
272,81,52246,1,8,0:0:0:0:
272,81,52413,1,0,0:0:0:0:
272,81,52579,1,8,0:0:0:0:
84,176,52746,1,0,0:0:0:0:
84,176,52913,5,8,0:0:0:0:
43,150,53079,1,0,0:0:0:0:
256,192,53413,5,12,0:0:0:0:
256,192,53579,1,0,0:0:0:0:
256,192,53746,1,8,0:0:0:0:
256,192,53913,1,0,0:0:0:0:
256,192,53996,1,0,0:0:0:0:
256,192,54079,1,8,0:0:0:0:
256,192,54246,1,0,0:0:0:0:
256,192,54329,1,0,0:0:0:0:
256,192,54579,1,0,0:0:0:0:
256,192,54663,1,8,0:0:0:0:
256,192,54746,1,8,0:0:0:0:
256,192,54913,1,0,0:0:0:0:
256,192,55079,1,0,0:0:0:0:
256,192,55163,1,0,0:0:0:0:
256,192,55246,1,8,0:0:0:0:
256,192,55329,1,0,0:0:0:0:
256,192,55413,1,8,0:0:0:0:
256,192,55579,1,0,0:0:0:0:
256,192,55746,1,8,0:0:0:0:
256,192,55913,1,8,0:0:0:0:
256,192,55996,1,8,0:0:0:0:
256,192,56079,1,0,0:0:0:0:
256,192,56246,1,8,0:0:0:0:
256,192,56329,1,8,0:0:0:0:
256,192,56413,1,0,0:0:0:0:
256,192,56579,1,0,0:0:0:0:
256,192,56746,1,0,0:0:0:0:
256,192,56829,1,0,0:0:0:0:
256,192,56913,1,8,0:0:0:0:
256,192,57079,1,8,0:0:0:0:
256,192,57246,1,0,0:0:0:0:
256,192,57413,1,8,0:0:0:0:
256,192,57579,1,0,0:0:0:0:
256,192,57746,1,8,0:0:0:0:
256,192,57829,1,8,0:0:0:0:
256,192,57913,1,0,0:0:0:0:
256,192,58079,1,8,0:0:0:0:
256,192,58163,1,8,0:0:0:0:
256,192,58246,1,0,0:0:0:0:
256,192,58413,1,8,0:0:0:0:
256,192,58579,1,0,0:0:0:0:
256,192,58746,1,12,0:0:0:0:
256,192,58913,1,0,0:0:0:0:
256,192,58996,1,0,0:0:0:0:
256,192,59079,1,8,0:0:0:0:
256,192,59163,1,0,0:0:0:0:
256,192,59246,1,0,0:0:0:0:
256,192,59329,1,0,0:0:0:0:
256,192,59413,1,8,0:0:0:0:
256,192,59579,1,0,0:0:0:0:
256,192,59663,1,0,0:0:0:0:
256,192,59913,1,0,0:0:0:0:
256,192,59996,1,8,0:0:0:0:
256,192,60079,1,8,0:0:0:0:
256,192,60246,1,0,0:0:0:0:
256,192,60413,1,8,0:0:0:0:
256,192,60496,1,0,0:0:0:0:
256,192,60579,1,8,0:0:0:0:
256,192,60663,1,0,0:0:0:0:
256,192,60746,1,8,0:0:0:0:
256,192,60913,1,8,0:0:0:0:
256,192,60996,1,8,0:0:0:0:
256,192,61079,1,0,0:0:0:0:
256,192,61246,1,8,0:0:0:0:
256,192,61413,1,0,0:0:0:0:
256,192,61579,1,8,0:0:0:0:
256,192,61746,1,0,0:0:0:0:
256,192,61913,1,8,0:0:0:0:
256,192,62079,1,8,0:0:0:0:
256,192,62163,1,0,0:0:0:0:
256,192,62246,1,8,0:0:0:0:
256,192,62329,1,0,0:0:0:0:
256,192,62413,1,8,0:0:0:0:
256,192,62496,1,0,0:0:0:0:
256,192,62579,1,8,0:0:0:0:
256,192,62746,1,8,0:0:0:0:
256,192,62829,1,8,0:0:0:0:
256,192,63079,1,8,0:0:0:0:
256,192,63246,1,0,0:0:0:0:
256,192,63413,1,8,0:0:0:0:
256,192,63579,1,8,0:0:0:0:
256,192,63746,1,0,0:0:0:0:
256,192,64079,1,4,0:0:0:0:
256,192,64746,1,0,0:0:0:0:
256,192,65413,1,8,0:0:0:0:
256,192,66079,1,8,0:0:0:0:
256,192,66746,1,0,0:0:0:0:
256,192,67413,1,8,0:0:0:0:
256,192,68079,1,8,0:0:0:0:
256,192,68746,1,8,0:0:0:0:
256,192,69413,1,8,0:0:0:0:
256,192,69579,1,8,0:0:0:0:
256,192,69746,1,8,0:0:0:0:
256,192,69913,1,8,0:0:0:0:
256,192,70079,1,0,0:0:0:0:
256,192,70246,1,0,0:0:0:0:
256,192,70413,1,0,0:0:0:0:
256,192,70579,1,0,0:0:0:0:
256,192,70746,1,8,0:0:0:0:
256,192,70913,1,8,0:0:0:0:
256,192,71079,1,8,0:0:0:0:
256,192,71246,1,8,0:0:0:0:
256,192,71413,1,0,0:0:0:0:
256,192,71579,1,0,0:0:0:0:
256,192,71746,1,0,0:0:0:0:
256,192,71913,1,0,0:0:0:0:
256,192,72079,1,8,0:0:0:0:
256,192,72246,1,8,0:0:0:0:
256,192,72413,1,0,0:0:0:0:
256,192,72579,1,0,0:0:0:0:
256,192,72746,1,0,0:0:0:0:
256,192,72913,1,8,0:0:0:0:
256,192,73079,1,0,0:0:0:0:
256,192,73246,1,0,0:0:0:0:
256,192,73413,1,0,0:0:0:0:
256,192,73579,1,8,0:0:0:0:
256,192,73746,1,0,0:0:0:0:
256,192,73913,1,0,0:0:0:0:
256,192,74079,1,8,0:0:0:0:
256,192,74246,1,8,0:0:0:0:
256,192,74413,1,0,0:0:0:0:
256,192,74579,1,0,0:0:0:0:
256,192,74746,1,8,0:0:0:0:
256,192,74913,1,0,0:0:0:0:
256,192,75079,1,8,0:0:0:0:
256,192,75163,1,0,0:0:0:0:
256,192,75246,1,8,0:0:0:0:
256,192,75329,1,8,0:0:0:0:
256,192,75413,1,8,0:0:0:0:
256,192,75579,1,0,0:0:0:0:
256,192,75663,1,0,0:0:0:0:
256,192,75913,1,0,0:0:0:0:
256,192,75996,1,0,0:0:0:0:
256,192,76079,1,8,0:0:0:0:
256,192,76246,1,0,0:0:0:0:
256,192,76329,1,0,0:0:0:0:
256,192,76413,1,0,0:0:0:0:
256,192,76579,1,0,0:0:0:0:
256,192,76663,1,0,0:0:0:0:
256,192,76746,1,8,0:0:0:0:
256,192,76913,1,0,0:0:0:0:
256,192,76996,1,0,0:0:0:0:
256,192,77079,1,8,0:0:0:0:
256,192,77163,1,8,0:0:0:0:
256,192,77246,1,0,0:0:0:0:
256,192,77413,1,0,0:0:0:0:
256,192,77579,1,8,0:0:0:0:
256,192,77746,1,0,0:0:0:0:
256,192,77913,1,8,0:0:0:0:
256,192,78079,1,8,0:0:0:0:
256,192,78163,1,0,0:0:0:0:
256,192,78246,1,8,0:0:0:0:
256,192,78413,1,0,0:0:0:0:
256,192,78579,1,8,0:0:0:0:
256,192,78663,1,0,0:0:0:0:
256,192,78746,1,8,0:0:0:0:
256,192,78913,1,8,0:0:0:0:
256,192,79079,1,0,0:0:0:0:
256,192,79246,1,0,0:0:0:0:
256,192,79413,1,8,0:0:0:0:
256,192,79579,1,0,0:0:0:0:
256,192,79746,1,0,0:0:0:0:
256,192,79913,1,0,0:0:0:0:
256,192,80079,1,8,0:0:0:0:
256,192,80246,1,0,0:0:0:0:
256,192,80413,1,0,0:0:0:0:
256,192,80496,1,0,0:0:0:0:
256,192,80579,1,8,0:0:0:0:
256,192,80663,1,0,0:0:0:0:
256,192,80746,1,8,0:0:0:0:
256,192,80913,1,0,0:0:0:0:
256,192,80996,1,0,0:0:0:0:
256,192,81246,1,0,0:0:0:0:
256,192,81329,1,0,0:0:0:0:
256,192,81413,1,8,0:0:0:0:
256,192,81579,1,0,0:0:0:0:
256,192,81746,1,8,0:0:0:0:
256,192,81913,1,0,0:0:0:0:
256,192,82079,1,8,0:0:0:0:
256,192,82246,1,0,0:0:0:0:
256,192,82329,1,0,0:0:0:0:
256,192,82413,1,8,0:0:0:0:
256,192,82496,1,8,0:0:0:0:
256,192,82579,1,0,0:0:0:0:
256,192,82746,1,8,0:0:0:0:
256,192,82829,1,0,0:0:0:0:
256,192,82913,1,8,0:0:0:0:
256,192,82996,1,0,0:0:0:0:
256,192,83079,1,8,0:0:0:0:
256,192,83163,1,0,0:0:0:0:
256,192,83246,1,0,0:0:0:0:
256,192,83329,1,0,0:0:0:0:
256,192,83413,1,8,0:0:0:0:
256,192,83496,1,0,0:0:0:0:
256,192,83579,1,2,0:0:0:0:
256,192,83663,1,0,0:0:0:0:
256,192,83746,1,8,0:0:0:0:
256,192,83829,1,0,0:0:0:0:
256,192,83913,1,0,0:0:0:0:
256,192,83996,1,0,0:0:0:0:
256,192,84079,1,8,0:0:0:0:
256,192,84163,1,0,0:0:0:0:
256,192,84246,1,0,0:0:0:0:
256,192,84329,1,0,0:0:0:0:
256,192,84413,1,8,0:0:0:0:
256,192,84496,1,0,0:0:0:0:
256,192,84579,1,0,0:0:0:0:
256,192,84663,1,0,0:0:0:0:
256,192,84746,1,8,0:0:0:0:
256,192,84829,1,0,0:0:0:0:
256,192,84913,1,0,0:0:0:0:
256,192,84996,1,0,0:0:0:0:
256,192,85079,1,8,0:0:0:0:
256,192,85163,1,0,0:0:0:0:
256,192,85246,1,0,0:0:0:0:
256,192,85329,1,0,0:0:0:0:
256,192,85413,1,0,0:0:0:0:
256,192,85579,1,4,0:0:0:0:
256,192,85746,1,12,0:0:0:0:
256,192,85913,1,4,0:0:0:0:
256,192,86079,1,4,0:0:0:0:
256,192,86746,5,12,0:0:0:0:
256,192,87413,1,0,0:0:0:0:
256,192,88079,1,8,0:0:0:0:
256,192,88913,1,0,0:0:0:0:
256,192,88996,1,0,0:0:0:0:
256,192,89079,1,0,0:0:0:0:
256,192,89246,1,0,0:0:0:0:
256,192,89413,1,8,0:0:0:0:
256,192,90079,1,0,0:0:0:0:
256,192,90746,1,8,0:0:0:0:
256,192,91579,5,0,0:0:0:0:
256,192,91663,1,0,0:0:0:0:
256,192,91746,1,0,0:0:0:0:
256,192,91913,1,0,0:0:0:0:
256,192,92079,1,8,0:0:0:0:
256,192,92413,1,0,0:0:0:0:
256,192,92746,1,8,0:0:0:0:
256,192,93079,1,0,0:0:0:0:
256,192,93413,1,8,0:0:0:0:
256,192,93579,1,8,0:0:0:0:
256,192,93746,1,0,0:0:0:0:
256,192,93913,1,0,0:0:0:0:
256,192,94079,1,8,0:0:0:0:
256,192,94246,1,8,0:0:0:0:
256,192,94413,1,0,0:0:0:0:
256,192,94579,1,0,0:0:0:0:
256,192,94746,1,8,0:0:0:0:
256,192,94913,1,0,0:0:0:0:
256,192,94996,1,0,0:0:0:0:
256,192,95079,1,8,0:0:0:0:
256,192,95246,1,0,0:0:0:0:
256,192,95413,1,8,0:0:0:0:
256,192,95496,1,8,0:0:0:0:
256,192,95579,1,0,0:0:0:0:
256,192,95746,1,8,0:0:0:0:
256,192,95913,1,8,0:0:0:0:
256,192,96079,1,0,0:0:0:0:
256,192,96163,1,0,0:0:0:0:
256,192,96246,1,0,0:0:0:0:
256,192,96329,1,0,0:0:0:0:
256,192,96413,1,0,0:0:0:0:
256,192,96496,1,0,0:0:0:0:
256,192,96579,1,8,0:0:0:0:
256,192,96663,1,8,0:0:0:0:
256,192,96746,1,8,0:0:0:0:
256,192,96829,1,8,0:0:0:0:
256,192,96913,1,8,0:0:0:0:
256,192,96996,1,8,0:0:0:0:
256,192,97079,1,0,0:0:0:0:
256,192,97413,1,12,0:0:0:0:
256,192,97746,1,0,0:0:0:0:
256,192,98079,5,8,0:0:0:0:
256,192,98163,1,8,0:0:0:0:
256,192,98246,1,0,0:0:0:0:
256,192,98329,1,0,0:0:0:0:
256,192,98413,1,8,0:0:0:0:
256,192,98496,1,8,0:0:0:0:
256,192,98579,1,0,0:0:0:0:
256,192,98663,1,8,0:0:0:0:
256,192,98746,1,0,0:0:0:0:
256,192,98829,1,8,0:0:0:0:
256,192,98913,1,0,0:0:0:0:
256,192,98996,1,0,0:0:0:0:
256,192,99079,1,8,0:0:0:0:
256,192,99163,1,8,0:0:0:0:
256,192,99246,1,0,0:0:0:0:
256,192,99329,1,0,0:0:0:0:
256,192,99413,1,8,0:0:0:0:
256,192,99496,1,8,0:0:0:0:
256,192,99663,1,8,0:0:0:0:
256,192,99829,1,8,0:0:0:0:
256,192,100079,1,4,0:0:0:0:
256,192,100413,1,8,0:0:0:0:
256,192,100579,1,0,0:0:0:0:
256,192,100663,1,0,0:0:0:0:
256,192,100746,1,8,0:0:0:0:
256,192,100913,1,8,0:0:0:0:
256,192,100996,1,8,0:0:0:0:
256,192,101079,1,0,0:0:0:0:
256,192,101163,1,0,0:0:0:0:
256,192,101246,1,8,0:0:0:0:
256,192,101413,1,0,0:0:0:0:
256,192,101579,1,0,0:0:0:0:
256,192,101746,1,8,0:0:0:0:
256,192,101913,1,0,0:0:0:0:
256,192,101996,1,8,0:0:0:0:
256,192,102079,1,0,0:0:0:0:
256,192,102246,1,8,0:0:0:0:
256,192,102329,1,8,0:0:0:0:
256,192,102413,1,0,0:0:0:0:
256,192,102579,1,8,0:0:0:0:
256,192,102746,1,0,0:0:0:0:
256,192,102829,1,0,0:0:0:0:
256,192,102913,1,0,0:0:0:0:
256,192,102996,1,8,0:0:0:0:
256,192,103079,1,0,0:0:0:0:
256,192,103163,1,0,0:0:0:0:
256,192,103246,1,8,0:0:0:0:
256,192,103413,1,0,0:0:0:0:
256,192,103496,1,0,0:0:0:0:
256,192,103579,1,8,0:0:0:0:
256,192,103663,1,8,0:0:0:0:
256,192,103746,1,8,0:0:0:0:
256,192,103829,1,0,0:0:0:0:
256,192,103913,1,8,0:0:0:0:
256,192,104079,1,0,0:0:0:0:
256,192,104163,1,0,0:0:0:0:
256,192,104246,1,0,0:0:0:0:
256,192,104329,1,8,0:0:0:0:
256,192,104413,1,0,0:0:0:0:
256,192,104496,1,0,0:0:0:0:
256,192,104579,1,8,0:0:0:0:
256,192,104746,1,0,0:0:0:0:
256,192,104913,1,8,0:0:0:0:
256,192,104996,1,0,0:0:0:0:
256,192,105079,1,8,0:0:0:0:
256,192,105163,1,8,0:0:0:0:
256,192,105246,1,0,0:0:0:0:
256,192,105413,1,0,0:0:0:0:
256,192,105746,1,8,0:0:0:0:
256,192,105913,1,0,0:0:0:0:
256,192,105996,1,0,0:0:0:0:
256,192,106079,1,8,0:0:0:0:
256,192,106246,1,8,0:0:0:0:
256,192,106329,1,8,0:0:0:0:
256,192,106413,1,0,0:0:0:0:
256,192,106496,1,0,0:0:0:0:
256,192,106579,1,8,0:0:0:0:
256,192,106746,1,0,0:0:0:0:
256,192,106913,1,0,0:0:0:0:
256,192,107079,1,8,0:0:0:0:
256,192,107246,1,0,0:0:0:0:
256,192,107329,1,8,0:0:0:0:
256,192,107413,1,0,0:0:0:0:
256,192,107579,1,8,0:0:0:0:
256,192,107663,1,0,0:0:0:0:
256,192,107746,1,0,0:0:0:0:
256,192,107829,1,8,0:0:0:0:
256,192,107913,1,8,0:0:0:0:
256,192,108079,1,0,0:0:0:0:
256,192,108163,1,0,0:0:0:0:
256,192,108246,1,8,0:0:0:0:
256,192,108329,1,8,0:0:0:0:
256,192,108413,1,0,0:0:0:0:
256,192,108496,1,0,0:0:0:0:
256,192,108579,1,8,0:0:0:0:
256,192,108663,1,8,0:0:0:0:
256,192,108746,1,0,0:0:0:0:
256,192,108913,1,8,0:0:0:0:
256,192,108996,1,0,0:0:0:0:
256,192,109079,1,8,0:0:0:0:
256,192,109163,1,8,0:0:0:0:
256,192,109246,1,0,0:0:0:0:
256,192,109413,1,12,0:0:0:0:
256,192,109579,1,12,0:0:0:0:
256,192,109746,1,0,0:0:0:0:
256,192,109913,1,12,0:0:0:0:
256,192,110079,1,0,0:0:0:0:
256,192,110135,1,0,0:0:0:0:
256,192,110191,1,0,0:0:0:0:
256,192,110246,1,8,0:0:0:0:
256,192,110329,1,8,0:0:0:0:
256,192,110413,1,8,0:0:0:0:
256,192,110496,1,8,0:0:0:0:
256,192,110579,1,0,0:0:0:0:
256,192,110746,1,4,0:0:0:0:
256,192,111079,1,12,0:0:0:0:
256,192,111246,1,0,0:0:0:0:
256,192,111329,1,0,0:0:0:0:
256,192,111413,1,8,0:0:0:0:
256,192,111496,1,8,0:0:0:0:
256,192,111579,1,0,0:0:0:0:
256,192,111663,1,0,0:0:0:0:
256,192,111746,1,8,0:0:0:0:
256,192,111913,1,0,0:0:0:0:
256,192,111996,1,8,0:0:0:0:
256,192,112079,1,0,0:0:0:0:
256,192,112246,1,0,0:0:0:0:
256,192,112413,1,8,0:0:0:0:
256,192,112579,1,8,0:0:0:0:
256,192,112663,1,8,0:0:0:0:
256,192,112746,1,0,0:0:0:0:
256,192,112829,1,0,0:0:0:0:
256,192,112913,1,0,0:0:0:0:
256,192,112996,1,0,0:0:0:0:
256,192,113079,1,8,0:0:0:0:
256,192,113246,1,8,0:0:0:0:
256,192,113413,1,0,0:0:0:0:
256,192,113496,1,0,0:0:0:0:
256,192,113579,1,0,0:0:0:0:
256,192,113663,1,8,0:0:0:0:
256,192,113746,1,0,0:0:0:0:
256,192,113829,1,0,0:0:0:0:
256,192,113913,1,8,0:0:0:0:
256,192,114079,1,0,0:0:0:0:
256,192,114163,1,0,0:0:0:0:
256,192,114246,1,8,0:0:0:0:
256,192,114329,1,8,0:0:0:0:
256,192,114413,1,0,0:0:0:0:
256,192,114579,1,12,0:0:0:0:
256,192,114913,1,12,0:0:0:0:
256,192,115246,1,12,0:0:0:0:
256,192,115413,1,0,0:0:0:0:
256,192,115579,1,8,0:0:0:0:
256,192,115663,1,0,0:0:0:0:
256,192,115746,1,8,0:0:0:0:
256,192,116079,1,4,0:0:0:0:
256,192,116413,1,8,0:0:0:0:
256,192,116496,1,0,0:0:0:0:
256,192,116579,1,0,0:0:0:0:
256,192,116663,1,0,0:0:0:0:
256,192,116746,1,8,0:0:0:0:
256,192,116829,1,8,0:0:0:0:
256,192,116913,1,0,0:0:0:0:
256,192,116996,1,0,0:0:0:0:
256,192,117079,1,8,0:0:0:0:
256,192,117413,1,4,0:0:0:0:
256,192,117746,1,8,0:0:0:0:
256,192,117829,1,0,0:0:0:0:
256,192,117913,1,0,0:0:0:0:
256,192,117996,1,0,0:0:0:0:
256,192,118079,1,8,0:0:0:0:
256,192,118163,1,0,0:0:0:0:
256,192,118246,1,8,0:0:0:0:
256,192,118329,1,0,0:0:0:0:
256,192,118413,1,8,0:0:0:0:
256,192,118746,1,4,0:0:0:0:
256,192,118913,1,8,0:0:0:0:
256,192,119079,1,0,0:0:0:0:
256,192,119163,1,0,0:0:0:0:
256,192,119246,1,8,0:0:0:0:
256,192,119413,1,4,0:0:0:0:
256,192,119579,1,8,0:0:0:0:
256,192,119663,1,0,0:0:0:0:
256,192,119829,1,0,0:0:0:0:
256,192,119913,1,8,0:0:0:0:
256,192,120079,1,4,0:0:0:0:
256,192,120746,1,8,0:0:0:0:
256,192,120829,1,0,0:0:0:0:
256,192,120913,1,8,0:0:0:0:
256,192,120996,1,8,0:0:0:0:
256,192,121079,1,0,0:0:0:0:
256,192,121163,1,0,0:0:0:0:
256,192,121246,1,8,0:0:0:0:
256,192,121413,2,0,L|224:160,10,35,8|8|8|8|8|8|0|0|0|0|0,0:0|0:0|0:0|0:0|0:0|0:0|0:0|0:0|0:0|0:0|0:0,0:0:0:0:
256,192,122413,1,12,0:0:0:0:
256,192,122746,12,0,125413,0:0:0:0:
256,192,126079,5,0,0:0:0:0:
256,192,126510,1,0,0:0:0:0:
256,192,126942,1,8,0:0:0:0:
256,192,127378,1,8,0:0:0:0:
256,192,127596,1,8,0:0:0:0:
256,192,127814,1,0,0:0:0:0:
256,192,128105,1,8,0:0:0:0:
256,192,128396,1,8,0:0:0:0:
256,192,128687,1,8,0:0:0:0:
256,192,129123,1,8,0:0:0:0:
256,192,129342,1,8,0:0:0:0:
256,192,129560,1,0,0:0:0:0:
256,192,129851,1,0,0:0:0:0:
256,192,130142,1,8,0:0:0:0:
256,192,130432,1,0,0:0:0:0:
256,192,130723,1,8,0:0:0:0:
256,192,131014,1,0,0:0:0:0:
256,192,131305,1,8,0:0:0:0:
256,192,131596,1,0,0:0:0:0:
256,192,131887,1,8,0:0:0:0:
256,192,132178,1,0,0:0:0:0:
256,192,132392,1,8,0:0:0:0:
256,192,132606,1,0,0:0:0:0:
256,192,132820,1,0,0:0:0:0:
256,192,133035,1,8,0:0:0:0:
256,192,133249,1,8,0:0:0:0:
256,192,133463,1,0,0:0:0:0:
256,192,133678,1,8,0:0:0:0:
256,192,133892,1,8,0:0:0:0:
256,192,133988,1,8,0:0:0:0:
256,192,134182,1,0,0:0:0:0:
256,192,134279,1,0,0:0:0:0:
256,192,134472,1,8,0:0:0:0:
256,192,134569,1,8,0:0:0:0:
256,192,134762,1,0,0:0:0:0:
256,192,134859,1,0,0:0:0:0:
256,192,135053,1,8,0:0:0:0:
256,192,135150,1,8,0:0:0:0:
256,192,135246,1,0,0:0:0:0:
256,192,135343,1,0,0:0:0:0:
256,192,135440,1,8,0:0:0:0:
256,192,135633,1,0,0:0:0:0:
256,192,135730,1,0,0:0:0:0:
256,192,135827,1,8,0:0:0:0:
256,192,136021,1,0,0:0:0:0:
256,192,136214,1,8,0:0:0:0:
256,192,136311,1,0,0:0:0:0:
256,192,136408,1,8,0:0:0:0:
256,192,136504,1,0,0:0:0:0:
256,192,136601,1,8,0:0:0:0:
256,192,136795,1,8,0:0:0:0:
256,192,136988,1,0,0:0:0:0:
256,192,137182,1,8,0:0:0:0:
256,192,137279,1,8,0:0:0:0:
256,192,137375,1,0,0:0:0:0:
256,192,137569,1,0,0:0:0:0:
256,192,137762,1,8,0:0:0:0:
256,192,137956,1,0,0:0:0:0:
256,192,138053,1,0,0:0:0:0:
256,192,138150,1,8,0:0:0:0:
256,192,138246,1,8,0:0:0:0:
256,192,138343,1,8,0:0:0:0:
256,192,138440,1,8,0:0:0:0:
256,192,138537,1,8,0:0:0:0:
256,192,138633,1,0,0:0:0:0:
256,192,138827,1,0,0:0:0:0:
256,192,138924,1,8,0:0:0:0:
256,192,139117,1,8,0:0:0:0:
256,192,139214,1,0,0:0:0:0:
256,192,139408,1,0,0:0:0:0:
256,192,139504,1,8,0:0:0:0:
256,192,139698,1,8,0:0:0:0:
256,192,139795,1,0,0:0:0:0:
256,192,139892,1,8,0:0:0:0:
256,192,139988,1,8,0:0:0:0:
256,192,140085,1,8,0:0:0:0:
256,192,140182,1,0,0:0:0:0:
256,192,140375,1,0,0:0:0:0:
256,192,140472,1,8,0:0:0:0:
256,192,140666,1,8,0:0:0:0:
256,192,140762,1,0,0:0:0:0:
256,192,140956,1,0,0:0:0:0:
256,192,141053,1,8,0:0:0:0:
256,192,141246,1,8,0:0:0:0:
256,192,141343,1,0,0:0:0:0:
256,192,141440,1,8,0:0:0:0:
256,192,141537,1,0,0:0:0:0:
256,192,141633,1,8,0:0:0:0:
256,192,141730,1,0,0:0:0:0:
256,192,141924,1,0,0:0:0:0:
256,192,142021,1,8,0:0:0:0:
256,192,142214,1,8,0:0:0:0:
256,192,142311,1,0,0:0:0:0:
256,192,142504,1,0,0:0:0:0:
256,192,142601,1,8,0:0:0:0:
256,192,142698,1,0,0:0:0:0:
256,192,142795,1,8,0:0:0:0:
256,192,142892,1,0,0:0:0:0:
256,192,142988,1,8,0:0:0:0:
256,192,143085,1,8,0:0:0:0:
256,192,143182,1,8,0:0:0:0:
256,192,143279,1,0,0:0:0:0:
256,192,143472,1,0,0:0:0:0:
256,192,143569,1,8,0:0:0:0:
256,192,143762,1,8,0:0:0:0:
256,192,143859,1,0,0:0:0:0:
256,192,144053,1,0,0:0:0:0:
256,192,144150,1,8,0:0:0:0:
256,192,144246,1,0,0:0:0:0:
256,192,144343,1,8,0:0:0:0:
256,192,144440,1,0,0:0:0:0:
256,192,144537,1,8,0:0:0:0:
256,192,144633,1,0,0:0:0:0:
256,192,144730,1,8,0:0:0:0:
256,192,144827,1,0,0:0:0:0:
256,192,145021,1,0,0:0:0:0:
256,192,145117,1,8,0:0:0:0:
256,192,145311,1,8,0:0:0:0:
256,192,145408,1,0,0:0:0:0:
256,192,145601,1,0,0:0:0:0:
256,192,145698,1,8,0:0:0:0:
256,192,145892,1,8,0:0:0:0:
256,192,145988,1,0,0:0:0:0:
256,192,146085,1,8,0:0:0:0:
256,192,146182,1,8,0:0:0:0:
256,192,146279,1,8,0:0:0:0:
256,192,146375,1,0,0:0:0:0:
256,192,146569,1,0,0:0:0:0:
256,192,146666,1,8,0:0:0:0:
256,192,146859,1,8,0:0:0:0:
256,192,146956,1,0,0:0:0:0:
256,192,147150,1,0,0:0:0:0:
256,192,147246,1,8,0:0:0:0:
256,192,147440,1,8,0:0:0:0:
256,192,147537,1,0,0:0:0:0:
256,192,147633,1,8,0:0:0:0:
256,192,147730,1,0,0:0:0:0:
256,192,147827,1,8,0:0:0:0:
256,192,147924,1,0,0:0:0:0:
256,192,148117,1,0,0:0:0:0:
256,192,148214,1,8,0:0:0:0:
256,192,148408,1,8,0:0:0:0:
256,192,148504,1,0,0:0:0:0:
256,192,148698,1,0,0:0:0:0:
256,192,148795,1,8,0:0:0:0:
256,192,148892,1,0,0:0:0:0:
256,192,148988,1,8,0:0:0:0:
256,192,149085,1,0,0:0:0:0:
256,192,149182,1,8,0:0:0:0:
256,192,149279,1,8,0:0:0:0:
256,192,149375,1,8,0:0:0:0:
256,192,149472,1,0,0:0:0:0:
256,192,149666,1,0,0:0:0:0:
256,192,149762,1,8,0:0:0:0:
256,192,149956,1,8,0:0:0:0:
256,192,150053,1,0,0:0:0:0:
256,192,150343,1,8,0:0:0:0:
256,192,150440,1,0,0:0:0:0:
256,192,150537,1,8,0:0:0:0:
256,192,150633,1,0,0:0:0:0:
256,192,150730,1,8,0:0:0:0:
256,192,150827,1,0,0:0:0:0:
256,192,150924,1,0,0:0:0:0:
256,192,151021,1,0,0:0:0:0:
256,192,151117,1,0,0:0:0:0:
256,192,151214,1,8,0:0:0:0:
256,192,151311,1,8,0:0:0:0:
256,192,151408,1,8,0:0:0:0:
256,192,151504,1,8,0:0:0:0:
256,192,151601,1,0,0:0:0:0:
256,192,151698,1,0,0:0:0:0:
256,192,151795,1,8,0:0:0:0:
256,192,151988,1,8,0:0:0:0:
256,192,152182,1,8,0:0:0:0:
256,192,152279,1,0,0:0:0:0:
256,192,152472,1,0,0:0:0:0:
256,192,152569,1,0,0:0:0:0:
256,192,152666,1,0,0:0:0:0:
256,192,152762,1,0,0:0:0:0:
256,192,152859,1,8,0:0:0:0:
256,192,152956,1,0,0:0:0:0:
256,192,153053,1,8,0:0:0:0:
256,192,153150,1,0,0:0:0:0:
256,192,153246,1,0,0:0:0:0:
256,192,153343,1,8,0:0:0:0:
256,192,153537,1,8,0:0:0:0:
256,192,153730,1,8,0:0:0:0:
256,192,153827,1,0,0:0:0:0:
256,192,153924,1,0,0:0:0:0:
256,192,154021,1,8,0:0:0:0:
256,192,154117,1,0,0:0:0:0:
256,192,154214,1,0,0:0:0:0:
256,192,154311,1,8,0:0:0:0:
256,192,154408,1,8,0:0:0:0:
256,192,154504,1,0,0:0:0:0:
256,192,154601,1,0,0:0:0:0:
256,192,154698,1,0,0:0:0:0:
256,192,154795,1,0,0:0:0:0:
256,192,154891,1,8,0:0:0:0:
256,192,155085,1,8,0:0:0:0:
256,192,155279,1,8,0:0:0:0:
256,192,155375,1,0,0:0:0:0:
256,192,155569,1,0,0:0:0:0:
256,192,155666,1,0,0:0:0:0:
256,192,155762,1,8,0:0:0:0:
256,192,155859,1,8,0:0:0:0:
256,192,155956,1,0,0:0:0:0:
256,192,156053,1,0,0:0:0:0:
256,192,156150,1,8,0:0:0:0:
256,192,156246,1,0,0:0:0:0:
256,192,156343,1,8,0:0:0:0:
256,192,156440,1,8,0:0:0:0:
256,192,156537,1,8,0:0:0:0:
256,192,156633,1,8,0:0:0:0:
256,192,156730,1,0,0:0:0:0:
256,192,156795,1,0,0:0:0:0:
256,192,156859,1,0,0:0:0:0:
256,192,156924,1,0,0:0:0:0:
256,192,156988,1,0,0:0:0:0:
256,192,157053,1,0,0:0:0:0:
256,192,157117,1,0,0:0:0:0:
256,192,157181,1,0,0:0:0:0:
256,192,157231,1,0,0:0:0:0:
256,192,163836,5,0,0:0:0:0:
64,96,164111,5,8,0:0:0:0:
480,320,164295,5,0,0:0:0:0:
448,288,164386,5,8,0:0:0:0:
256,384,164570,5,8,0:0:0:0:
256,0,164662,5,8,0:0:0:0:
512,192,164845,5,8,0:0:0:0:
0,192,164937,5,0,0:0:0:0:
256,288,165120,5,0,0:0:0:0:
256,96,165212,5,0,0:0:0:0:
256,192,165487,5,8,0:0:0:0:
416,192,165671,5,0,0:0:0:0:
96,192,165763,5,8,0:0:0:0:
416,320,165946,5,8,0:0:0:0:
96,64,166038,5,8,0:0:0:0:
256,192,166313,5,8,0:0:0:0:
256,192,166588,5,8,0:0:0:0:
416,64,166772,5,8,0:0:0:0:
96,320,166864,5,0,0:0:0:0:
256,64,167047,5,0,0:0:0:0:
256,320,167139,5,0,0:0:0:0:
256,192,167414,5,0,0:0:0:0:
288,192,167689,5,8,0:0:0:0:
224,192,167964,5,0,0:0:0:0:
32,64,168240,5,0,0:0:0:0:
64,96,168515,5,8,0:0:0:0:
480,320,168698,5,0,0:0:0:0:
448,288,168790,5,8,0:0:0:0:
256,384,168974,5,8,0:0:0:0:
256,0,169065,5,8,0:0:0:0:
256,352,169157,5,0,0:0:0:0:
512,192,169249,5,8,0:0:0:0:
0,192,169341,5,0,0:0:0:0:
256,288,169524,5,0,0:0:0:0:
256,96,169616,5,0,0:0:0:0:
256,192,169891,5,8,0:0:0:0:
416,192,170075,5,0,0:0:0:0:
96,192,170166,5,8,0:0:0:0:
480,320,170258,5,0,0:0:0:0:
416,320,170350,5,8,0:0:0:0:
96,64,170442,5,8,0:0:0:0:
256,192,170717,5,8,0:0:0:0:
256,192,170992,5,8,0:0:0:0:
416,64,171175,5,8,0:0:0:0:
96,320,171267,5,8,0:0:0:0:
256,192,171359,5,0,0:0:0:0:
256,64,171451,5,0,0:0:0:0:
256,320,171542,5,0,0:0:0:0:
96,320,171726,5,0,0:0:0:0:
256,192,171818,5,0,0:0:0:0:
288,192,172093,5,8,0:0:0:0:
224,192,172368,5,0,0:0:0:0:
32,320,172643,5,0,0:0:0:0:
64,288,172919,5,8,0:0:0:0:
480,64,173102,5,0,0:0:0:0:
448,96,173194,5,8,0:0:0:0:
256,0,173377,5,8,0:0:0:0:
256,384,173469,5,8,0:0:0:0:
512,192,173653,5,8,0:0:0:0:
0,192,173744,5,0,0:0:0:0:
256,96,173928,5,0,0:0:0:0:
256,288,174019,5,0,0:0:0:0:
256,192,174295,5,8,0:0:0:0:
416,192,174478,5,0,0:0:0:0:
96,192,174570,5,8,0:0:0:0:
416,64,174753,5,8,0:0:0:0:
96,320,174845,5,8,0:0:0:0:
256,192,175120,5,8,0:0:0:0:
256,192,175396,5,8,0:0:0:0:
416,320,175579,5,8,0:0:0:0:
96,64,175671,5,8,0:0:0:0:
256,320,175854,5,0,0:0:0:0:
256,64,175946,5,0,0:0:0:0:
256,192,176221,5,0,0:0:0:0:
288,192,176497,5,8,0:0:0:0:
224,192,176772,5,8,0:0:0:0:
32,320,177047,5,0,0:0:0:0:
64,288,177322,5,8,0:0:0:0:
480,64,177506,5,0,0:0:0:0:
448,96,177597,5,8,0:0:0:0:
256,0,177781,5,8,0:0:0:0:
256,384,177873,5,8,0:0:0:0:
480,64,177964,5,0,0:0:0:0:
512,192,178056,5,8,0:0:0:0:
0,192,178148,5,0,0:0:0:0:
256,96,178331,5,0,0:0:0:0:
256,288,178423,5,0,0:0:0:0:
256,192,178698,5,8,0:0:0:0:
416,192,178882,5,0,0:0:0:0:
96,192,178974,5,8,0:0:0:0:
480,64,179065,5,0,0:0:0:0:
416,64,179157,5,8,0:0:0:0:
96,320,179249,5,8,0:0:0:0:
256,192,179524,5,8,0:0:0:0:
256,192,179799,5,8,0:0:0:0:
416,320,179983,5,8,0:0:0:0:
96,64,180075,5,8,0:0:0:0:
96,64,180166,5,0,0:0:0:0:
256,320,180258,5,0,0:0:0:0:
256,64,180350,5,8,0:0:0:0:
96,64,180533,5,0,0:0:0:0:
256,192,180625,5,0,0:0:0:0:
96,64,180808,5,0,0:0:0:0:
288,192,180900,5,8,0:0:0:0:
224,192,181175,5,0,0:0:0:0:
224,192,181451,5,4,0:0:0:0:
224,192,182001,5,8,0:0:0:0:
224,192,182185,5,8,0:0:0:0:
224,192,182276,5,8,0:0:0:0:
224,192,182460,5,8,0:0:0:0:
224,192,182552,5,0,0:0:0:0:
224,192,182827,5,0,0:0:0:0:
224,192,183102,5,8,0:0:0:0:
224,192,183377,5,0,0:0:0:0:
224,192,183653,5,8,0:0:0:0:
224,192,183836,5,0,0:0:0:0:
224,192,183928,5,0,0:0:0:0:
224,192,184111,5,0,0:0:0:0:
224,192,184203,5,8,0:0:0:0:
224,192,184478,5,0,0:0:0:0:
224,192,184753,5,8,0:0:0:0:
224,192,184937,5,0,0:0:0:0:
224,192,185029,5,0,0:0:0:0:
224,192,185212,5,0,0:0:0:0:
224,192,185304,5,8,0:0:0:0:
224,192,185579,5,0,0:0:0:0:
224,192,185854,5,0,0:0:0:0:
160,192,186130,5,8,0:0:0:0:
96,192,186313,1,8,0:0:0:0:
96,192,186405,1,0,0:0:0:0:
96,192,186588,1,8,0:0:0:0:
96,192,186680,1,0,0:0:0:0:
96,192,186864,1,8,0:0:0:0:
96,192,186955,1,0,0:0:0:0:
64,160,187139,1,0,0:0:0:0:
96,192,187230,1,0,0:0:0:0:
96,192,187506,1,0,0:0:0:0:
96,192,187781,1,8,0:0:0:0:
96,192,187964,1,8,0:0:0:0:
96,192,188056,1,0,0:0:0:0:
128,192,188240,1,8,0:0:0:0:
96,192,188331,1,0,0:0:0:0:
96,192,188515,1,0,0:0:0:0:
96,192,188607,1,0,0:0:0:0:
96,192,188790,1,0,0:0:0:0:
128,192,188882,1,0,0:0:0:0:
96,192,189065,1,8,0:0:0:0:
96,192,189157,1,0,0:0:0:0:
96,192,189432,1,0,0:0:0:0:
96,192,189708,1,8,0:0:0:0:
128,192,189799,1,8,0:0:0:0:
96,192,189891,1,0,0:0:0:0:
96,192,189983,1,0,0:0:0:0:
96,192,190258,1,12,0:0:0:0:
96,128,190533,1,0,0:0:0:0:
96,128,190808,1,8,0:0:0:0:
96,128,190992,1,0,0:0:0:0:
96,128,191084,1,8,0:0:0:0:
96,128,191267,1,8,0:0:0:0:
96,128,191359,1,8,0:0:0:0:
96,128,191634,1,0,0:0:0:0:
96,128,191909,1,8,0:0:0:0:
128,160,192001,1,8,0:0:0:0:
128,160,192093,1,0,0:0:0:0:
128,160,192185,1,0,0:0:0:0:
96,128,192460,1,0,0:0:0:0:
96,128,192735,1,8,0:0:0:0:
96,128,193010,1,8,0:0:0:0:
96,128,193102,1,8,0:0:0:0:
96,128,193194,1,0,0:0:0:0:
96,128,193286,1,0,0:0:0:0:
96,128,193561,1,12,0:0:0:0:
96,128,193836,1,12,0:0:0:0:
96,128,194111,1,0,0:0:0:0:
96,128,194386,1,8,0:0:0:0:
96,128,194662,1,0,0:0:0:0:
96,128,194937,1,8,0:0:0:0:
96,128,195120,1,0,0:0:0:0:
96,128,195212,1,0,0:0:0:0:
96,128,195396,1,0,0:0:0:0:
96,128,195487,1,8,0:0:0:0:
96,128,195671,1,8,0:0:0:0:
96,128,195763,1,8,0:0:0:0:
96,128,196038,1,0,0:0:0:0:
96,128,196313,1,8,0:0:0:0:
96,128,196588,1,0,0:0:0:0:
96,128,196772,1,0,0:0:0:0:
96,128,196864,1,8,0:0:0:0:
96,128,197047,1,8,0:0:0:0:
96,128,197139,1,8,0:0:0:0:
96,128,197322,1,0,0:0:0:0:
96,128,197414,1,8,0:0:0:0:
96,128,197689,1,0,0:0:0:0:
96,128,197964,1,8,0:0:0:0:
128,96,198148,1,0,0:0:0:0:
128,96,198240,1,8,0:0:0:0:
128,96,198423,1,0,0:0:0:0:
128,96,198515,1,8,0:0:0:0:
128,96,198698,1,0,0:0:0:0:
128,96,198790,1,8,0:0:0:0:
160,160,199060,5,0,0:0:0:0:
96,192,199151,1,0,0:0:0:0:
96,128,199243,1,0,0:0:0:0:
96,128,199335,1,8,0:0:0:0:
64,128,199518,1,8,0:0:0:0:
160,96,199610,1,0,0:0:0:0:
64,160,199794,1,0,0:0:0:0:
96,128,199886,1,8,0:0:0:0:
64,160,200069,1,8,0:0:0:0:
64,192,200161,1,0,0:0:0:0:
96,192,200253,1,0,0:0:0:0:
96,128,200344,1,0,0:0:0:0:
64,160,200436,1,8,0:0:0:0:
64,128,200620,1,8,0:0:0:0:
96,160,200712,1,0,0:0:0:0:
96,160,200895,1,0,0:0:0:0:
160,160,200987,1,8,0:0:0:0:
96,160,201171,1,8,0:0:0:0:
224,128,201262,1,0,0:0:0:0:
96,192,201354,1,0,0:0:0:0:
64,128,201446,1,0,0:0:0:0:
96,160,201538,1,8,0:0:0:0:
256,128,201721,1,8,0:0:0:0:
256,128,201813,1,0,0:0:0:0:
192,160,201997,1,0,0:0:0:0:
256,128,202088,1,8,0:0:0:0:
192,160,202272,1,8,0:0:0:0:
256,128,202364,1,0,0:0:0:0:
96,192,202456,1,0,0:0:0:0:
256,128,202547,1,0,0:0:0:0:
224,128,202639,1,8,0:0:0:0:
192,128,202823,1,0,0:0:0:0:
160,128,202914,1,8,0:0:0:0:
256,128,203098,1,0,0:0:0:0:
224,128,203190,1,0,0:0:0:0:
224,128,203373,1,8,0:0:0:0:
256,128,203465,1,0,0:0:0:0:
192,128,203557,1,0,0:0:0:0:
160,128,203649,1,0,0:0:0:0:
256,96,203741,1,8,0:0:0:0:
256,128,203924,1,8,0:0:0:0:
320,64,204016,1,0,0:0:0:0:
288,96,204199,1,0,0:0:0:0:
256,96,204291,1,8,0:0:0:0:
320,64,204475,1,8,0:0:0:0:
224,128,204567,1,0,0:0:0:0:
256,96,204658,1,0,0:0:0:0:
256,96,204750,1,0,0:0:0:0:
224,96,204842,1,8,0:0:0:0:
192,96,205026,1,8,0:0:0:0:
320,64,205117,1,0,0:0:0:0:
288,96,205301,1,0,0:0:0:0:
256,96,205393,1,8,0:0:0:0:
224,96,205576,1,8,0:0:0:0:
160,96,205668,1,0,0:0:0:0:
256,96,205760,1,0,0:0:0:0:
256,96,205852,1,0,0:0:0:0:
224,96,205943,1,8,0:0:0:0:
160,128,206127,1,8,0:0:0:0:
320,64,206219,1,0,0:0:0:0:
288,96,206402,1,0,0:0:0:0:
256,96,206494,1,8,0:0:0:0:
320,64,206769,1,4,0:0:0:0:
256,96,207045,1,4,0:0:0:0:
192,128,207320,1,4,0:0:0:0:
96,192,207871,1,0,0:0:0:0:
128,160,207963,1,0,0:0:0:0:
96,128,208054,1,0,0:0:0:0:
160,192,208146,1,8,0:0:0:0:
96,128,208330,1,8,0:0:0:0:
224,128,208422,1,0,0:0:0:0:
160,160,208605,1,0,0:0:0:0:
160,160,208697,1,0,0:0:0:0:
96,128,208789,1,8,0:0:0:0:
128,128,208881,1,8,0:0:0:0:
96,192,208972,1,0,0:0:0:0:
64,128,209156,1,0,0:0:0:0:
160,192,209248,1,8,0:0:0:0:
96,192,209431,1,8,0:0:0:0:
224,128,209523,1,0,0:0:0:0:
192,128,209615,1,0,0:0:0:0:
128,128,209707,1,0,0:0:0:0:
160,160,209798,1,8,0:0:0:0:
96,160,209982,1,8,0:0:0:0:
96,192,210074,1,0,0:0:0:0:
32,192,210257,1,0,0:0:0:0:
160,192,210349,1,0,0:0:0:0:
96,160,210441,1,8,0:0:0:0:
128,160,210533,1,8,0:0:0:0:
224,128,210624,1,0,0:0:0:0:
160,128,210808,1,0,0:0:0:0:
160,160,210900,1,8,0:0:0:0:
96,192,211083,1,8,0:0:0:0:
96,192,211175,1,0,0:0:0:0:
64,160,211267,1,0,0:0:0:0:
96,160,211359,1,0,0:0:0:0:
160,192,211451,1,8,0:0:0:0:
224,128,211726,1,8,0:0:0:0:
192,128,211909,1,8,0:0:0:0:
160,160,212001,1,0,0:0:0:0:
128,128,212093,1,0,0:0:0:0:
64,128,212185,1,8,0:0:0:0:
128,128,212277,1,0,0:0:0:0:
96,128,212460,1,0,0:0:0:0:
64,128,212552,1,0,0:0:0:0:
96,128,212644,1,8,0:0:0:0:
64,160,212735,1,8,0:0:0:0:
192,128,212827,1,0,0:0:0:0:
96,128,213011,1,0,0:0:0:0:
64,128,213103,1,0,0:0:0:0:
96,128,213194,1,0,0:0:0:0:
192,128,213286,1,8,0:0:0:0:
64,128,213378,1,0,0:0:0:0:
96,128,213562,1,0,0:0:0:0:
64,128,213653,1,0,0:0:0:0:
64,128,213745,1,8,0:0:0:0:
64,128,213837,1,8,0:0:0:0:
192,128,213929,1,0,0:0:0:0:
96,128,214112,1,0,0:0:0:0:
64,128,214204,1,0,0:0:0:0:
64,128,214296,1,0,0:0:0:0:
64,128,214388,1,8,0:0:0:0:
192,128,214479,1,0,0:0:0:0:
96,128,214663,1,0,0:0:0:0:
64,128,214755,1,0,0:0:0:0:
64,128,214847,1,8,0:0:0:0:
64,128,214938,1,8,0:0:0:0:
192,128,215030,1,0,0:0:0:0:
96,128,215214,1,0,0:0:0:0:
64,128,215305,1,0,0:0:0:0:
192,128,215581,1,4,0:0:0:0:
128,160,215856,1,4,0:0:0:0:
64,160,216132,5,4,0:0:0:0:
256,192,216693,5,8,0:0:0:0:
256,192,216873,1,0,0:0:0:0:
256,192,216963,1,8,0:0:0:0:
256,192,217143,1,8,0:0:0:0:
256,192,217413,1,0,0:0:0:0:
256,192,217503,1,8,0:0:0:0:
256,192,217683,1,8,0:0:0:0:
256,192,217773,1,8,0:0:0:0:
256,192,217863,1,0,0:0:0:0:
256,192,217953,1,0,0:0:0:0:
256,192,218043,1,8,0:0:0:0:
256,192,218223,1,8,0:0:0:0:
256,192,218493,1,0,0:0:0:0:
256,192,218583,1,8,0:0:0:0:
256,192,218852,1,8,0:0:0:0:
256,192,219032,1,0,0:0:0:0:
256,192,219122,1,8,0:0:0:0:
256,192,219302,1,8,0:0:0:0:
256,192,219572,1,0,0:0:0:0:
256,192,219662,1,8,0:0:0:0:
256,192,219843,1,8,0:0:0:0:
256,192,219933,1,8,0:0:0:0:
256,192,220023,1,0,0:0:0:0:
256,192,220113,1,0,0:0:0:0:
256,192,220203,1,8,0:0:0:0:
256,192,220383,1,8,0:0:0:0:
256,192,220653,1,0,0:0:0:0:
256,192,220743,1,8,0:0:0:0:
256,192,220923,1,8,0:0:0:0:
256,192,221013,1,8,0:0:0:0:
256,192,221193,1,8,0:0:0:0:
256,192,221283,1,0,0:0:0:0:
256,192,221463,1,8,0:0:0:0:
256,192,221733,1,0,0:0:0:0:
256,192,221823,1,8,0:0:0:0:
256,192,222003,1,8,0:0:0:0:
256,192,222093,1,8,0:0:0:0:
256,192,222273,1,8,0:0:0:0:
256,192,222363,1,0,0:0:0:0:
256,192,222543,1,8,0:0:0:0:
256,192,222813,1,0,0:0:0:0:
256,192,222903,1,8,0:0:0:0:
256,192,223083,1,8,0:0:0:0:
256,192,223173,1,8,0:0:0:0:
256,192,223353,1,8,0:0:0:0:
256,192,223443,1,0,0:0:0:0:
256,192,223623,1,8,0:0:0:0:
256,192,223892,1,8,0:0:0:0:
256,192,223982,1,0,0:0:0:0:
256,192,224162,1,0,0:0:0:0:
256,192,224252,1,0,0:0:0:0:
256,192,224342,1,0,0:0:0:0:
256,192,224432,1,0,0:0:0:0:
256,192,224522,1,0,0:0:0:0:
256,192,224612,1,0,0:0:0:0:
256,192,224703,1,0,0:0:0:0:
256,192,224793,1,8,0:0:0:0:
256,192,225332,5,0,0:0:0:0:
256,192,225512,1,8,0:0:0:0:
256,192,225783,1,0,0:0:0:0:
256,192,225873,1,8,0:0:0:0:
256,192,226143,1,0,0:0:0:0:
256,192,226323,1,8,0:0:0:0:
256,192,226684,1,8,0:0:0:0:
256,192,226954,1,8,0:0:0:0:
256,192,227134,1,8,0:0:0:0:
256,192,227224,1,0,0:0:0:0:
256,192,227403,1,8,0:0:0:0:
256,192,227493,1,0,0:0:0:0:
256,192,227673,1,8,0:0:0:0:
256,192,227764,1,0,0:0:0:0:
256,192,227944,1,8,0:0:0:0:
256,192,228034,1,0,0:0:0:0:
256,192,228214,1,0,0:0:0:0:
256,192,228483,1,8,0:0:0:0:
256,192,228573,1,8,0:0:0:0:
256,192,228663,1,8,0:0:0:0:
256,192,228754,1,8,0:0:0:0:
256,192,228844,1,0,0:0:0:0:
256,192,228934,1,8,0:0:0:0:
256,192,229024,1,0,0:0:0:0:
256,192,229114,1,8,0:0:0:0:
256,192,229204,1,0,0:0:0:0:
256,192,229294,1,8,0:0:0:0:
256,192,229384,1,0,0:0:0:0:
256,192,229564,1,8,0:0:0:0:
256,192,229834,1,0,0:0:0:0:
256,192,229924,1,8,0:0:0:0:
256,192,230104,1,0,0:0:0:0:
256,192,230194,1,8,0:0:0:0:
256,192,230374,1,8,0:0:0:0:
256,192,230644,1,8,0:0:0:0:
256,192,230913,1,0,0:0:0:0:
256,192,231003,1,8,0:0:0:0:
256,192,231183,1,8,0:0:0:0:
256,192,231273,1,8,0:0:0:0:
256,192,231453,1,8,0:0:0:0:
256,192,231543,1,0,0:0:0:0:
256,192,231724,1,8,0:0:0:0:
256,192,231994,1,8,0:0:0:0:
256,192,232084,1,0,0:0:0:0:
256,192,232174,1,8,0:0:0:0:
256,192,232264,1,0,0:0:0:0:
256,192,232354,1,8,0:0:0:0:
256,192,232444,1,0,0:0:0:0:
256,192,232534,1,8,0:0:0:0:
256,192,232624,1,0,0:0:0:0:
256,192,233073,1,12,0:0:0:0:
256,192,233253,1,4,0:0:0:0:
256,192,233433,1,12,0:0:0:0:
256,192,233613,1,4,0:0:0:0:
256,192,233794,1,12,0:0:0:0:
256,192,234129,1,8,0:0:0:0:
256,192,234399,1,0,0:0:0:0:
256,192,234489,1,8,0:0:0:0:
256,192,234759,1,0,0:0:0:0:
256,192,234939,1,8,0:0:0:0:
256,192,235299,1,8,0:0:0:0:
256,192,235569,1,8,0:0:0:0:
256,192,235749,1,8,0:0:0:0:
256,192,235839,1,0,0:0:0:0:
256,192,236019,1,8,0:0:0:0:
256,192,236109,1,0,0:0:0:0:
256,192,236289,1,8,0:0:0:0:
256,192,236379,1,0,0:0:0:0:
256,192,236559,1,8,0:0:0:0:
256,192,236649,1,0,0:0:0:0:
256,192,236829,1,0,0:0:0:0:
256,192,237099,1,8,0:0:0:0:
256,192,237189,1,8,0:0:0:0:
256,192,237279,1,8,0:0:0:0:
256,192,237369,1,8,0:0:0:0:
256,192,237459,1,0,0:0:0:0:
256,192,237549,1,8,0:0:0:0:
256,192,237639,1,0,0:0:0:0:
256,192,237729,1,8,0:0:0:0:
256,192,237819,1,0,0:0:0:0:
256,192,237909,1,8,0:0:0:0:
256,192,237999,1,0,0:0:0:0:
256,192,238179,1,8,0:0:0:0:
256,192,238449,1,0,0:0:0:0:
256,192,238539,1,8,0:0:0:0:
256,192,238719,1,0,0:0:0:0:
256,192,238809,1,8,0:0:0:0:
256,192,238989,1,8,0:0:0:0:
256,192,239259,1,8,0:0:0:0:
256,192,239349,1,0,0:0:0:0:
256,192,239619,1,8,0:0:0:0:
256,192,239799,1,8,0:0:0:0:
256,192,239889,1,8,0:0:0:0:
256,192,240069,1,8,0:0:0:0:
256,192,240159,1,0,0:0:0:0:
256,192,240339,1,0,0:0:0:0:
256,192,240879,1,0,0:0:0:0:
256,192,240969,1,0,0:0:0:0:
256,192,241149,1,0,0:0:0:0:
256,192,241239,1,8,0:0:0:0:
256,192,241419,1,0,0:0:0:0:
256,192,241959,1,4,0:0:0:0:
256,192,242588,1,0,0:0:0:0:
256,192,242723,1,2,0:0:0:0:
256,192,242993,1,0,0:0:0:0:
256,192,243128,1,2,0:0:0:0:
256,192,243398,1,0,0:0:0:0:
256,192,243669,1,0,0:0:0:0:
256,192,243804,1,2,0:0:0:0:
256,192,244074,1,0,0:0:0:0:
256,192,244209,1,2,0:0:0:0:
256,192,244479,1,0,0:0:0:0:
256,192,244750,1,6,0:0:0:0:
256,192,245020,1,4,0:0:0:0:
256,192,245290,1,4,0:0:0:0:
256,192,245831,1,6,0:0:0:0:
256,192,246101,1,6,0:0:0:0:
256,192,246371,1,6,0:0:0:0:
256,192,246912,1,0,0:0:0:0:
256,192,247047,1,2,0:0:0:0:
256,192,247317,1,2,0:0:0:0:
256,192,247452,1,0,0:0:0:0:
256,192,247723,1,0,0:0:0:0:
256,192,247993,1,0,0:0:0:0:
256,192,248128,1,2,0:0:0:0:
256,192,248398,1,2,0:0:0:0:
256,192,248533,1,0,0:0:0:0:
256,192,248804,1,2,0:0:0:0:
256,192,249074,1,4,0:0:0:0:
256,192,249344,1,4,0:0:0:0:
256,192,249615,1,6,0:0:0:0:
256,192,249885,1,0,0:0:0:0:
256,192,250020,1,0,0:0:0:0:
256,192,250155,1,2,0:0:0:0:
256,192,250290,1,0,0:0:0:0:
256,192,250425,1,2,0:0:0:0:
256,192,250696,1,2,0:0:0:0:
256,192,250831,1,2,0:0:0:0:
256,192,250966,1,2,0:0:0:0:
256,192,251101,1,2,0:0:0:0:
256,192,251236,1,2,0:0:0:0:
256,192,251506,1,0,0:0:0:0:
256,192,251777,1,2,0:0:0:0:
256,192,252047,1,0,0:0:0:0:
256,192,252182,1,0,0:0:0:0:
256,192,252317,1,2,0:0:0:0:
256,192,252452,1,2,0:0:0:0:
256,192,252723,1,0,0:0:0:0:
256,192,252858,1,2,0:0:0:0:
256,192,253128,1,0,0:0:0:0:
256,192,253398,1,2,0:0:0:0:
256,192,253669,1,2,0:0:0:0:
256,192,253939,1,2,0:0:0:0:
256,192,254209,1,2,0:0:0:0:
256,192,254479,1,2,0:0:0:0:
256,192,254615,1,0,0:0:0:0:
256,192,254750,1,0,0:0:0:0:
256,192,254885,1,0,0:0:0:0:
256,192,255020,1,2,0:0:0:0:
256,192,255290,1,0,0:0:0:0:
256,192,255560,1,2,0:0:0:0:
256,192,255831,1,0,0:0:0:0:
256,192,256101,1,2,0:0:0:0:
256,192,256371,1,0,0:0:0:0:
256,192,256642,1,2,0:0:0:0:
256,192,256822,1,2,0:0:0:0:
256,192,257002,1,2,0:0:0:0:
256,192,257182,1,0,0:0:0:0:
256,192,257452,1,2,0:0:0:0:
256,192,257588,1,0,0:0:0:0:
256,192,257723,1,2,0:0:0:0:
256,192,257993,1,2,0:0:0:0:
256,192,258128,1,0,0:0:0:0:
256,192,258263,1,2,0:0:0:0:
256,192,258533,1,2,0:0:0:0:
256,192,258804,1,2,0:0:0:0:
256,192,259074,1,0,0:0:0:0:
256,192,259344,1,2,0:0:0:0:
256,192,259615,1,0,0:0:0:0:
256,192,259885,1,2,0:0:0:0:
256,192,260155,1,0,0:0:0:0:
256,192,260425,1,2,0:0:0:0:
256,192,260696,1,2,0:0:0:0:
256,192,260966,1,2,0:0:0:0:
256,192,261236,1,2,0:0:0:0:
256,192,261506,1,2,0:0:0:0:
256,192,261777,1,0,0:0:0:0:
256,192,262047,1,0,0:0:0:0:
256,192,262182,1,2,0:0:0:0:
256,192,262317,1,2,0:0:0:0:
256,192,262452,1,2,0:0:0:0:
256,192,262588,1,0,0:0:0:0:
256,192,262723,1,2,0:0:0:0:
256,192,262858,1,2,0:0:0:0:
256,192,263128,1,4,0:0:0:0:
256,192,263669,1,4,0:0:0:0:
256,192,264209,5,0,0:0:0:0:
256,192,264479,1,2,0:0:0:0:
256,192,264750,5,2,0:0:0:0:
256,192,265020,5,2,0:0:0:0:
256,192,265290,5,2,0:0:0:0:
256,192,265560,5,2,0:0:0:0:
256,192,265831,5,2,0:0:0:0:
256,192,266101,5,2,0:0:0:0:
128,96,266375,5,4,0:0:0:0:
128,288,266546,5,0,0:0:0:0:
384,288,266717,1,8,0:0:0:0:
384,288,266889,1,8,0:0:0:0:
128,288,267060,1,0,0:0:0:0:
384,288,267403,1,8,0:0:0:0:
128,288,267746,1,0,0:0:0:0:
128,288,267917,1,0,0:0:0:0:
128,288,268003,1,0,0:0:0:0:
384,288,268089,1,8,0:0:0:0:
128,288,268260,1,0,0:0:0:0:
384,288,268432,1,8,0:0:0:0:
384,288,268603,1,8,0:0:0:0:
384,288,268775,1,8,0:0:0:0:
384,288,268860,1,8,0:0:0:0:
128,288,268946,1,0,0:0:0:0:
128,288,269117,1,0,0:0:0:0:
128,288,269289,1,0,0:0:0:0:
384,288,269460,1,8,0:0:0:0:
128,288,269632,1,0,0:0:0:0:
128,288,269717,1,0,0:0:0:0:
384,288,269803,1,8,0:0:0:0:
128,288,269975,1,0,0:0:0:0:
384,288,270060,1,8,0:0:0:0:
128,288,270232,1,0,0:0:0:0:
384,288,270317,1,8,0:0:0:0:
128,288,270489,1,0,0:0:0:0:
128,288,270660,1,0,0:0:0:0:
384,288,270746,1,8,0:0:0:0:
384,288,270832,1,8,0:0:0:0:
384,288,271003,1,8,0:0:0:0:
384,288,271089,1,8,0:0:0:0:
128,288,271175,1,0,0:0:0:0:
128,288,271346,1,0,0:0:0:0:
384,288,271517,1,8,0:0:0:0:
128,288,271689,1,0,0:0:0:0:
128,288,271775,1,0,0:0:0:0:
384,288,271860,1,8,0:0:0:0:
384,288,272032,1,8,0:0:0:0:
128,288,272203,1,0,0:0:0:0:
128,288,272289,1,0,0:0:0:0:
128,288,272375,1,0,0:0:0:0:
384,288,272546,1,8,0:0:0:0:
128,288,272717,1,0,0:0:0:0:
384,288,272889,1,8,0:0:0:0:
384,288,273060,1,8,0:0:0:0:
128,96,273232,1,4,0:0:0:0:
384,288,273403,1,8,0:0:0:0:
384,288,273489,1,8,0:0:0:0:
128,288,273575,1,0,0:0:0:0:
384,288,273746,1,8,0:0:0:0:
128,288,273917,1,0,0:0:0:0:
128,288,274089,1,0,0:0:0:0:
384,288,274175,1,8,0:0:0:0:
384,288,274346,1,8,0:0:0:0:
128,288,274432,1,0,0:0:0:0:
128,288,274603,1,0,0:0:0:0:
384,288,274775,1,8,0:0:0:0:
384,288,274946,1,8,0:0:0:0:
384,288,275117,1,8,0:0:0:0:
384,288,275289,1,8,0:0:0:0:
384,288,275375,1,8,0:0:0:0:
128,288,275460,1,0,0:0:0:0:
384,288,275632,1,8,0:0:0:0:
128,288,275975,1,0,0:0:0:0:
128,288,276146,1,0,0:0:0:0:
128,288,276232,1,0,0:0:0:0:
384,288,276317,1,8,0:0:0:0:
384,288,276489,1,8,0:0:0:0:
128,288,276660,1,0,0:0:0:0:
128,288,276832,1,0,0:0:0:0:
128,288,276917,1,0,0:0:0:0:
384,288,277003,1,8,0:0:0:0:
384,288,277175,1,8,0:0:0:0:
128,288,277346,1,0,0:0:0:0:
128,288,277517,1,0,0:0:0:0:
128,288,277603,1,0,0:0:0:0:
384,288,277689,1,8,0:0:0:0:
384,288,277860,1,8,0:0:0:0:
128,288,278032,1,0,0:0:0:0:
128,288,278203,1,0,0:0:0:0:
384,288,278289,1,8,0:0:0:0:
128,288,278375,1,0,0:0:0:0:
384,288,278546,1,8,0:0:0:0:
128,96,278717,1,4,0:0:0:0:
384,288,279060,1,8,0:0:0:0:
128,288,279232,1,0,0:0:0:0:
128,288,279575,1,0,0:0:0:0:
128,288,279660,1,0,0:0:0:0:
384,288,279746,1,8,0:0:0:0:
128,288,279917,1,0,0:0:0:0:
128,288,280089,1,0,0:0:0:0:
128,288,280260,1,0,0:0:0:0:
384,288,280432,1,8,0:0:0:0:
384,288,280603,1,8,0:0:0:0:
128,288,280775,1,0,0:0:0:0:
128,288,280946,1,0,0:0:0:0:
384,288,281032,1,8,0:0:0:0:
384,288,281203,1,8,0:0:0:0:
128,288,281289,1,0,0:0:0:0:
128,288,281460,1,0,0:0:0:0:
128,288,281632,1,0,0:0:0:0:
128,288,281803,1,8,0:0:0:0:
384,288,281975,1,8,0:0:0:0:
384,288,282060,1,8,0:0:0:0:
384,288,282146,1,0,0:0:0:0:
128,288,282317,1,0,0:0:0:0:
384,288,282489,1,8,0:0:0:0:
128,288,282660,1,0,0:0:0:0:
128,288,282746,1,0,0:0:0:0:
128,288,282832,1,2,0:0:0:0:
384,288,283003,1,8,0:0:0:0:
128,288,283175,1,0,0:0:0:0:
128,288,283346,1,0,0:0:0:0:
128,288,283432,1,0,0:0:0:0:
384,288,283517,1,0,0:0:0:0:
384,288,283689,1,0,0:0:0:0:
384,288,283860,1,8,0:0:0:0:
128,96,284203,1,4,0:0:0:0:
128,288,284375,1,0,0:0:0:0:
128,288,284460,1,0,0:0:0:0:
384,288,284546,1,8,0:0:0:0:
128,288,284717,1,0,0:0:0:0:
128,288,284889,1,0,0:0:0:0:
128,288,284975,1,0,0:0:0:0:
128,288,285060,1,0,0:0:0:0:
384,288,285232,1,8,0:0:0:0:
128,96,285575,1,4,0:0:0:0:
128,288,285746,1,0,0:0:0:0:
128,288,285832,1,0,0:0:0:0:
384,288,285917,1,8,0:0:0:0:
128,288,286089,1,0,0:0:0:0:
384,288,286260,1,8,0:0:0:0:
384,288,286346,1,8,0:0:0:0:
128,288,286432,1,0,0:0:0:0:
384,288,286603,1,8,0:0:0:0:
128,96,286946,1,4,0:0:0:0:
128,288,287117,1,0,0:0:0:0:
128,288,287203,1,0,0:0:0:0:
128,288,287289,1,0,0:0:0:0:
384,288,287460,1,8,0:0:0:0:
128,96,287632,1,4,0:0:0:0:
128,288,287803,1,0,0:0:0:0:
128,288,287889,1,0,0:0:0:0:
128,288,287975,1,0,0:0:0:0:
384,288,288146,1,8,0:0:0:0:
384,96,288317,1,12,0:0:0:0:
384,96,288660,1,12,0:0:0:0:
128,96,289003,1,4,0:0:0:0:
256,192,289689,5,4,0:0:0:0:
256,192,290027,1,8,0:0:0:0:
256,192,290366,1,0,0:0:0:0:
256,192,290536,1,8,0:0:0:0:
256,192,290705,1,8,0:0:0:0:
256,192,290875,1,8,0:0:0:0:
256,192,291044,1,0,0:0:0:0:
256,192,291383,1,8,0:0:0:0:
256,192,291722,1,0,0:0:0:0:
256,192,291892,1,8,0:0:0:0:
256,192,292061,1,8,0:0:0:0:
256,192,292231,1,8,0:0:0:0:
256,192,292400,1,0,0:0:0:0:
256,192,292739,1,0,0:0:0:0:
256,192,292909,1,8,0:0:0:0:
256,192,293078,1,0,0:0:0:0:
256,192,293417,1,8,0:0:0:0:
256,192,293756,1,0,0:0:0:0:
256,192,293926,1,8,0:0:0:0:
256,192,294095,1,0,0:0:0:0:
256,192,294265,1,8,0:0:0:0:
256,192,294434,1,8,0:0:0:0:
256,192,294604,1,0,0:0:0:0:
256,192,294773,1,8,0:0:0:0:
256,192,294943,1,8,0:0:0:0:
256,192,295112,5,4,0:0:0:0:
256,192,295451,1,8,0:0:0:0:
256,192,295790,1,0,0:0:0:0:
256,192,295960,1,8,0:0:0:0:
256,192,296044,1,8,0:0:0:0:
256,192,296129,1,8,0:0:0:0:
256,192,296299,1,8,0:0:0:0:
256,192,296468,1,0,0:0:0:0:
256,192,296807,1,8,0:0:0:0:
256,192,297146,1,0,0:0:0:0:
256,192,297316,1,8,0:0:0:0:
256,192,297400,1,8,0:0:0:0:
256,192,297485,1,8,0:0:0:0:
256,192,297655,1,8,0:0:0:0:
256,192,297824,1,0,0:0:0:0:
256,192,297994,1,0,0:0:0:0:
256,192,298163,1,8,0:0:0:0:
256,192,298333,1,8,0:0:0:0:
256,192,298502,1,0,0:0:0:0:
256,192,298587,1,0,0:0:0:0:
256,192,298672,1,0,0:0:0:0:
256,192,298756,1,0,0:0:0:0:
256,192,298841,1,8,0:0:0:0:
256,192,298926,1,8,0:0:0:0:
256,192,299011,1,8,0:0:0:0:
256,192,299095,1,8,0:0:0:0:
256,192,299180,1,0,0:0:0:0:
256,192,299265,1,0,0:0:0:0:
256,192,299350,1,0,0:0:0:0:
256,192,299434,1,0,0:0:0:0:
256,192,299519,1,8,0:0:0:0:
256,192,299604,1,8,0:0:0:0:
256,192,299689,1,0,0:0:0:0:
256,192,299773,1,0,0:0:0:0:
256,192,299858,1,8,0:0:0:0:
256,192,299943,1,8,0:0:0:0:
256,192,300027,1,0,0:0:0:0:
256,192,300112,1,0,0:0:0:0:
256,192,300197,1,8,0:0:0:0:
256,192,300366,1,8,0:0:0:0:
256,192,300536,1,4,0:0:0:0:
256,192,300875,1,8,0:0:0:0:
256,192,301214,1,0,0:0:0:0:
256,192,301383,1,8,0:0:0:0:
256,192,301468,1,8,0:0:0:0:
256,192,301553,1,0,0:0:0:0:
256,192,301722,1,8,0:0:0:0:
256,192,301892,1,0,0:0:0:0:
256,192,302231,1,8,0:0:0:0:
256,192,302570,1,0,0:0:0:0:
256,192,302739,1,8,0:0:0:0:
256,192,302824,1,8,0:0:0:0:
256,192,302909,1,0,0:0:0:0:
256,192,303078,1,8,0:0:0:0:
256,192,303248,1,0,0:0:0:0:
256,192,303587,1,8,0:0:0:0:
256,192,303756,1,0,0:0:0:0:
256,192,303926,1,0,0:0:0:0:
256,192,304265,1,8,0:0:0:0:
256,192,304434,1,8,0:0:0:0:
256,192,304604,1,0,0:0:0:0:
256,192,304773,1,8,0:0:0:0:
256,192,305112,1,0,0:0:0:0:
256,192,305282,1,8,0:0:0:0:
256,192,305451,1,0,0:0:0:0:
256,192,305621,1,8,0:0:0:0:
256,192,305705,1,8,0:0:0:0:
256,192,305790,1,8,0:0:0:0:
256,192,305875,1,8,0:0:0:0:
256,192,305960,1,0,0:0:0:0:
256,192,306129,1,8,0:0:0:0:
256,192,306299,1,0,0:0:0:0:
256,192,306638,1,0,0:0:0:0:
256,192,306807,1,8,0:0:0:0:
256,192,306977,1,0,0:0:0:0:
256,192,307146,1,0,0:0:0:0:
256,192,307316,1,8,0:0:0:0:
256,128,307485,1,0,0:0:0:0:
256,192,307655,1,8,0:0:0:0:
256,192,307994,1,0,0:0:0:0:
256,192,308163,1,8,0:0:0:0:
256,192,308333,1,0,0:0:0:0:
256,192,308417,1,0,0:0:0:0:
256,192,308502,1,8,0:0:0:0:
256,192,308587,1,8,0:0:0:0:
256,192,308672,1,0,0:0:0:0:
256,192,308841,1,8,0:0:0:0:
256,192,308926,1,8,0:0:0:0:
256,192,309011,1,0,0:0:0:0:
256,192,309180,1,8,0:0:0:0:
256,192,309265,1,8,0:0:0:0:
256,192,309350,1,0,0:0:0:0:
256,192,309519,1,8,0:0:0:0:
256,192,309604,1,8,0:0:0:0:
256,192,309689,1,0,0:0:0:0:
256,192,309858,1,8,0:0:0:0:
256,192,310027,1,4,0:0:0:0:
256,192,310197,1,8,0:0:0:0:
256,192,310536,1,8,0:0:0:0:
256,192,310705,1,0,0:0:0:0:
256,192,311044,1,8,0:0:0:0:
256,192,311214,1,0,0:0:0:0:
256,192,311383,5,12,0:0:0:0:
256,192,311553,1,0,0:0:0:0:
256,192,311722,1,8,0:0:0:0:
256,192,312061,1,8,0:0:0:0:
256,192,312146,1,0,0:0:0:0:
256,192,312231,1,0,0:0:0:0:
256,192,312316,1,8,0:0:0:0:
256,192,312400,1,0,0:0:0:0:
256,192,312570,1,0,0:0:0:0:
256,192,312739,1,8,0:0:0:0:
256,192,312909,1,0,0:0:0:0:
256,192,313078,1,8,0:0:0:0:
256,192,313417,1,8,0:0:0:0:
256,192,313502,1,0,0:0:0:0:
256,192,313587,1,0,0:0:0:0:
256,192,313672,1,8,0:0:0:0:
256,192,313756,1,0,0:0:0:0:
256,192,313926,1,0,0:0:0:0:
256,192,314095,1,8,0:0:0:0:
256,192,314180,1,8,0:0:0:0:
256,192,314350,1,8,0:0:0:0:
256,192,314519,1,8,0:0:0:0:
256,192,314604,1,8,0:0:0:0:
256,192,314773,1,0,0:0:0:0:
256,192,314858,1,0,0:0:0:0:
256,192,315027,1,0,0:0:0:0:
256,192,315197,1,0,0:0:0:0:
256,192,315282,1,0,0:0:0:0:
256,192,315451,1,8,0:0:0:0:
256,192,315536,1,0,0:0:0:0:
256,192,315621,1,8,0:0:0:0:
256,192,315705,1,8,0:0:0:0:
256,192,315790,1,0,0:0:0:0:
256,192,315875,1,8,0:0:0:0:
256,192,315960,1,0,0:0:0:0:
256,192,316129,1,8,0:0:0:0:
256,192,316214,1,8,0:0:0:0:
256,192,316299,1,0,0:0:0:0:
256,192,316383,1,8,0:0:0:0:
256,192,316468,1,0,0:0:0:0:
256,192,316553,1,0,0:0:0:0:
256,192,316638,1,8,0:0:0:0:
256,192,316807,1,8,0:0:0:0:
256,192,316977,1,0,0:0:0:0:
256,192,317061,1,0,0:0:0:0:
256,192,317146,1,8,0:0:0:0:
256,192,317316,1,0,0:0:0:0:
256,192,317485,1,8,0:0:0:0:
256,192,317655,1,8,0:0:0:0:
256,192,317739,1,8,0:0:0:0:
256,192,317824,1,0,0:0:0:0:
256,192,317909,1,0,0:0:0:0:
256,192,317994,1,8,0:0:0:0:
256,192,318163,1,8,0:0:0:0:
256,192,318333,1,0,0:0:0:0:
256,192,318417,1,0,0:0:0:0:
256,192,318502,1,8,0:0:0:0:
256,192,318672,1,8,0:0:0:0:
256,192,318841,1,0,0:0:0:0:
256,192,319011,1,8,0:0:0:0:
256,192,319095,1,8,0:0:0:0:
256,192,319180,1,0,0:0:0:0:
256,192,319265,1,0,0:0:0:0:
256,192,319350,1,8,0:0:0:0:
256,192,319519,1,8,0:0:0:0:
256,192,319604,1,8,0:0:0:0:
256,192,319773,1,8,0:0:0:0:
256,192,319858,1,8,0:0:0:0:
256,192,319943,1,0,0:0:0:0:
256,192,320027,1,8,0:0:0:0:
256,192,320197,1,0,0:0:0:0:
256,192,320282,1,0,0:0:0:0:
256,192,320451,1,0,0:0:0:0:
256,192,320536,1,8,0:0:0:0:
256,192,320621,1,0,0:0:0:0:
256,192,320705,1,0,0:0:0:0:
256,192,320875,1,8,0:0:0:0:
256,192,320960,1,0,0:0:0:0:
256,192,321044,1,8,0:0:0:0:
256,192,321129,1,8,0:0:0:0:
256,192,321214,1,0,0:0:0:0:
256,192,321299,1,8,0:0:0:0:
256,192,321383,1,0,0:0:0:0:
256,192,321553,1,8,0:0:0:0:
256,192,321638,1,8,0:0:0:0:
256,192,321722,1,0,0:0:0:0:
256,192,321807,1,8,0:0:0:0:
256,192,321892,1,0,0:0:0:0:
256,192,321977,1,0,0:0:0:0:
256,192,322061,1,8,0:0:0:0:
256,192,322231,1,4,0:0:0:0:
256,192,322400,1,8,0:0:0:0:
256,192,322485,1,8,0:0:0:0:
256,192,322570,1,0,0:0:0:0:
256,192,322655,1,8,0:0:0:0:
256,192,322824,1,8,0:0:0:0:
256,192,322994,1,0,0:0:0:0:
256,192,323078,1,0,0:0:0:0:
256,192,323163,1,0,0:0:0:0:
256,192,323248,1,8,0:0:0:0:
256,192,323417,1,8,0:0:0:0:
256,192,323587,1,0,0:0:0:0:
256,192,323756,1,8,0:0:0:0:
256,192,323841,1,8,0:0:0:0:
256,192,323926,1,0,0:0:0:0:
256,192,324095,1,8,0:0:0:0:
256,192,324180,1,0,0:0:0:0:
256,192,324350,1,0,0:0:0:0:
256,192,324434,1,8,0:0:0:0:
256,192,324519,1,8,0:0:0:0:
256,192,324604,1,0,0:0:0:0:
256,192,324689,1,0,0:0:0:0:
256,192,324773,1,8,0:0:0:0:
256,192,324943,1,0,0:0:0:0:
256,192,325112,1,8,0:0:0:0:
256,192,325282,1,8,0:0:0:0:
256,192,325366,1,0,0:0:0:0:
256,192,325451,1,0,0:0:0:0:
256,192,325536,1,8,0:0:0:0:
256,192,325705,1,0,0:0:0:0:
256,192,325790,1,8,0:0:0:0:
256,192,325875,1,0,0:0:0:0:
256,192,325960,1,0,0:0:0:0:
256,192,326129,1,8,0:0:0:0:
256,192,326214,1,0,0:0:0:0:
256,192,326299,1,8,0:0:0:0:
256,192,326468,1,0,0:0:0:0:
256,192,326553,1,0,0:0:0:0:
256,192,326638,1,8,0:0:0:0:
256,192,326722,1,0,0:0:0:0:
256,192,326807,1,8,0:0:0:0:
256,192,326977,1,0,0:0:0:0:
256,192,327146,1,0,0:0:0:0:
256,192,327231,1,0,0:0:0:0:
256,192,327316,1,8,0:0:0:0:
256,192,327400,1,8,0:0:0:0:
256,192,327485,1,8,0:0:0:0:
256,192,327570,1,8,0:0:0:0:
256,192,327655,1,0,0:0:0:0:
256,192,327824,1,0,0:0:0:0:
256,192,327994,1,8,0:0:0:0:
256,192,328078,1,0,0:0:0:0:
256,192,328163,1,0,0:0:0:0:
256,192,328248,1,8,0:0:0:0:
256,192,328333,1,0,0:0:0:0:
256,192,328502,1,0,0:0:0:0:
256,192,328587,1,8,0:0:0:0:
256,192,328672,1,0,0:0:0:0:
256,192,328756,1,8,0:0:0:0:
256,192,328841,1,8,0:0:0:0:
256,192,328926,1,8,0:0:0:0:
256,192,329011,1,0,0:0:0:0:
256,192,329180,1,0,0:0:0:0:
256,192,329265,1,0,0:0:0:0:
256,192,329350,1,8,0:0:0:0:
256,192,329434,1,0,0:0:0:0:
256,192,329519,1,8,0:0:0:0:
256,192,329604,1,8,0:0:0:0:
256,192,329689,1,0,0:0:0:0:
256,192,329858,1,0,0:0:0:0:
256,192,329943,1,8,0:0:0:0:
256,192,330027,1,0,0:0:0:0:
256,192,330112,1,8,0:0:0:0:
256,192,330197,1,8,0:0:0:0:
256,192,330282,1,8,0:0:0:0:
256,192,330366,1,0,0:0:0:0:
256,192,330536,1,0,0:0:0:0:
256,192,330705,1,8,0:0:0:0:
256,192,330790,1,0,0:0:0:0:
256,192,330875,1,8,0:0:0:0:
256,192,330960,1,8,0:0:0:0:
256,192,331044,1,0,0:0:0:0:
256,192,331214,1,0,0:0:0:0:
256,192,331299,1,0,0:0:0:0:
256,192,331383,1,8,0:0:0:0:
256,192,331468,1,8,0:0:0:0:
256,192,331553,1,8,0:0:0:0:
256,192,331722,1,0,0:0:0:0:
256,192,331807,1,0,0:0:0:0:
256,192,331892,1,0,0:0:0:0:
256,192,332061,1,8,0:0:0:0:
256,192,332146,1,0,0:0:0:0:
256,192,332231,1,0,0:0:0:0:
256,192,332316,1,8,0:0:0:0:
256,192,332400,1,0,0:0:0:0:
256,192,332485,1,8,0:0:0:0:
256,192,332570,1,8,0:0:0:0:
256,192,332655,1,0,0:0:0:0:
256,192,332739,1,8,0:0:0:0:
256,192,332824,1,8,0:0:0:0:
256,192,332909,1,0,0:0:0:0:
256,192,333078,1,12,0:0:0:0:
256,192,333417,1,0,0:0:0:0:
256,192,333587,1,8,0:0:0:0:
256,192,333756,1,0,0:0:0:0:
256,192,333926,1,0,0:0:0:0:
256,192,334011,1,0,0:0:0:0:
256,192,334095,1,8,0:0:0:0:
256,192,334265,1,0,0:0:0:0:
256,192,334350,1,0,0:0:0:0:
256,192,334434,1,8,0:0:0:0:
256,192,334519,1,8,0:0:0:0:
256,192,334604,1,8,0:0:0:0:
256,192,334689,1,8,0:0:0:0:
256,192,334773,1,0,0:0:0:0:
256,192,334943,1,0,0:0:0:0:
256,192,335027,1,8,0:0:0:0:
256,192,335112,1,0,0:0:0:0:
256,192,335282,1,0,0:0:0:0:
256,192,335366,1,0,0:0:0:0:
256,192,335451,1,8,0:0:0:0:
256,192,335621,1,0,0:0:0:0:
256,192,335705,1,0,0:0:0:0:
256,192,335790,1,8,0:0:0:0:
256,192,335875,1,8,0:0:0:0:
256,192,335960,1,8,0:0:0:0:
256,192,336044,1,8,0:0:0:0:
256,192,336129,1,0,0:0:0:0:
256,192,336299,1,0,0:0:0:0:
256,192,336383,1,0,0:0:0:0:
256,192,336468,1,8,0:0:0:0:
256,192,336553,1,8,0:0:0:0:
256,192,336638,1,0,0:0:0:0:
256,192,336807,1,8,0:0:0:0:
256,192,336977,1,0,0:0:0:0:
256,192,337061,1,0,0:0:0:0:
256,192,337146,1,8,0:0:0:0:
256,192,337231,1,8,0:0:0:0:
256,192,337316,1,8,0:0:0:0:
256,192,337400,1,8,0:0:0:0:
256,192,337485,1,0,0:0:0:0:
256,192,337655,1,0,0:0:0:0:
256,192,337739,1,0,0:0:0:0:
256,192,337824,1,0,0:0:0:0:
256,192,337994,1,8,0:0:0:0:
256,192,338078,1,8,0:0:0:0:
256,192,338163,1,8,0:0:0:0:
256,192,338333,1,0,0:0:0:0:
256,192,338417,1,0,0:0:0:0:
256,192,338502,1,8,0:0:0:0:
256,192,338587,1,8,0:0:0:0:
256,192,338672,1,8,0:0:0:0:
256,192,338756,1,8,0:0:0:0:
256,192,338841,1,0,0:0:0:0:
256,192,339011,1,8,0:0:0:0:
256,192,339095,1,0,0:0:0:0:
256,192,339180,1,0,0:0:0:0:
256,192,339350,1,8,0:0:0:0:
256,192,339434,1,0,0:0:0:0:
256,192,339519,1,8,0:0:0:0:
256,192,339689,1,0,0:0:0:0:
256,192,339773,1,0,0:0:0:0:
256,192,339858,1,8,0:0:0:0:
256,192,339943,1,8,0:0:0:0:
256,192,340027,1,8,0:0:0:0:
256,192,340112,1,8,0:0:0:0:
256,192,340197,1,0,0:0:0:0:
256,192,340366,1,8,0:0:0:0:
256,192,340451,1,8,0:0:0:0:
256,192,340536,1,0,0:0:0:0:
256,192,340705,1,0,0:0:0:0:
256,192,340875,1,8,0:0:0:0:
256,192,341044,1,0,0:0:0:0:
256,192,341129,1,0,0:0:0:0:
256,192,341214,1,8,0:0:0:0:
256,192,341299,1,8,0:0:0:0:
256,192,341383,1,8,0:0:0:0:
256,192,341468,1,8,0:0:0:0:
256,192,341553,1,0,0:0:0:0:
256,192,341722,1,0,0:0:0:0:
256,192,341892,1,8,0:0:0:0:
256,192,341977,1,0,0:0:0:0:
256,192,342061,1,8,0:0:0:0:
256,192,342231,1,8,0:0:0:0:
256,192,342400,1,0,0:0:0:0:
256,192,342485,1,0,0:0:0:0:
256,192,342570,1,8,0:0:0:0:
256,192,342655,1,8,0:0:0:0:
256,192,342739,1,8,0:0:0:0:
256,192,342824,1,8,0:0:0:0:
256,192,342909,1,0,0:0:0:0:
256,192,343078,1,8,0:0:0:0:
256,192,343163,1,0,0:0:0:0:
256,192,343248,1,8,0:0:0:0:
256,192,343333,1,8,0:0:0:0:
256,192,343417,1,0,0:0:0:0:
256,192,343587,1,8,0:0:0:0:
256,192,343756,1,0,0:0:0:0:
256,192,343841,1,8,0:0:0:0:
256,192,343926,1,0,0:0:0:0:
256,192,344095,1,8,0:0:0:0:
256,192,344265,1,0,0:0:0:0:
256,192,344434,1,8,0:0:0:0:
256,192,344604,1,0,0:0:0:0:
256,192,345282,5,12,0:0:0:0:
256,192,345449,1,0,0:0:0:0:
256,192,345617,1,8,0:0:0:0:
256,192,345784,1,8,0:0:0:0:
256,192,345952,1,0,0:0:0:0:
256,192,346119,1,8,0:0:0:0:
256,192,346287,1,8,0:0:0:0:
256,192,346455,1,0,0:0:0:0:
256,192,346538,1,0,0:0:0:0:
256,192,346622,1,8,0:0:0:0:
256,192,346957,1,4,0:0:0:0:
256,192,347293,1,4,0:0:0:0:
256,192,347628,1,4,0:0:0:0:
256,192,347963,1,0,0:0:0:0:
256,192,348131,1,0,0:0:0:0:
256,192,348298,1,8,0:0:0:0:
256,192,348466,1,8,0:0:0:0:
256,192,348633,1,0,0:0:0:0:
256,192,348801,1,8,0:0:0:0:
256,192,348969,1,0,0:0:0:0:
256,192,349136,1,8,0:0:0:0:
256,192,349304,1,4,0:0:0:0:
256,192,349639,1,4,0:0:0:0:
256,192,349974,1,4,0:0:0:0:
256,192,350477,1,0,0:0:0:0:
256,192,350561,1,0,0:0:0:0:
256,192,350645,1,8,0:0:0:0:
256,192,350812,1,0,0:0:0:0:
256,192,350980,1,0,0:0:0:0:
256,192,351147,1,0,0:0:0:0:
256,192,351315,1,8,0:0:0:0:
256,192,351483,1,0,0:0:0:0:
256,192,351650,1,8,0:0:0:0:
256,192,351818,1,0,0:0:0:0:
256,192,351985,1,4,0:0:0:0:
256,192,352153,1,0,0:0:0:0:
256,192,352321,1,12,0:0:0:0:
256,192,352488,1,0,0:0:0:0:
256,192,352656,1,4,0:0:0:0:
256,192,352991,1,4,0:0:0:0:
256,192,353326,1,0,0:0:0:0:
256,192,353494,1,0,0:0:0:0:
256,192,353661,1,8,0:0:0:0:
256,192,353829,1,0,0:0:0:0:
256,192,353997,1,8,0:0:0:0:
256,192,354164,1,0,0:0:0:0:
256,192,354332,1,8,0:0:0:0:
256,192,354499,1,0,0:0:0:0:
256,192,354667,1,4,0:0:0:0:
256,192,354835,1,0,0:0:0:0:
256,192,355002,1,12,0:0:0:0:
256,192,355170,1,0,0:0:0:0:
256,192,355337,1,4,0:0:0:0:
256,192,355673,1,8,0:0:0:0:
256,192,356008,5,12,0:0:0:0:
256,192,356175,1,0,0:0:0:0:
256,192,356259,1,0,0:0:0:0:
256,192,356343,1,8,0:0:0:0:
256,192,356511,1,8,0:0:0:0:
256,192,356678,1,0,0:0:0:0:
256,192,356762,1,0,0:0:0:0:
256,192,356846,1,8,0:0:0:0:
256,192,357013,1,8,0:0:0:0:
256,192,357181,1,0,0:0:0:0:
256,192,357265,1,0,0:0:0:0:
256,192,357349,1,8,0:0:0:0:
256,192,357684,1,4,0:0:0:0:
256,192,358019,1,4,0:0:0:0:
256,192,358354,1,4,0:0:0:0:
256,192,358689,1,0,0:0:0:0:
256,192,358857,1,0,0:0:0:0:
256,192,358941,1,0,0:0:0:0:
256,192,359025,1,8,0:0:0:0:
256,192,359192,1,8,0:0:0:0:
256,192,359360,1,0,0:0:0:0:
256,192,359527,1,8,0:0:0:0:
256,192,359611,1,0,0:0:0:0:
256,192,359695,1,0,0:0:0:0:
256,192,359863,1,8,0:0:0:0:
256,192,360030,1,4,0:0:0:0:
256,192,360365,1,4,0:0:0:0:
256,192,360700,1,4,0:0:0:0:
256,192,361203,1,0,0:0:0:0:
256,192,361287,1,0,0:0:0:0:
256,192,361371,1,8,0:0:0:0:
256,192,361538,1,0,0:0:0:0:
256,192,361706,1,0,0:0:0:0:
256,192,361874,1,0,0:0:0:0:
256,192,361957,1,0,0:0:0:0:
256,192,362041,1,8,0:0:0:0:
256,192,362209,1,0,0:0:0:0:
256,192,362376,1,8,0:0:0:0:
256,192,362544,1,0,0:0:0:0:
256,192,362712,1,4,0:0:0:0:
256,192,362879,1,0,0:0:0:0:
256,192,363047,1,12,0:0:0:0:
256,192,363214,1,0,0:0:0:0:
256,192,363382,1,4,0:0:0:0:
256,192,363717,1,4,0:0:0:0:
256,192,364052,1,0,0:0:0:0:
256,192,364220,1,0,0:0:0:0:
256,192,364304,1,0,0:0:0:0:
256,192,364388,1,8,0:0:0:0:
256,192,364555,1,0,0:0:0:0:
256,192,364723,1,8,0:0:0:0:
256,192,364890,1,0,0:0:0:0:
256,192,364974,1,0,0:0:0:0:
256,192,365058,1,8,0:0:0:0:
256,192,365226,1,8,0:0:0:0:
256,192,365393,1,4,0:0:0:0:
256,192,365561,1,0,0:0:0:0:
256,192,365728,1,12,0:0:0:0:
256,192,365896,1,0,0:0:0:0:
256,192,366064,1,4,0:0:0:0:
256,192,366231,1,8,0:0:0:0:
256,192,366399,5,8,0:0:0:0:
256,192,366566,1,8,0:0:0:0:
256,192,366734,1,4,0:0:0:0:
128,288,366900,5,0,0:0:0:0:
128,288,366984,1,0,0:0:0:0:
384,288,367067,1,8,0:0:0:0:
128,288,367234,1,0,0:0:0:0:
128,288,367400,1,0,0:0:0:0:
128,288,367484,1,0,0:0:0:0:
128,288,367567,1,0,0:0:0:0:
384,288,367734,1,8,0:0:0:0:
384,288,367900,1,8,0:0:0:0:
384,288,367984,1,8,0:0:0:0:
128,288,368067,1,0,0:0:0:0:
128,288,368234,1,0,0:0:0:0:
384,288,368400,1,8,0:0:0:0:
128,288,368567,1,0,0:0:0:0:
128,288,368734,1,0,0:0:0:0:
128,288,368817,1,0,0:0:0:0:
384,288,368900,1,8,0:0:0:0:
384,288,368984,1,8,0:0:0:0:
384,288,369067,1,8,0:0:0:0:
384,288,369122,1,8,0:0:0:0:
384,288,369178,1,8,0:0:0:0:
384,288,369234,1,8,0:0:0:0:
384,288,369317,1,8,0:0:0:0:
128,288,369400,1,0,0:0:0:0:
128,288,369567,1,0,0:0:0:0:
384,288,369734,1,8,0:0:0:0:
128,288,369900,1,0,0:0:0:0:
128,288,369984,1,0,0:0:0:0:
384,288,370067,1,8,0:0:0:0:
128,288,370234,1,0,0:0:0:0:
384,288,370400,1,8,0:0:0:0:
384,288,370567,1,8,0:0:0:0:
384,288,370650,1,8,0:0:0:0:
128,288,370734,1,0,0:0:0:0:
384,288,370900,1,8,0:0:0:0:
128,288,371067,1,0,0:0:0:0:
128,288,371150,1,0,0:0:0:0:
384,288,371234,1,8,0:0:0:0:
128,288,371317,1,0,0:0:0:0:
128,288,371400,1,0,0:0:0:0:
128,288,371484,1,0,0:0:0:0:
384,288,371567,1,8,0:0:0:0:
384,288,371650,1,8,0:0:0:0:
384,288,371734,1,8,0:0:0:0:
384,288,371817,1,8,0:0:0:0:
128,288,371900,1,0,0:0:0:0:
128,288,371984,1,0,0:0:0:0:
128,288,372067,1,0,0:0:0:0:
384,288,372234,1,8,0:0:0:0:
384,288,372317,1,8,0:0:0:0:
128,288,372400,1,0,0:0:0:0:
384,288,372567,1,8,0:0:0:0:
384,288,372650,1,8,0:0:0:0:
128,288,372734,1,0,0:0:0:0:
128,288,372817,1,0,0:0:0:0:
384,288,372900,1,8,0:0:0:0:
384,288,372984,1,8,0:0:0:0:
128,288,373067,1,0,0:0:0:0:
384,288,373234,1,8,0:0:0:0:
384,288,373317,1,8,0:0:0:0:
128,288,373400,1,0,0:0:0:0:
128,288,373484,1,8,0:0:0:0:
384,288,373567,1,8,0:0:0:0:
384,288,373650,1,8,0:0:0:0:
128,288,373734,1,0,0:0:0:0:
384,288,373900,1,8,0:0:0:0:
384,288,373984,1,8,0:0:0:0:
128,288,374067,1,0,0:0:0:0:
128,288,374150,1,8,0:0:0:0:
384,288,374234,1,8,0:0:0:0:
384,288,374317,1,0,0:0:0:0:
128,288,374400,1,0,0:0:0:0:
384,288,374567,1,8,0:0:0:0:
384,288,374650,1,0,0:0:0:0:
128,288,374734,1,0,0:0:0:0:
128,288,374817,1,8,0:0:0:0:
384,288,374900,1,8,0:0:0:0:
384,288,374984,1,0,0:0:0:0:
128,288,375067,1,0,0:0:0:0:
384,288,375234,1,8,0:0:0:0:
384,288,375317,1,0,0:0:0:0:
128,288,375400,1,0,0:0:0:0:
128,288,375484,1,0,0:0:0:0:
384,288,375567,1,8,0:0:0:0:
384,288,375650,1,0,0:0:0:0:
128,288,375734,1,0,0:0:0:0:
384,288,375900,1,8,0:0:0:0:
384,288,375984,1,8,0:0:0:0:
128,288,376067,1,0,0:0:0:0:
384,288,376400,1,8,0:0:0:0:
128,96,376734,1,4,0:0:0:0:
128,288,377067,1,0,0:0:0:0:
128,288,377150,1,0,0:0:0:0:
128,288,377234,1,0,0:0:0:0:
128,288,377317,1,0,0:0:0:0:
128,288,377400,1,0,0:0:0:0:
384,288,377567,1,8,0:0:0:0:
128,288,377734,1,0,0:0:0:0:
128,288,377900,1,0,0:0:0:0:
128,288,378067,1,0,0:0:0:0:
384,288,378150,1,8,0:0:0:0:
128,288,378317,1,0,0:0:0:0:
128,288,378400,1,8,0:0:0:0:
128,288,378567,1,8,0:0:0:0:
128,288,378734,1,0,0:0:0:0:
128,288,378900,1,0,0:0:0:0:
128,288,378984,1,8,0:0:0:0:
128,288,379067,1,0,0:0:0:0:
128,288,379234,1,0,0:0:0:0:
128,288,379317,1,0,0:0:0:0:
128,288,379400,1,0,0:0:0:0:
128,288,379567,1,0,0:0:0:0:
128,288,379650,1,0,0:0:0:0:
128,288,379734,1,0,0:0:0:0:
384,288,379817,1,8,0:0:0:0:
384,288,379900,1,8,0:0:0:0:
384,288,379984,1,8,0:0:0:0:
128,288,380067,1,0,0:0:0:0:
384,288,380234,1,8,0:0:0:0:
128,288,380400,1,0,0:0:0:0:
128,288,380567,1,0,0:0:0:0:
128,288,380650,1,0,0:0:0:0:
384,288,380734,1,8,0:0:0:0:
384,288,380817,1,8,0:0:0:0:
128,288,380900,1,0,0:0:0:0:
384,288,381067,1,8,0:0:0:0:
128,288,381234,1,0,0:0:0:0:
128,288,381400,1,0,0:0:0:0:
384,288,381567,1,8,0:0:0:0:
384,288,381650,1,8,0:0:0:0:
128,288,381734,1,8,0:0:0:0:
128,288,381817,1,0,0:0:0:0:
384,288,381900,1,0,0:0:0:0:
384,288,381984,1,0,0:0:0:0:
128,288,382067,1,8,0:0:0:0:
384,288,382234,1,0,0:0:0:0:
128,288,382317,1,8,0:0:0:0:
384,288,382400,1,0,0:0:0:0:
384,288,382567,1,8,0:0:0:0:
384,288,382650,1,8,0:0:0:0:
128,288,382734,1,0,0:0:0:0:
384,288,382900,1,8,0:0:0:0:
128,288,383067,1,0,0:0:0:0:
128,288,383150,1,0,0:0:0:0:
384,288,383234,1,8,0:0:0:0:
128,288,383400,1,0,0:0:0:0:
128,288,383567,1,0,0:0:0:0:
128,288,383650,1,0,0:0:0:0:
384,288,383734,1,8,0:0:0:0:
384,288,383817,1,8,0:0:0:0:
384,288,383900,1,8,0:0:0:0:
128,288,384067,1,0,0:0:0:0:
384,288,384234,1,8,0:0:0:0:
384,288,384567,1,8,0:0:0:0:
128,288,384734,1,0,0:0:0:0:
128,288,384900,1,0,0:0:0:0:
128,288,384984,1,0,0:0:0:0:
384,288,385067,1,8,0:0:0:0:
128,288,385234,1,0,0:0:0:0:
128,288,385400,1,0,0:0:0:0:
128,288,385484,1,0,0:0:0:0:
128,288,385567,1,0,0:0:0:0:
128,288,385650,1,0,0:0:0:0:
384,288,385734,1,8,0:0:0:0:
128,288,385900,1,0,0:0:0:0:
128,288,385984,1,0,0:0:0:0:
128,288,386067,1,0,0:0:0:0:
128,288,386150,1,0,0:0:0:0:
128,288,386234,1,0,0:0:0:0:
128,288,386317,1,0,0:0:0:0:
384,288,386400,1,8,0:0:0:0:
128,288,386567,1,0,0:0:0:0:
128,288,386650,1,0,0:0:0:0:
128,288,386734,1,0,0:0:0:0:
128,288,386817,1,0,0:0:0:0:
128,288,386900,1,0,0:0:0:0:
128,288,386984,1,0,0:0:0:0:
384,288,387067,1,8,0:0:0:0:
128,288,387234,1,0,0:0:0:0:
128,288,387317,1,0,0:0:0:0:
128,288,387400,1,0,0:0:0:0:
128,288,387567,1,0,0:0:0:0:
384,288,387650,1,8,0:0:0:0:
128,288,387734,1,0,0:0:0:0:
128,288,387900,1,0,0:0:0:0:
128,288,387984,1,0,0:0:0:0:
128,288,388067,1,0,0:0:0:0:
128,288,388234,1,0,0:0:0:0:
384,288,388317,1,8,0:0:0:0:
128,288,388400,1,0,0:0:0:0:
128,288,388484,1,0,0:0:0:0:
128,288,388567,1,0,0:0:0:0:
128,288,388650,1,0,0:0:0:0:
128,288,388734,1,2,0:0:0:0:
128,288,388900,1,0,0:0:0:0:
128,288,389067,1,2,0:0:0:0:
128,288,389234,1,0,0:0:0:0:
384,288,389400,1,8,0:0:0:0:
384,288,389484,1,8,0:0:0:0:
384,288,389567,1,8,0:0:0:0:
384,288,389650,1,8,0:0:0:0:
384,288,389734,1,8,0:0:0:0:
384,288,389817,1,8,0:0:0:0:
384,288,389900,1,8,0:0:0:0:
384,288,389984,1,8,0:0:0:0:
128,288,390067,1,0,0:0:0:0:
384,288,390150,5,8,0:0:0:0:
384,288,390234,1,8,0:0:0:0:
384,288,390317,1,8,0:0:0:0:
128,288,390400,1,0,0:0:0:0:
128,288,390484,1,0,0:0:0:0:
128,288,390567,1,0,0:0:0:0:
256,192,390734,5,12,0:0:0:0:
256,192,391067,1,8,0:0:0:0:
256,192,391400,1,8,0:0:0:0:
256,192,391734,1,8,0:0:0:0:
256,192,391900,1,8,0:0:0:0:
256,192,392067,1,0,0:0:0:0:
256,192,392234,1,0,0:0:0:0:
256,192,392400,1,8,0:0:0:0:
256,192,392567,1,8,0:0:0:0:
256,192,392734,1,0,0:0:0:0:
256,192,392900,1,8,0:0:0:0:
256,192,392984,1,8,0:0:0:0:
256,192,393067,1,8,0:0:0:0:
256,192,393400,1,4,0:0:0:0:
256,192,393567,1,8,0:0:0:0:
256,192,393650,1,8,0:0:0:0:
256,192,393734,1,0,0:0:0:0:
256,192,393900,1,8,0:0:0:0:
256,192,393984,1,8,0:0:0:0:
256,192,394067,1,0,0:0:0:0:
256,192,394150,1,0,0:0:0:0:
256,192,394234,1,8,0:0:0:0:
256,192,394317,1,8,0:0:0:0:
256,192,394400,1,0,0:0:0:0:
256,192,394567,1,8,0:0:0:0:
256,192,394733,1,0,0:0:0:0:
256,192,394983,1,8,0:0:0:0:
256,192,395067,1,0,0:0:0:0:
256,192,395233,1,8,0:0:0:0:
256,192,395400,1,0,0:0:0:0:
256,192,395483,1,0,0:0:0:0:
256,192,395567,1,8,0:0:0:0:
256,192,395650,1,8,0:0:0:0:
256,192,395733,1,0,0:0:0:0:
256,192,395817,1,0,0:0:0:0:
256,192,395900,1,8,0:0:0:0:
256,192,395983,1,8,0:0:0:0:
256,192,396067,1,0,0:0:0:0:
256,192,396233,1,8,0:0:0:0:
256,192,396317,1,8,0:0:0:0:
256,192,396400,1,0,0:0:0:0:
256,192,396567,1,8,0:0:0:0:
256,192,396733,1,0,0:0:0:0:
256,192,396817,1,0,0:0:0:0:
256,192,396900,1,0,0:0:0:0:
256,192,396983,1,0,0:0:0:0:
256,192,397067,1,8,0:0:0:0:
256,192,397150,1,8,0:0:0:0:
256,192,397233,1,8,0:0:0:0:
256,192,397317,1,8,0:0:0:0:
256,192,397400,1,0,0:0:0:0:
256,192,397567,1,0,0:0:0:0:
256,192,397733,1,8,0:0:0:0:
256,192,397900,1,8,0:0:0:0:
256,192,398067,1,0,0:0:0:0:
256,192,398400,1,8,0:0:0:0:
256,192,398567,1,0,0:0:0:0:
224,128,398733,1,4,0:0:0:0:
256,192,398900,1,8,0:0:0:0:
256,192,398983,1,8,0:0:0:0:
256,192,399067,1,0,0:0:0:0:
256,192,399233,1,8,0:0:0:0:
256,192,399317,1,8,0:0:0:0:
256,192,399400,1,0,0:0:0:0:
256,192,399483,1,0,0:0:0:0:
256,192,399567,1,8,0:0:0:0:
256,192,399650,1,8,0:0:0:0:
256,192,399733,1,0,0:0:0:0:
256,192,399900,1,8,0:0:0:0:
256,192,400067,1,0,0:0:0:0:
256,192,400317,1,8,0:0:0:0:
256,192,400400,1,0,0:0:0:0:
256,192,400567,1,8,0:0:0:0:
256,192,400733,1,0,0:0:0:0:
256,192,400817,1,0,0:0:0:0:
256,192,400900,1,8,0:0:0:0:
256,192,400983,1,8,0:0:0:0:
256,192,401067,1,0,0:0:0:0:
256,192,401150,1,0,0:0:0:0:
256,192,401233,1,8,0:0:0:0:
256,192,401317,1,8,0:0:0:0:
256,192,401400,1,0,0:0:0:0:
256,192,401567,1,8,0:0:0:0:
256,192,401650,1,8,0:0:0:0:
256,192,401733,1,0,0:0:0:0:
256,192,401900,1,8,0:0:0:0:
256,192,402067,1,0,0:0:0:0:
256,192,402150,1,0,0:0:0:0:
256,192,402233,1,0,0:0:0:0:
256,192,402317,1,0,0:0:0:0:
256,192,402400,1,8,0:0:0:0:
256,192,402483,1,8,0:0:0:0:
256,192,402567,1,8,0:0:0:0:
256,192,402650,1,8,0:0:0:0:
256,192,402733,1,0,0:0:0:0:
256,192,403067,1,8,0:0:0:0:
256,192,403233,1,0,0:0:0:0:
256,192,403400,1,0,0:0:0:0:
256,192,403733,1,8,0:0:0:0:
256,192,403817,1,8,0:0:0:0:
256,192,403900,1,8,0:0:0:0:
256,192,403983,1,8,0:0:0:0:
256,192,404067,1,0,0:0:0:0:
256,192,404233,1,8,0:0:0:0:
256,192,404400,1,8,0:0:0:0:
256,192,404567,1,0,0:0:0:0:
256,192,404650,1,0,0:0:0:0:
256,192,404733,1,8,0:0:0:0:
256,192,404817,1,8,0:0:0:0:
256,192,404983,1,8,0:0:0:0:
256,192,405067,1,0,0:0:0:0:
256,192,405233,1,8,0:0:0:0:
256,192,405400,1,0,0:0:0:0:
256,192,405567,1,8,0:0:0:0:
256,192,405650,1,8,0:0:0:0:
256,192,405733,1,0,0:0:0:0:
256,192,405900,1,8,0:0:0:0:
256,192,406067,1,8,0:0:0:0:
256,192,406233,1,0,0:0:0:0:
256,192,406400,1,8,0:0:0:0:
256,192,406567,1,0,0:0:0:0:
256,192,406622,1,0,0:0:0:0:
256,192,406678,1,0,0:0:0:0:
256,192,406733,1,0,0:0:0:0:
256,192,406900,1,8,0:0:0:0:
256,192,406983,1,8,0:0:0:0:
256,192,407067,1,0,0:0:0:0:
256,192,407233,1,8,0:0:0:0:
256,192,407317,1,0,0:0:0:0:
256,192,407483,1,0,0:0:0:0:
256,192,407567,1,0,0:0:0:0:
256,192,407733,1,8,0:0:0:0:
256,192,407817,1,8,0:0:0:0:
256,192,407900,1,0,0:0:0:0:
256,192,407983,1,0,0:0:0:0:
256,192,408067,1,0,0:0:0:0:
256,192,408233,1,0,0:0:0:0:
256,192,408400,1,8,0:0:0:0:
256,192,408567,1,0,0:0:0:0:
256,192,408650,1,0,0:0:0:0:
256,192,408733,1,8,0:0:0:0:
256,192,408900,1,0,0:0:0:0:
256,192,408983,1,8,0:0:0:0:
256,192,409067,1,0,0:0:0:0:
256,192,409233,1,0,0:0:0:0:
256,192,409400,1,8,0:0:0:0:
256,192,409483,1,8,0:0:0:0:
256,192,409567,1,8,0:0:0:0:
256,192,409650,1,8,0:0:0:0:
256,192,409733,1,0,0:0:0:0:
256,192,409900,1,8,0:0:0:0:
256,192,410067,1,0,0:0:0:0:
256,192,410233,1,8,0:0:0:0:
256,192,410400,1,8,0:0:0:0:
256,192,410567,1,0,0:0:0:0:
256,192,410733,1,8,0:0:0:0:
256,192,410900,1,0,0:0:0:0:
256,192,410983,1,0,0:0:0:0:
256,192,411067,1,8,0:0:0:0:
256,192,411233,1,0,0:0:0:0:
256,192,411317,1,0,0:0:0:0:
256,192,411400,1,8,0:0:0:0:
256,192,411567,1,8,0:0:0:0:
256,192,411650,1,8,0:0:0:0:
256,192,411733,1,8,0:0:0:0:
256,192,411900,1,8,0:0:0:0:
256,192,412067,1,0,0:0:0:0:
256,192,412400,1,8,0:0:0:0:
256,192,412567,1,8,0:0:0:0:
256,192,412733,1,0,0:0:0:0:
256,192,412900,1,8,0:0:0:0:
256,192,413067,1,0,0:0:0:0:
256,192,413150,1,8,0:0:0:0:
256,192,413233,1,8,0:0:0:0:
256,192,413400,1,0,0:0:0:0:
256,192,413483,1,0,0:0:0:0:
256,192,413567,1,0,0:0:0:0:
256,192,413733,1,8,0:0:0:0:
256,192,413900,1,8,0:0:0:0:
256,192,414067,1,0,0:0:0:0:
256,192,414400,1,8,0:0:0:0:
256,192,414567,1,0,0:0:0:0:
0,268,414733,1,0,0:0:0:0:
0,268,414900,1,0,0:0:0:0:
0,268,414983,1,8,0:0:0:0:
0,268,415067,1,0,0:0:0:0:
0,268,415150,1,0,0:0:0:0:
0,268,415233,1,8,0:0:0:0:
0,268,415317,1,0,0:0:0:0:
0,268,415400,1,8,0:0:0:0:
0,268,415567,1,0,0:0:0:0:
0,268,415733,1,8,0:0:0:0:
0,268,415817,1,0,0:0:0:0:
0,268,415900,1,0,0:0:0:0:
0,268,415983,1,0,0:0:0:0:
0,268,416067,1,8,0:0:0:0:
0,268,416233,1,8,0:0:0:0:
0,268,416317,1,0,0:0:0:0:
0,268,416400,1,8,0:0:0:0:
0,268,416483,1,0,0:0:0:0:
0,268,416567,1,0,0:0:0:0:
0,268,416650,1,0,0:0:0:0:
0,268,416733,1,8,0:0:0:0:
0,268,416900,1,0,0:0:0:0:
0,268,417067,1,8,0:0:0:0:
0,268,417150,1,0,0:0:0:0:
0,268,417233,1,8,0:0:0:0:
0,268,417317,1,0,0:0:0:0:
0,268,417400,1,8,0:0:0:0:
0,268,417567,1,0,0:0:0:0:
0,268,417650,1,8,0:0:0:0:
0,268,417817,1,0,0:0:0:0:
0,268,417900,1,8,0:0:0:0:
0,268,417983,1,0,0:0:0:0:
0,268,418067,1,8,0:0:0:0:
0,268,418233,1,0,0:0:0:0:
0,268,418317,1,8,0:0:0:0:
0,268,418400,1,0,0:0:0:0:
0,268,418483,1,0,0:0:0:0:
0,268,418567,1,8,0:0:0:0:
0,268,418733,1,8,0:0:0:0:
0,268,418817,1,0,0:0:0:0:
0,268,418900,1,0,0:0:0:0:
0,268,418983,1,0,0:0:0:0:
0,268,419067,1,8,0:0:0:0:
0,268,419233,1,0,0:0:0:0:
0,268,419317,1,0,0:0:0:0:
0,268,419400,1,8,0:0:0:0:
0,268,419567,1,8,0:0:0:0:
0,268,419733,1,0,0:0:0:0:
0,268,419817,1,0,0:0:0:0:
0,268,419900,1,8,0:0:0:0:
0,268,420067,1,4,0:0:0:0:
0,268,420233,1,0,0:0:0:0:
0,268,420317,1,0,0:0:0:0:
0,268,420483,1,0,0:0:0:0:
0,268,420567,1,0,0:0:0:0:
0,268,420650,1,0,0:0:0:0:
0,268,420733,1,8,0:0:0:0:
0,268,420900,1,8,0:0:0:0:
0,268,421067,1,8,0:0:0:0:
0,268,421150,1,0,0:0:0:0:
0,268,421233,1,0,0:0:0:0:
0,268,421400,1,4,0:0:0:0:
0,268,421567,1,0,0:0:0:0:
0,268,421650,1,0,0:0:0:0:
0,268,421817,1,0,0:0:0:0:
0,268,421900,1,0,0:0:0:0:
0,268,421983,1,0,0:0:0:0:
0,268,422067,1,8,0:0:0:0:
0,268,422233,1,8,0:0:0:0:
0,268,422400,1,8,0:0:0:0:
0,268,422483,1,8,0:0:0:0:
0,268,422567,1,0,0:0:0:0:
0,268,422733,1,12,0:0:0:0:
0,268,422900,1,0,0:0:0:0:
0,268,422983,1,8,0:0:0:0:
0,268,423150,1,0,0:0:0:0:
0,268,423233,1,8,0:0:0:0:
0,268,423400,1,12,0:0:0:0:
0,268,423567,1,0,0:0:0:0:
0,268,423650,1,8,0:0:0:0:
0,268,423733,1,0,0:0:0:0:
0,268,423817,1,0,0:0:0:0:
0,268,423900,1,8,0:0:0:0:
0,268,424067,1,8,0:0:0:0:
0,268,424150,1,0,0:0:0:0:
0,268,424233,1,0,0:0:0:0:
0,268,424317,1,0,0:0:0:0:
0,268,424400,1,8,0:0:0:0:
0,268,424483,1,0,0:0:0:0:
0,268,424567,1,0,0:0:0:0:
0,268,424650,1,0,0:0:0:0:
0,268,424733,1,8,0:0:0:0:
0,268,424900,1,0,0:0:0:0:
0,268,425067,1,12,0:0:0:0:
0,268,425233,1,0,0:0:0:0:
0,268,425400,1,8,0:0:0:0:
0,268,425483,1,8,0:0:0:0:
0,268,425567,1,0,0:0:0:0:
0,268,425733,1,8,0:0:0:0:
0,268,425900,1,8,0:0:0:0:
0,268,425983,1,8,0:0:0:0:
0,268,426067,1,0,0:0:0:0:
0,268,426150,1,0,0:0:0:0:
0,268,426233,1,8,0:0:0:0:
0,268,426400,1,0,0:0:0:0:
0,268,426567,1,8,0:0:0:0:
0,268,426733,1,0,0:0:0:0:
0,268,426900,1,8,0:0:0:0:
0,268,426983,1,0,0:0:0:0:
0,268,427067,1,0,0:0:0:0:
0,268,427233,1,8,0:0:0:0:
0,268,427400,1,8,0:0:0:0:
0,268,427567,1,0,0:0:0:0:
0,268,427650,1,8,0:0:0:0:
0,268,427733,1,0,0:0:0:0:
0,268,427817,1,0,0:0:0:0:
0,268,427900,1,8,0:0:0:0:
0,268,428067,1,0,0:0:0:0:
0,268,428233,1,8,0:0:0:0:
0,268,428317,1,8,0:0:0:0:
0,268,428400,1,0,0:0:0:0:
0,268,428567,1,8,0:0:0:0:
0,268,428733,1,0,0:0:0:0:
0,268,428817,1,0,0:0:0:0:
0,268,428900,1,0,0:0:0:0:
0,268,429067,1,8,0:0:0:0:
0,268,429150,1,0,0:0:0:0:
0,268,429233,1,8,0:0:0:0:
0,268,429317,1,8,0:0:0:0:
0,268,429400,1,0,0:0:0:0:
0,268,429567,1,8,0:0:0:0:
0,268,429733,1,0,0:0:0:0:
0,268,429900,1,0,0:0:0:0:
0,268,430067,1,8,0:0:0:0:
0,268,430400,1,8,0:0:0:0:
0,268,430567,1,0,0:0:0:0:
0,268,430733,1,8,0:0:0:0:
0,268,430817,1,8,0:0:0:0:
0,268,430900,1,0,0:0:0:0:
0,268,431067,1,8,0:0:0:0:
0,268,431150,1,8,0:0:0:0:
0,268,431233,1,0,0:0:0:0:
0,268,431400,1,8,0:0:0:0:
0,268,431483,1,0,0:0:0:0:
0,268,431567,1,8,0:0:0:0:
0,268,431733,1,0,0:0:0:0:
0,268,431900,1,8,0:0:0:0:
0,268,432067,1,8,0:0:0:0:
0,268,432150,1,0,0:0:0:0:
0,268,432233,1,8,0:0:0:0:
0,268,432317,1,0,0:0:0:0:
0,268,432400,1,0,0:0:0:0:
0,268,432567,1,0,0:0:0:0:
0,268,432733,1,8,0:0:0:0:
0,268,432900,1,8,0:0:0:0:
0,268,432983,1,8,0:0:0:0:
0,268,433067,1,0,0:0:0:0:
0,268,433150,1,0,0:0:0:0:
0,268,433233,1,8,0:0:0:0:
0,268,433400,1,4,0:0:0:0:
0,268,433567,1,0,0:0:0:0:
0,268,433650,1,0,0:0:0:0:
0,268,433733,1,8,0:0:0:0:
0,268,433817,1,0,0:0:0:0:
0,268,433900,1,0,0:0:0:0:
0,268,434067,1,4,0:0:0:0:
0,268,434233,1,0,0:0:0:0:
0,268,434317,1,0,0:0:0:0:
0,268,434400,1,8,0:0:0:0:
0,268,434483,1,0,0:0:0:0:
0,268,434567,1,8,0:0:0:0:
0,268,434733,1,8,0:0:0:0:
0,268,434817,1,0,0:0:0:0:
0,268,434900,1,0,0:0:0:0:
0,268,434983,1,0,0:0:0:0:
0,268,435067,1,8,0:0:0:0:
0,268,435150,1,8,0:0:0:0:
0,268,435233,1,0,0:0:0:0:
0,268,435317,1,0,0:0:0:0:
0,268,435400,1,8,0:0:0:0:
0,268,435483,1,0,0:0:0:0:
0,268,435567,1,8,0:0:0:0:
0,268,435650,1,0,0:0:0:0:
0,268,435733,1,8,0:0:0:0:
0,268,435817,1,8,0:0:0:0:
0,268,435900,1,0,0:0:0:0:
0,268,436067,1,4,0:0:0:0:
256,192,439598,5,0,0:0:0:0:
256,192,439898,1,2,0:0:0:0:
256,192,440198,1,2,0:0:0:0:
256,192,440498,1,0,0:0:0:0:
256,192,440798,1,2,0:0:0:0:
256,192,440948,1,2,0:0:0:0:
256,192,441098,1,2,0:0:0:0:
256,192,441398,1,0,0:0:0:0:
256,192,441698,1,2,0:0:0:0:
256,192,441998,1,0,0:0:0:0:
256,192,442298,1,2,0:0:0:0:
256,192,442448,1,2,0:0:0:0:
256,192,442598,1,2,0:0:0:0:
256,192,442898,1,0,0:0:0:0:
256,192,443198,1,2,0:0:0:0:
256,192,443351,1,2,0:0:0:0:
256,192,443504,1,0,0:0:0:0:
256,192,443810,1,2,0:0:0:0:
256,192,444116,1,0,0:0:0:0:
256,192,444422,1,4,0:0:0:0:
256,192,444719,1,0,0:0:0:0:
256,192,445016,1,2,0:0:0:0:
256,192,445313,1,2,0:0:0:0:
256,192,445610,1,2,0:0:0:0:
256,192,445907,1,0,0:0:0:0:
256,192,446204,1,0,0:0:0:0:
256,192,446501,1,0,0:0:0:0:
256,192,446798,1,2,0:0:0:0:
256,192,447095,1,2,0:0:0:0:
256,192,447392,1,0,0:0:0:0:
256,192,447689,1,0,0:0:0:0:
256,192,447986,1,2,0:0:0:0:
256,192,448283,1,0,0:0:0:0:
256,192,448580,1,2,0:0:0:0:
256,192,448877,1,0,0:0:0:0:
256,192,449174,1,2,0:0:0:0:
256,192,449471,1,2,0:0:0:0:
256,192,449768,1,0,0:0:0:0:
256,192,450065,1,2,0:0:0:0:
256,192,450362,1,2,0:0:0:0:
256,192,450659,1,0,0:0:0:0:
256,192,450956,1,2,0:0:0:0:
256,192,451253,1,0,0:0:0:0:
256,192,451550,1,0,0:0:0:0:
256,192,451847,1,0,0:0:0:0:
256,192,452144,1,0,0:0:0:0:
256,192,452441,1,2,0:0:0:0:
256,192,452590,1,2,0:0:0:0:
256,192,452738,1,0,0:0:0:0:
256,192,453035,1,2,0:0:0:0:
256,192,453184,1,0,0:0:0:0:
256,192,453332,1,2,0:0:0:0:
256,192,453629,1,2,0:0:0:0:
256,192,453778,1,2,0:0:0:0:
256,192,453926,1,0,0:0:0:0:
256,192,454217,1,0,0:0:0:0:
256,192,454508,1,2,0:0:0:0:
256,192,454799,1,0,0:0:0:0:
256,192,455091,1,2,0:0:0:0:
256,192,455382,1,2,0:0:0:0:
256,192,455673,1,0,0:0:0:0:
256,192,455964,1,0,0:0:0:0:
256,192,456256,1,0,0:0:0:0:
256,192,456547,1,2,0:0:0:0:
256,192,456838,1,0,0:0:0:0:
256,192,457129,1,2,0:0:0:0:
256,192,457421,1,2,0:0:0:0:
256,192,457712,1,0,0:0:0:0:
256,192,458003,1,0,0:0:0:0:
256,192,458294,1,0,0:0:0:0:
256,192,458586,1,0,0:0:0:0:
256,192,458877,1,2,0:0:0:0:
256,192,459168,5,0,0:0:0:0:
256,192,459459,1,2,0:0:0:0:
256,192,459751,5,2,0:0:0:0:
256,192,460042,1,2,0:0:0:0:
256,192,460333,1,0,0:0:0:0:
256,192,460625,1,0,0:0:0:0:
256,192,460916,1,2,0:0:0:0:
256,192,461207,1,2,0:0:0:0:
256,192,461498,1,0,0:0:0:0:
256,192,461790,1,0,0:0:0:0:
256,192,462081,1,2,0:0:0:0:
256,192,462372,1,2,0:0:0:0:
256,192,462518,1,0,0:0:0:0:
256,192,462663,1,0,0:0:0:0:
256,192,462955,1,0,0:0:0:0:
256,192,463246,5,4,0:0:0:0:
256,192,463534,1,2,0:0:0:0:
256,192,463822,1,0,0:0:0:0:
256,192,464111,1,2,0:0:0:0:
256,192,464399,1,0,0:0:0:0:
256,192,464688,1,2,0:0:0:0:
256,192,464976,1,0,0:0:0:0:
256,192,465265,1,2,0:0:0:0:
256,192,465553,1,0,0:0:0:0:
256,192,465842,1,2,0:0:0:0:
256,192,466130,1,0,0:0:0:0:
256,192,466419,1,2,0:0:0:0:
256,192,466707,1,0,0:0:0:0:
256,192,466996,1,0,0:0:0:0:
256,192,467284,1,0,0:0:0:0:
256,192,467428,1,0,0:0:0:0:
256,192,467572,1,0,0:0:0:0:
256,192,467861,1,0,0:0:0:0:
256,192,468149,1,0,0:0:0:0:
256,192,468438,1,2,0:0:0:0:
256,192,468726,1,0,0:0:0:0:
256,192,469015,1,2,0:0:0:0:
256,192,469303,1,0,0:0:0:0:
256,192,469592,1,2,0:0:0:0:
256,192,469880,1,0,0:0:0:0:
256,192,470169,1,0,0:0:0:0:
256,192,470313,1,2,0:0:0:0:
256,192,470601,1,2,0:0:0:0:
256,192,470746,1,0,0:0:0:0:
256,192,471034,1,0,0:0:0:0:
256,192,471178,1,0,0:0:0:0:
256,192,471322,1,2,0:0:0:0:
256,192,471611,1,0,0:0:0:0:
256,192,471755,1,0,0:0:0:0:
256,192,471899,1,2,0:0:0:0:
256,192,472188,1,0,0:0:0:0:
256,192,472332,1,0,0:0:0:0:
256,192,472476,1,2,0:0:0:0:
256,192,472621,12,0,478390,0:0:0:0:
