osu file format v13

[General]
AudioFilename: 8 Awesome Angles of YouTube.mp3
AudioLeadIn: 0
PreviewTime: 345282
Countdown: 0
SampleSet: Soft
StackLeniency: 0.7
Mode: 0
LetterboxInBreaks: 0
EpilepsyWarning: 1
WidescreenStoryboard: 0

[Editor]
Bookmarks: 21415,53415,86748,126092,157212,185835,216653,242598,266381,289691,311385,345282,366734,390734,414733,435622,439605
DistanceSpacing: 0.5
BeatDivisor: 12
GridSize: 4
TimelineZoom: 2.5

[Metadata]
Title:8 Awesome Angles of YouTube
TitleUnicode:8 Awesome Angles of YouTube
Artist:OctagonCollaboration
ArtistUnicode:OctagonCollaboration
Creator:Leader
Version:Marathon
Source:
Tags:-kevincela- Blue Dragon Kyshiro RLC Irreversible cheesiest Chewin Sayaka- dialgadu77 _Gezo_ KinomiCandy DarkDunskin TKS TKSalt Stefan TheNutritiousGuy xWillx Jack Black Octagon Sesame Street bloomin' feeling CAPTAIN JACK (GRANDALE REMIX) Time to Air Almagest Masked Dedede Cave Story Overworld Theme Elmo's World Opening Song Star Maze Dou Iu Koto Nano!? 5way Demon Tale Sonata Marisa Stole the Precious Thing wa Taihen na Mono wo Nusunde Ikimashita Butterfly Wonderboy Ryu* Seiryu Galdeira Jun Ishikawa Koji Kondo Daisuke Amaya Kevin Clash Kazumi Totaka Kuchibashi-P tetsuo Honeybee ZUN IOSYS Smile.dk Tenacious D Kirby Super Mario Bros. Land 2 Hatsune Miku Vocaloid Star Soldier Touhou Koishi Komeiji Alice Margatroid Marisa Kirisame Noma DKCPlayer dpritch16 geturenanoka7 KAPAOG KinkyOats KJ Negaman XLovesMiku MatrixMarioX MenorahOnFire MowtenDoo SgtScrubnoob Stuff3 svaugra Tukaari22 wehesomushi
BeatmapID:357638
BeatmapSetID:143844

[Difficulty]
HPDrainRate:6
CircleSize:4
OverallDifficulty:8
ApproachRate:9
SliderMultiplier:1.8
SliderTickRate:1

[Events]
//Background and Video events
0,0,"lol.jpg",0,0
Video,-320,"octagonnew5.avi"
//Break Periods
2,64279,68665
2,157414,163236
2,390934,392300
2,436267,438998
//Storyboard Layer 0 (Background)
//Storyboard Layer 1 (Fail)
//Storyboard Layer 2 (Pass)
//Storyboard Layer 3 (Foreground)
Sprite,Foreground,Centre,"angles\sub1.png",320,390 F,0,333589,,1 F,0,334267,,0
Sprite,Foreground,Centre,"angles\sub2.png",320,390 F,0,334775,,1 F,0,335453,,0
Sprite,Foreground,Centre,"angles\sub3.png",320,390 F,0,336131,,1 F,0,336809,,0
Sprite,Foreground,Centre,"angles\sub4.png",320,390 F,0,337487,,1 F,0,338165,,0
Sprite,Foreground,Centre,"angles\sub5.png",320,390 F,0,338843,,1 F,0,339521,,0
Sprite,Foreground,Centre,"angles\sub6.png",320,390 F,0,340199,,1 F,0,340877,,0
Sprite,Foreground,Centre,"angles\sub7.png",320,390 F,0,341555,,1 F,0,342233,,0
Sprite,Foreground,Centre,"angles\sub9.png",320,390 F,0,343928,344606,0,1 F,0,345282,,0
Sprite,Foreground,Centre,"angles\sub8.png",320,390 F,0,342911,343928,1,0
Sprite,Foreground,BottomLeft,"angles\titles\1BLOOM.png",0,370 S,0,82,,0.75 F,0,82,248,0.2,0.99 M,1,82,415,-360,370,-4,370 M,0,415,4081,-4,370,0,370 M,2,4081,4415,0,370,-360,370 F,0,4248,4415,0.99,0.2
Sprite,Foreground,BottomLeft,"angles\collab parts\1BLOOM-Leader.png",0,420 S,0,248,,0.75 F,0,248,415,0.2,0.99 M,1,248,581,-360,420,-4,420 M,0,581,4081,-4,420,0,420 M,2,4081,4415,0,420,-360,420 F,0,4248,4415,0.99,0.2
Sprite,Foreground,BottomLeft,"angles\titles\2CAPT.png",0,370 S,0,21415,,0.75 F,0,21415,21665,0,0.99 M,0,21415,25414,-4,370,0,370 F,0,25248,25748,0.99,0
Sprite,Foreground,BottomLeft,"angles\collab parts\2CAPT-RLC.png",0,420 S,0,21581,,0.75 F,0,21581,21748,0,0.99 M,0,21581,25248,-4,420,0,420 F,0,25248,25582,0.99,0
Sprite,Foreground,BottomLeft,"angles\titles\3TIME.png",0,370 S,0,53415,,0.75 F,0,53415,53581,0.2,0.99 M,1,53415,53748,-360,370,-4,370 M,0,53748,57414,-4,370,0,370 M,2,57414,57748,0,370,-360,370 F,0,57581,57748,0.99,0.2
Sprite,Foreground,BottomLeft,"angles\collab parts\3TIME-Irre.png",0,420 S,0,53415,,0.75 F,0,53415,53582,0.2,0.99 M,1,53415,53748,-360,420,-4,420 M,0,53748,57248,-4,420,0,420 M,2,57248,57582,0,420,-360,420 F,0,57415,57582,0.99,0.2
Sprite,Foreground,BottomLeft,"angles\titles\4OCTAG.png",0,370 F,0,86748,,0.99 S,0,86748,,0.75 M,0,86748,92081,-4,370,0,370 F,0,92081,,0
Sprite,Foreground,BottomLeft,"angles\collab parts\4OCTAG-kevin.png",0,420 F,0,86748,,0.99 S,0,86748,,0.75 M,0,86748,92081,-4,420,0,420 F,0,92081,,0
Sprite,Foreground,BottomLeft,"angles\titles\XXwhiteover.png",0,370 S,0,86748,,0.75 F,0,86748,87415,0.99,0 M,0,86748,92081,-4,370,0,370 F,0,92081,92581,0.99,0
Sprite,Foreground,BottomLeft,"angles\collab parts\XXwhiteover.png",0,420 S,0,86748,,0.75 F,0,86748,87415,0.99,0 M,0,86748,92081,-4,420,0,420 F,0,92081,92581,0.99,0
Sprite,Foreground,BottomLeft,"angles\titles\5MASK-old.png",0,370 S,0,126092,,0.75 F,0,126092,126949,0,0.99 M,0,126092,133876,-4,370,0,370 F,0,133876,,0
Sprite,Foreground,BottomLeft,"angles\collab parts\5MASK-cheesiest-old.png",0,420 S,0,126092,,0.75 F,0,126092,126949,0,0.99 M,0,126092,133876,-4,420,0,420 F,0,133876,,0
Sprite,Foreground,BottomLeft,"angles\titles\5MASK.png",0,370 F,0,133876,,0.99 S,0,133876,,0.75 F,0,134576,,0
Sprite,Foreground,BottomLeft,"angles\collab parts\5MASK-cheesiest.png",0,420 F,0,133876,,0.99 S,0,133876,,0.75 F,0,134576,,0
Sprite,Foreground,BottomLeft,"angles\titles\5MASK-invert.png",0,370 M,0,134576,,0,370 F,0,134576,,0.99 S,0,134576,,0.75 F,0,135076,,0.5 S,0,135076,,1.166 M,0,135176,,0,419 F,0,135176,,0.9 S,0,135176,,0.975 M,0,135276,,0,370 F,0,135276,,0.7 S,0,135276,,1.166 F,0,135379,,0
Sprite,Foreground,BottomLeft,"angles\collab parts\5MASK-cheesiest-invert.png",0,420 M,0,134576,,0,420 F,0,134576,,0.99 S,0,134576,,0.75 M,0,135076,,0,290 F,0,135076,,0.3 M,0,135176,,0,255 F,0,135176,,0.7 S,0,135176,,1.275 M,0,135276,,0,470 F,0,135276,,0.5 F,0,135379,,0
Sprite,Foreground,BottomLeft,"angles\titles\6STORY-base.png",-4,370 S,0,163817,,0.75 R,1,163817,164367,-1.57,0 M,0,164367,167983,-4,370,0,370 F,0,167120,,0.99 R,2,167670,168221,0,-1.57 F,0,167983,168150,0.99,0.2
Sprite,Foreground,BottomLeft,"angles\titles\6STORY.png",-4,370 S,0,163817,,0.75 F,0,163817,163983,0.2,0.99 R,1,163817,164367,-1.57,0 M,0,164367,167983,-4,370,0,370 F,0,167120,,0
Animation,Foreground,Centre,"angles\smok.png",20,370,4,45,LoopOnce M,0,167120,,83,349 F,0,167120,,0.99 S,0,167120,,0.2726666 F,0,167300,,0
Animation,Foreground,Centre,"angles\smok.png",20,370,4,45,LoopOnce M,0,167120,,59,334 F,0,167120,,0.99 S,0,167120,,0.4006665 F,0,167300,,0
Animation,Foreground,Centre,"angles\smok.png",20,370,4,45,LoopOnce M,0,167120,,21,316 F,0,167120,,0.99 S,0,167120,,0.1660001 F,0,167300,,0
Animation,Foreground,Centre,"angles\smok.png",20,370,4,45,LoopOnce M,0,167120,,36,352 F,0,167120,,0.99 S,0,167120,,0.3 F,0,167300,,0
Animation,Foreground,Centre,"angles\smok.png",20,370,4,45,LoopOnce M,0,167120,,82,311 F,0,167120,,0.99 S,0,167120,,0.2726666 F,0,167300,,0
Sprite,Foreground,TopLeft,"angles\collab parts\6STORY-kevin.png",-4,370 S,0,163817,,0.75 F,0,163817,163984,0.2,0.99 R,1,163817,164367,1.57,0 M,0,164367,167817,-4,370,0,370 R,2,167670,168221,0,1.57 F,0,167817,167984,0.99,0.2
Sprite,Foreground,TopLeft,"angles\collab parts\6STORY-2-cheesiest.png",-4,370 S,0,185835,,0.75 F,0,185835,186002,0.2,0.99 R,1,185835,186385,1.57,0 M,0,186385,189835,-4,370,0,370 R,2,189688,190239,0,1.57 F,0,189835,190002,0.99,0.2
Animation,Foreground,BottomLeft,"angles\titles\7BROS-anim.png",-4,388,6,45,LoopOnce F,0,216653,,0.99 S,0,216653,,0.75 F,0,216923,,0
Sprite,Foreground,BottomLeft,"angles\titles\7BROS.png",0,370 F,0,216923,,0.99 S,0,216923,,0.75 M,0,217058,220977,-4,370,0,370 F,0,220977,,0
Animation,Foreground,BottomLeft,"angles\titles\7BROS-anim-end.png",0,388,6,45,LoopOnce F,0,220977,,0.99 S,0,220977,,0.75 F,0,221247,,0
Sprite,Foreground,BottomLeft,"angles\collab parts\7BROS-Irre.png",0,420 S,0,216923,,0.75 F,0,216923,216955,0.2,0.99 M,1,216923,217328,-360,420,-4,420 M,0,217328,220621,-4,420,0,420 M,2,220621,220955,0,420,-360,420 F,0,220788,220955,0.99,0.2
Sprite,Foreground,BottomLeft,"angles\titles\8ELMO.png",0,370 S,0,242598,,0.75 F,0,242598,242848,0,0.99 M,0,242598,246653,-4,370,0,370 F,0,246247,246315,0.99,0
Sprite,Foreground,BottomLeft,"angles\collab parts\8ELMO-Chewin.png",0,430 S,0,242734,,0.75 F,0,242734,242901,0,0.99 M,0,242734,246653,-4,430,0,430 F,0,246382,246517,0.99,0
Sprite,Foreground,BottomLeft,"angles\titles\8ELMO-blur.png",0,370 F,0,242598,,0 S,0,242598,,0.75 M,0,242598,246653,-4,370,0,370 F,0,244761,244963,0.99,0 F,0,245031,245234,0.99,0 F,0,245301,245774,0.99,0 F,0,246247,246315,0.99,0
Sprite,Foreground,BottomLeft,"angles\collab parts\8ELMO-Chewin-blur.png",0,430 F,0,242598,,0 S,0,242734,,0.75 M,0,242734,246653,-4,430,0,430 F,0,244761,244963,0.99,0 F,0,245031,245234,0.99,0 F,0,245301,245774,0.99,0 F,0,246382,246517,0.99,0
Sprite,Foreground,CentreRight,"angles\box.png",330,240 F,0,245842,246112,0,1 V,0,245977,246247,1,1,5,1 F,0,246247,246382,0.99,0 M,0,246382,,410,320
Sprite,Foreground,CentreRight,"angles\box.png",330,240 F,0,246112,246382,0,0.9 V,0,246247,246517,1,0.6,4,0.6 F,0,246517,246652,0.99,0 M,0,246652,,310,405
Sprite,Foreground,BottomLeft,"angles\titles\9LAND.png",0,370 S,0,267752,,0.75 F,0,267752,267918,0.2,0.99 M,1,267752,268085,-360,370,-4,370 M,0,268085,271751,-4,370,0,370 M,2,271751,272085,0,370,-360,370 F,0,271918,272085,0.99,0.2
Sprite,Foreground,BottomLeft,"angles\collab parts\9LAND-Leader.png",0,420 S,0,267838,,0.75 F,0,267838,268005,0.2,0.99 M,1,267838,268171,-360,420,-4,420 M,0,268171,271671,-4,420,0,420 M,2,271671,272005,0,420,-360,420 F,0,271838,272005,0.99,0.2
Sprite,Foreground,BottomLeft,"angles\titles\10HOW.png",0,370 S,0,289691,,0.75 F,0,289691,289857,0.2,0.99 M,1,289691,290024,-360,370,-4,370 M,0,290024,293690,-4,370,0,370 M,2,293690,294024,0,370,-360,370 F,0,293857,294024,0.99,0.2
Sprite,Foreground,BottomLeft,"angles\titles\10HOW-pink.png",0,370 F,0,289691,,0 S,0,289691,,0.75 M,1,289691,290024,-360,370,-4,370 M,0,290024,293690,-4,370,0,370 F,0,290029,,0.99 F,0,290368,,0 F,0,290538,,0.99 F,0,290707,,0 F,0,290877,,0.99 F,0,291046,,0 F,0,291385,,0.99 F,0,291724,,0 F,0,291894,,0.99 F,0,292036,,0 F,0,292233,,0.99 F,0,292402,,0 M,2,293690,294024,0,370,-360,370 F,0,293857,,0
Sprite,Foreground,BottomLeft,"angles\collab parts\10HOW-Chewin.png",0,420 S,0,289775,,0.75 F,0,289775,289942,0.2,0.99 M,1,289775,290108,-360,420,-4,420 M,0,290108,293608,-4,420,0,420 M,2,293608,293942,0,420,-360,420 F,0,293775,293942,0.99,0.2
Sprite,Foreground,BottomLeft,"angles\collab parts\10HOW-Chewin-pink.png",0,420 F,0,289691,,0 S,0,289775,,0.75 M,1,289775,290108,-360,420,-4,420 F,0,290029,,0.99 M,0,290108,293608,-4,420,0,420 F,0,290368,,0 F,0,290538,,0.99 F,0,290707,,0 F,0,290877,,0.99 F,0,291046,,0 F,0,291385,,0.99 F,0,291724,,0 F,0,291894,,0.99 F,0,292036,,0 F,0,292233,,0.99 F,0,292402,,0 M,2,293608,293942,0,420,-360,420 F,0,293775,,0
Animation,Foreground,BottomLeft,"angles\titles\11FULL.png",0,370,2,678,LoopForever M,0,311385,,0,370 S,0,311385,,0.75 F,0,311385,311635,0,0.99 M,1,312063,312233,0,370,0,362 M,2,312223,312402,0,362,0,370 M,1,312741,312911,0,370,0,362 M,2,312911,313080,0,362,0,370 M,1,313419,313589,0,370,0,362 M,2,313589,313758,0,362,0,370 M,1,314097,314267,0,370,0,362 F,0,314097,314436,0.99,0 M,2,314267,314436,0,362,0,370
Animation,Foreground,BottomLeft,"angles\collab parts\11FULL-RLC.png",0,420,2,678,LoopForever M,0,311385,,0,420 S,0,311385,,0.75 M,1,312063,312233,0,420,0,408 M,2,312223,312402,0,408,0,420 M,1,312741,312911,0,420,0,408 M,2,312911,313080,0,408,0,420 M,1,313419,313589,0,420,0,408 M,2,313589,313758,0,408,0,420 M,1,314097,314267,0,420,0,408 F,0,314097,314436,0.99,0 M,2,314267,314436,0,408,0,420
Sprite,Foreground,BottomLeft,"angles\titles\12DEMON.png",0,370 S,0,345282,,0.75 F,0,345282,345448,0,0.99 M,0,345615,349281,-4,370,0,370 M,2,349281,349615,0,370,-360,370 F,0,349365,349555,0.99,0
Sprite,Foreground,BottomLeft,"angles\collab parts\12DEMON-BD.png",0,420 S,0,345365,,0.75 F,0,345365,345532,0,0.99 M,0,345698,349198,-4,420,0,420 M,2,349198,349532,0,420,-360,420 F,0,349365,349555,0.99,0
Sprite,Foreground,BottomLeft,"angles\titles\13STOLE.png",0,370 S,0,366734,,0.75 F,0,366734,366900,0.2,0.99 M,1,366734,366901,-360,370,-4,370 M,0,367067,370733,-4,370,0,370 M,2,370733,371067,0,370,-360,370 F,0,370900,371067,0.99,0.2
Sprite,Foreground,BottomLeft,"angles\collab parts\13STOLE-Kshro.png",0,420 S,0,366734,,0.75 M,1,366734,366901,-360,420,-4,420 F,0,366734,366901,0.2,0.99 M,0,367067,370567,-4,420,0,420 M,2,370567,370901,0,420,-360,420 F,0,370734,370901,0.99,0.2
Sprite,Foreground,BottomLeft,"angles\titles\14DANCES.png",0,370 S,0,393400,,0.75 F,0,393400,393566,0.2,0.99 M,1,393400,393567,-360,370,-4,370 M,0,393733,397399,-4,370,0,370 M,2,397399,397733,0,370,-360,370 F,0,397566,397733,0.99,0.2
Sprite,Foreground,BottomLeft,"angles\collab parts\14DANCES-BD.png",0,420 S,0,393484,,0.75 M,1,393484,393651,-360,420,-4,420 F,0,393484,393651,0.2,0.99 M,0,393817,397317,-4,420,0,420 M,2,397317,397651,0,420,-360,420 F,0,397484,397651,0.99,0.2
Sprite,Foreground,BottomLeft,"angles\collab parts\14DANCES-2-Kshro.png",0,420 S,0,414733,,0.75 M,1,414733,414900,-360,420,-4,420 F,0,414733,414900,0.2,0.99 M,0,415066,418566,-4,420,0,420 M,2,418566,418900,0,420,-360,420 F,0,418733,418900,0.99,0.2
Sprite,Foreground,BottomLeft,"angles\titles\15WOND.png",0,370 S,0,439605,,0.75 F,0,439605,439772,0,0.99 M,0,439605,449353,-8,370,0,370 F,0,446781,447375,0.99,0
Sprite,Foreground,BottomLeft,"angles\collab parts\15WOND-Leader.png",0,420 S,0,439605,,0.75 F,0,439605,439772,0,0.99 M,0,439605,449353,-8,420,0,420 F,0,446781,447375,0.99,0
//Storyboard Sound Samples

[TimingPoints]
80,333.333333333333,4,2,0,50,1,0
10746,-100,4,2,0,70,0,0
20746,-133.333333333333,4,2,0,70,0,0
21413,-100,4,2,0,70,0,0
69413,-133.333333333333,4,2,0,70,0,0
86746,-100,4,2,0,70,0,0
94746,-100,4,1,0,40,0,0
95413,-100,4,1,0,55,0,0
96079,-100,4,1,0,70,0,0
97413,-100,4,2,0,70,0,1
97413,-100,4,2,0,70,0,1
98746,-100,4,1,0,50,0,1
100079,-100,4,2,0,70,0,0
100079,-100,4,2,0,70,0,0
110079,-100,4,1,0,70,0,0
110746,-100,4,2,0,70,0,0
121413,-100,4,1,0,60,0,0
124913,-100,4,2,0,5,0,0
124913,-100,4,2,0,5,0,0
126079,431.654676258993,4,2,0,80,1,8
126942,436.363636363636,4,2,0,80,1,0
132178,428.571428571429,4,2,0,80,1,0
133892,387.096774193548,4,2,0,80,1,0
135440,-100,4,2,0,70,0,0
157117,387.096774193548,4,2,0,50,1,0
157231,550.45871559633,4,2,0,70,1,0
163836,-56.1797752808989,4,2,0,70,0,0
185854,-56.25,4,2,0,70,0,0
199060,550.711335474988,4,2,0,70,1,0
199060,-56.1797752808989,4,2,0,70,0,0
216682,550.711335474988,4,2,0,50,1,0
216693,540.05400540054,4,2,0,70,1,0
216693,-66.6666666666667,4,2,0,70,0,0
233949,540.05400540054,4,2,0,70,1,0
235029,-66.6666666666667,4,2,0,70,0,0
242588,540.540540540541,4,2,0,70,1,0
242588,-66.6666666666667,4,2,0,70,0,0
243398,-55.5555555555556,4,2,0,70,0,0
243669,-66.6666666666667,4,2,0,70,0,0
244479,-55.5555555555556,4,2,0,70,0,0
244750,-50,4,2,0,70,0,0
245020,-66.6666666666667,4,2,0,70,0,0
245290,-50,4,2,0,70,0,0
245831,-66.6666666666667,4,2,0,70,0,0
247723,-55.5555555555556,4,2,0,70,0,0
247993,-66.6666666666667,4,2,0,70,0,0
248804,-55.5555555555556,4,2,0,70,0,0
249074,-50,4,2,0,70,0,0
249615,-66.6666666666667,4,2,0,70,0,0
250155,-57.1428571428571,4,2,0,70,0,0
251236,-66.6666666666667,4,2,0,70,0,0
255020,-50,4,2,0,70,0,0
255560,-66.6666666666667,4,2,0,70,0,0
262588,-50,4,2,0,70,0,0
263669,-66.6666666666667,4,2,0,70,0,0
264209,-66.6666666666667,4,2,0,70,0,0
266371,540.540540540541,4,2,0,50,1,0
266375,342.857142857143,4,2,0,70,1,0
288317,-133.333333333333,4,2,0,70,0,0
288575,-133.333333333333,4,2,0,5,0,0
288660,-133.333333333333,4,2,0,70,0,0
288917,-133.333333333333,4,2,0,5,0,0
289003,-133.333333333333,4,2,0,70,0,0
289689,338.983050847458,4,2,0,70,1,0
311383,-100,4,2,0,70,0,0
316807,-83.3333333333333,4,2,0,70,0,0
317146,-100,4,2,0,70,0,0
317655,-83.3333333333333,4,2,0,70,0,0
318163,-100,4,2,0,70,0,0
319095,-83.3333333333333,4,2,0,70,0,0
319519,-100,4,2,0,70,0,0
322231,-83.3333333333333,4,2,0,70,0,0
324604,-100,4,2,0,70,0,0
324943,-83.3333333333333,4,2,0,70,0,0
326299,-100,4,2,0,70,0,0
333078,-83.3333333333333,4,1,0,70,0,0
333587,-133.333333333333,4,2,0,70,0,0
335790,-83.3333333333333,4,1,0,70,0,0
336299,-133.333333333333,4,2,0,70,0,0
338502,-83.3333333333333,4,1,0,70,0,0
339011,-133.333333333333,4,2,0,70,0,0
341214,-83.3333333333333,4,1,0,70,0,0
341892,-100,4,2,0,70,0,0
345282,335.195530726257,4,2,0,70,1,0
346874,-100,4,2,0,35,0,0
346957,-100,4,2,0,70,0,0
347209,-100,4,2,0,35,0,0
347293,-100,4,2,0,70,0,0
347544,-100,4,2,0,35,0,0
347628,-100,4,2,0,70,0,0
347879,-100,4,2,0,35,0,0
347963,-100,4,2,0,70,0,0
356008,-125,4,2,0,70,0,0
357684,-100,4,2,0,70,0,0
358019,-111.111111111111,4,2,0,70,0,0
358354,-125,4,2,0,70,0,0
366734,333.333333333333,4,2,0,70,1,0
393400,-80,4,2,0,70,0,1
404067,-100,4,2,0,70,0,0
414733,-100,4,2,0,70,0,0
439598,600,4,2,0,50,1,0
439598,-200,4,2,0,50,0,0
443198,612.244897959184,4,2,0,50,1,0
443198,-200,4,2,0,50,0,0
444422,594.059405940594,4,2,0,50,1,0
453926,582.52427184466,4,2,0,50,1,0
463246,576.923076923077,4,2,0,50,1,0
472621,-100,4,2,0,100,0,0
473053,-100,4,2,0,90,0,0
473630,-100,4,2,0,80,0,0
474207,-100,4,2,0,70,0,0
474784,-100,4,2,0,60,0,0
475361,-100,4,2,0,50,0,0
475938,-100,4,2,0,40,0,0
476515,-100,4,2,0,30,0,0
477092,-100,4,2,0,20,0,0
477669,-100,4,2,0,10,0,0
477813,-100,4,2,0,9,0,0
477957,-100,4,2,0,8,0,0
478101,-100,4,2,0,7,0,0
478246,-100,4,2,0,6,0,0
478390,-100,4,2,0,5,0,0

[Colours]
Combo1 : 190,253,149
Combo2 : 180,220,250
Combo3 : 250,175,198
Combo4 : 252,224,167

[HitObjects]
116,116,80,6,0,P|212:124|276:72,1,180,4|8,0:0|0:0,0:0:0:0:
404,24,579,2,0,L|388:116,1,90,2|0,0:0|0:0,0:0:0:0:
480,256,913,2,0,L|496:164,1,90,2|8,0:0|0:0,0:0:0:0:
380,304,1246,1,0,0:0:0:0:
300,228,1413,2,0,P|236:232|180:280,1,135,2|0,0:0|0:0,0:0:0:0:
164,296,1746,2,0,L|72:288,1,90,8|0,0:0|0:0,0:0:0:0:
364,288,2079,2,0,P|384:248|380:200,1,90,2|0,0:0|0:0,0:0:0:0:
352,112,2413,1,8,0:0:0:0:
352,112,2496,1,0,0:0:0:0:
352,112,2579,5,2,0:0:0:0:
448,140,2746,1,2,0:0:0:0:
424,56,2913,1,2,0:0:0:0:
252,96,3079,1,8,0:0:0:0:
310,32,3246,2,0,P|222:12|162:88,1,180,2|0,0:0|0:0,0:0:0:0:
144,168,3746,2,0,L|164:264,1,90,8|0,0:0|0:0,0:0:0:0:
28,204,4079,6,0,L|46:115,1,90,0|2,0:0|0:0,0:0:0:0:
112,24,4413,1,8,0:0:0:0:
189,99,4579,2,0,P|280:116|360:76,1,180,2|8,0:0|0:0,0:0:0:0:
404,188,5079,6,0,L|412:244,1,45,4|0,0:0|0:0,0:0:0:0:
348,296,5246,1,2,0:0:0:0:
348,296,5413,6,0,P|261:278|180:316,1,180,4|8,0:0|0:0,0:0:0:0:
92,364,5913,1,0,0:0:0:0:
216,207,6079,2,0,P|220:163|205:121,1,90,2|0,0:0|0:0,0:0:0:0:
47,184,6413,2,0,P|43:228|58:270,1,90,8|0,0:0|0:0,0:0:0:0:
176,320,6746,6,0,P|252:320|324:228,1,180,4|8,2:0|0:0,0:0:0:0:
216,208,7246,1,0,0:0:0:0:
380,324,7413,2,0,B|480:312,1,90,2|0,0:0|0:0,0:0:0:0:
504,220,7746,2,0,L|512:168,2,45,8|0|0,0:0|0:0|0:0,0:0:0:0:
256,192,8079,12,0,10079,0:0:0:0:
56,308,10246,6,0,L|68:364,1,45,4|0,2:0|0:0,0:0:0:0:
140,280,10413,2,0,P|144:232|124:176,1,90,4|0,2:0|0:0,0:0:0:0:
56,308,10746,6,0,L|236:300,1,180,4|8,0:0|0:0,0:0:0:0:
292,220,11246,1,0,0:0:0:0:
368,284,11413,2,0,P|389:244|389:200,1,90
216,160,11746,2,0,P|194:199|194:243,1,90,8|0,0:0|0:0,0:0:0:0:
400,300,12079,6,0,P|421:260|421:216,1,90
184,144,12413,2,0,P|162:183|162:227,1,90,8|0,0:0|0:0,0:0:0:0:
292,220,12746,2,0,B|328:120|272:120|304:40,1,180,0|8,0:0|0:0,0:0:0:0:
60,120,13246,5,0,0:0:0:0:
60,120,13329,1,0,0:0:0:0:
60,120,13413,2,0,P|56:164|76:212,1,90,4|0,0:0|0:0,0:0:0:0:
440,206,13746,2,0,P|455:164|452:120,1,90,8|0,0:0|0:0,0:0:0:0:
332,40,14079,1,0,0:0:0:0:
172,164,14246,1,0,0:0:0:0:
336,164,14413,1,8,0:0:0:0:
172,40,14579,1,0,0:0:0:0:
256,108,14746,6,0,L|256:200,1,90,4|0,2:0|0:0,0:0:0:0:
320,300,15079,1,2,0:0:0:0:
192,300,15246,1,0,0:0:0:0:
372,376,15413,2,0,P|412:296|372:220,1,180,2|4,0:0|0:0,0:0:0:0:
256,372,15913,1,2,0:0:0:0:
192,300,16079,6,0,L|96:288,1,90,4|0,0:0|0:0,0:0:0:0:
84,180,16413,2,0,L|180:192,1,90,8|0,0:0|0:0,0:0:0:0:
264,200,16746,2,0,P|256:156|224:120,1,90,0|2,0:0|0:0,0:0:0:0:
0,232,17079,2,0,P|8:276|40:312,1,90,8|0,0:0|0:0,0:0:0:0:
264,200,17413,5,2,0:0:0:0:
320,264,17579,1,2,0:0:0:0:
240,280,17746,1,8,0:0:0:0:
296,344,17913,1,0,0:0:0:0:
168,168,18079,2,0,P|232:108|320:120,1,180,0|8,0:0|0:0,0:0:0:0:
464,236,18579,2,0,L|452:292,1,45
404,336,18746,6,0,P|360:348|312:332,1,90,4|0,0:0|0:0,0:0:0:0:
144,248,19079,2,0,P|188:236|236:252,1,90,4|0,0:0|0:0,0:0:0:0:
128,336,19413,1,4,0:0:0:0:
56,288,19579,2,0,P|48:240|64:192,1,90,4|0,0:0|0:0,0:0:0:0:
120,144,19913,1,0,0:0:0:0:
144,248,20079,5,2,0:0:0:0:
12,136,20246,1,0,0:0:0:0:
192,76,20413,1,2,0:0:0:0:
121,145,20579,1,0,0:0:0:0:
192,76,20746,2,0,P|256:60|324:76,1,135.000005149842,2|0,0:0|0:0,0:0:0:0:
322,75,21413,5,4,1:2:0:0:
504,115,21579,1,2,0:0:0:0:
418,70,21746,1,8,0:2:0:0:
418,70,21829,2,0,B|406:114|406:114|420:168,1,90,2|0,0:0|0:0,0:0:0:0:
431,180,22079,1,2,0:0:0:0:
351,333,22246,1,0,0:0:0:0:
351,333,22329,2,0,B|363:289|363:289|349:235,1,90,2|2,0:0|0:0,0:0:0:0:
338,223,22579,1,2,0:0:0:0:
266,289,22746,5,4,1:2:0:0:
431,180,22913,1,2,0:0:0:0:
275,141,23079,2,0,L|221:133,2,45,8|2|0,0:2|0:0|0:0,0:0:0:0:
99,253,23413,2,0,B|90:208|90:208|98:154,1,90,2|0,0:0|0:0,0:0:0:0:
132,136,23663,2,0,B|87:145|87:145|33:137,1,90,2|0,0:0|0:0,0:0:0:0:
16,120,23913,1,2,0:0:0:0:
178,204,24079,5,4,1:2:0:0:
259,77,24246,2,0,P|306:71|353:78,1,90,2|8,0:0|0:2,0:0:0:0:
374,83,24496,2,0,P|373:48|379:28,1,45,2|0,0:0|0:0,0:0:0:0:
424,255,24746,2,0,L|272:281,1,135,2|2,0:0|0:0,0:0:0:0:
271,296,25079,1,0,0:0:0:0:
309,167,25246,1,2,0:0:0:0:
178,204,25413,5,4,1:2:0:0:
453,50,25579,2,0,P|457:101|425:152,1,90,2|8,0:0|0:0,0:0:0:0:
366,167,25829,2,0,P|319:144|291:91,1,90,2|2,0:0|0:0,0:0:0:0:
304,32,26079,2,0,P|346:3|406:5,1,90,0|2,0:0|0:0,0:0:0:0:
374,83,26329,1,2,0:0:0:0:
374,83,26413,1,8,0:0:0:0:
211,34,26579,1,2,0:0:0:0:
96,208,26746,6,0,L|-13:193,1,90,4|2,1:2|0:0,0:0:0:0:
121,357,27079,2,0,L|128:313,1,45,8|2,0:2|0:0,0:0:0:0:
207,148,27329,2,0,L|215:205,1,45,2|0,0:0|0:0,0:0:0:0:
230,341,27579,1,0,0:0:0:0:
230,341,27663,1,2,0:0:0:0:
230,341,27746,2,0,L|339:321,1,90,0|2,0:0|0:0,0:0:0:0:
413,237,28079,5,4,1:2:0:0:
445,362,28246,1,2,0:0:0:0:
321,244,28413,1,8,0:0:0:0:
321,244,28496,2,0,B|311:199|311:199|321:153,1,90,2|2,0:0|0:0,0:0:0:0:
332,124,28746,1,0,0:0:0:0:
219,41,28913,2,0,L|227:90,1,45,2|2,0:0|0:0,0:0:0:0:
140,260,29163,2,0,L|148:211,1,45,0|2,0:0|0:0,0:0:0:0:
19,121,29413,6,0,L|108:110,1,90,0|2,1:2|0:0,0:0:0:0:
291,88,29746,1,8,0:0:0:0:
291,88,29829,1,2,0:0:0:0:
104,273,29996,1,2,0:0:0:0:
104,273,30079,2,0,L|193:283,1,90,4|2,1:2|0:0,0:0:0:0:
302,351,30413,1,8,0:0:0:0:
373,248,30579,1,2,0:0:0:0:
261,186,30746,6,0,P|249:134|257:87,1,90,4|2,1:2|0:0,0:0:0:0:
429,56,31079,2,0,P|441:108|433:155,1,90,4|2,1:2|0:0,0:0:0:0:
374,248,31413,2,0,P|352:193|349:98,1,135,4|0,1:2|1:0,0:0:0:0:
346,117,31746,1,4,1:2:0:0:
296,304,31913,1,0,1:0:0:0:
469,248,32079,5,4,1:0:0:0:
126,130,32413,2,0,P|117:77|131:23,1,90,0|2,0:0|0:3,0:0:0:0:
212,78,32746,1,0,0:0:0:0:
56,198,32913,1,2,0:3:0:0:
170,215,33079,2,0,P|179:268|165:322,1,90,0|0,0:0|0:0,0:0:0:0:
40,318,33413,5,0,1:0:0:0:
347,85,33746,1,0,0:0:0:0:
347,85,33913,1,2,0:3:0:0:
436,94,34079,2,0,P|431:44|406:12,1,90,0|2,0:0|0:3,0:0:0:0:
258,73,34413,2,0,P|263:123|288:155,1,90
473,254,34746,5,0,1:0:0:0:
400,200,34913,1,2,0:2:0:0:
311,215,35079,1,0,0:0:0:0:
268,294,35246,1,2,0:2:0:0:
201,354,35413,1,0,0:0:0:0:
112,340,35579,1,2,0:2:0:0:
64,263,35746,2,0,L|58:211,2,45,2|0|0,0:0|0:2|0:0,0:0:0:0:
112,340,36079,5,0,1:0:0:0:
180,280,36246,1,2,0:2:0:0:
268,294,36413,1,0,0:0:0:0:
323,364,36579,1,2,0:2:0:0:
411,347,36746,1,0,0:0:0:0:
448,265,36913,1,2,0:2:0:0:
388,196,37079,2,0,L|369:100,1,90,2|0,1:2|1:0,0:0:0:0:
262,211,37413,6,0,P|175:226|101:178,1,180,0|0,1:0|0:0,0:0:0:0:
145,88,37913,1,2,0:3:0:0:
6,142,38079,2,0,P|1:191|19:237,1,90,8|2,1:2|0:3,0:0:0:0:
287,323,38413,2,0,L|310:137,1,180,8|0,1:2|1:0,0:0:0:0:
400,78,38913,5,0,0:0:0:0:
412,180,39079,1,0,0:0:0:0:
291,57,39246,1,2,0:3:0:0:
471,13,39413,2,0,P|494:63|488:114,1,90,8|2,1:2|0:3,0:0:0:0:
287,323,39746,2,0,B|269:253|269:253|241:230|241:230|222:144,1,180,8|0,1:2|1:0,0:0:0:0:
116,168,40246,5,0,0:0:0:0:
116,168,40329,1,0,0:0:0:0:
116,168,40413,2,0,L|59:162,2,45,0|0|2,0:0|0:0|0:3,0:0:0:0:
79,264,40746,1,0,0:0:0:0:
102,68,40913,1,2,0:3:0:0:
212,141,41079,2,0,B|217:186|217:186|200:229,1,90
194,339,41413,5,0,1:0:0:0:
278,288,41579,1,0,0:0:0:0:
307,277,41663,1,0,0:0:0:0:
338,277,41746,1,0,0:0:0:0:
366,289,41829,1,0,0:0:0:0:
385,313,41913,1,2,0:3:0:0:
484,327,42079,5,0,0:0:0:0:
376,174,42246,1,2,0:3:0:0:
500,201,42413,1,0,1:0:0:0:
321,367,42579,1,0,1:0:0:0:
195,249,42746,6,0,P|188:205|175:154,1,90,0|0,1:0|0:0,0:0:0:0:
101,224,43079,1,0,0:0:0:0:
287,209,43246,1,2,0:3:0:0:
276,41,43413,2,0,P|265:84|258:129,1,90,0|2,0:0|0:3,0:0:0:0:
258,129,43746,1,0,0:0:0:0:
238,307,44079,6,0,L|128:319,1,90,0|0,1:0|0:0,0:0:0:0:
316,242,44413,1,0,0:0:0:0:
330,341,44579,1,2,0:3:0:0:
405,279,44746,2,0,L|502:290,1,90,0|2,0:0|0:3,0:0:0:0:
494,289,45079,1,0,0:0:0:0:
152,85,45413,5,0,1:0:0:0:
136,188,45579,1,0,0:0:0:0:
229,146,45746,2,0,P|276:125|331:121,1,90,0|2,0:0|0:3,0:0:0:0:
394,179,46079,2,0,P|361:146|319:16,1,180
266,366,46746,6,0,L|372:341,1,90,0|0,1:0|0:0,0:0:0:0:
198,275,47079,2,0,L|248:188,1,90,0|2,0:0|0:3,0:0:0:0:
84,263,47413,2,0,L|57:67,1,180,2|0,1:2|1:0,0:0:0:0:
167,34,47913,1,0,1:0:0:0:
243,198,48079,5,4,1:0:0:0:
256,192,48163,12,0,49079,0:0:0:0:
425,169,49413,5,4,1:0:0:0:
276,108,49579,1,2,0:0:0:0:
385,62,49746,1,0,0:0:0:0:
317,214,49913,1,2,0:0:0:0:
178,137,50079,2,0,L|121:117,1,45
128,197,50246,2,0,L|72:210,1,45,2|0,0:0|0:0,0:0:0:0:
116,280,50413,2,0,L|83:323,2,45,0|2|0,0:0|0:0|0:0,0:0:0:0:
320,293,50746,6,0,L|346:390,1,90,0|0,1:0|1:0,0:0:0:0:
192,293,51079,2,0,L|166:390,1,90,0|0,1:0|1:0,0:0:0:0:
256,100,51413,2,0,L|256:64,6,22.5,0|0|0|0|0|0|0,0:0|0:0|0:0|0:0|0:0|0:0|1:0,0:0:0:0:
256,116,51746,1,0,1:0:0:0:
256,133,51829,1,0,1:0:0:0:
256,151,51913,1,0,1:0:0:0:
256,168,51996,1,0,1:0:0:0:
256,185,52079,6,0,L|257:253,2,45,4|0|0,0:3|0:0|0:0,0:0:0:0:
92,328,53413,5,6,1:2:0:0:
232,300,53579,1,0,0:0:0:0:
232,300,53746,6,0,L|300:316,1,45,8|0,0:0|0:0,0:0:0:0:
352,328,53913,1,0,0:0:0:0:
380,334,53996,1,0,0:0:0:0:
405,339,54079,2,0,P|453:287|449:255,1,90,2|0,0:0|0:0,0:0:0:0:
432,200,54329,2,0,B|416:136|416:136|432:92,1,90,2|2,0:0|0:0,0:0:0:0:
464,48,54579,6,0,P|432:36|388:48,1,45
356,76,54746,1,2,0:0:0:0:
176,36,54913,1,0,0:0:0:0:
32,188,55079,5,8,0:0:0:0:
60,176,55163,1,0,0:0:0:0:
88,164,55246,1,2,0:1:0:0:
232,300,55413,1,2,0:1:0:0:
64,340,55579,5,0,0:0:0:0:
228,160,55746,1,8,0:0:0:0:
356,312,55913,2,0,L|416:332,1,45
420,333,56079,1,2,0:0:0:0:
440,340,56163,1,0,0:0:0:0:
461,346,56246,5,0,0:0:0:0:
464,192,56413,1,8,0:0:0:0:
336,356,56579,1,0,0:0:0:0:
328,204,56746,1,2,0:0:0:0:
200,336,56913,1,0,0:0:0:0:
192,184,57079,1,8,0:0:0:0:
64,340,57246,2,0,L|60:280,1,45
56,220,57413,6,0,B|32:168|32:168|40:116,1,90,2|0,0:0|0:0,0:0:0:0:
68,24,57746,1,8,0:0:0:0:
176,40,57913,1,0,0:0:0:0:
208,44,57996,1,0,0:0:0:0:
240,48,58079,2,0,L|344:36,1,90,2|0,0:0|0:0,0:0:0:0:
436,16,58413,1,8,0:0:0:0:
364,156,58579,1,0,0:0:0:0:
480,300,58746,5,2,0:0:0:0:
480,300,58913,1,0,0:0:0:0:
376,352,59079,1,8,0:0:0:0:
344,360,59163,1,0,0:0:0:0:
312,360,59246,1,0,0:0:0:0:
280,352,59329,1,0,0:0:0:0:
252,336,59413,2,0,P|232:284|248:240,1,90,2|0,0:0|0:0,0:0:0:0:
252,224,59663,2,0,L|216:116,1,90,2|2,0:0|0:0,0:0:0:0:
196,64,59913,1,0,0:0:0:0:
196,64,59996,1,0,0:0:0:0:
196,64,60079,5,2,0:0:0:0:
32,148,60246,1,0,0:0:0:0:
108,248,60413,6,0,L|96:312,1,45,8|0,0:0|0:0,0:0:0:0:
168,332,60579,2,0,L|156:396,1,45
252,336,60746,2,0,P|312:364|368:352,1,90,2|0,0:0|0:0,0:0:0:0:
408,320,60996,1,0,0:0:0:0:
408,320,61079,2,0,L|420:268,1,45,8|0,0:0|0:0,0:0:0:0:
432,196,61246,1,0,0:0:0:0:
336,108,61413,1,2,0:0:0:0:
136,144,61579,5,2,0:1:0:0:
136,144,61913,1,2,0:1:0:0:
208,224,62079,6,0,L|260:232,1,45,2|0,0:0|0:0,0:0:0:0:
144,272,62246,2,0,L|99:265,1,45,2|0,0:0|0:0,0:0:0:0:
224,320,62413,2,0,L|276:328,1,45,10|0,0:0|0:0,0:0:0:0:
116,368,62579,2,0,L|71:361,1,45,2|0,0:0|0:0,0:0:0:0:
16,304,62746,5,2,0:0:0:0:
16,304,62829,1,0,0:0:0:0:
336,108,63079,5,8,0:0:0:0:
344,200,63246,1,2,0:0:0:0:
436,192,63413,1,2,0:0:0:0:
428,100,63579,1,8,0:0:0:0:
344,200,63746,1,2,0:0:0:0:
152,64,64079,5,4,1:0:0:0:
116,180,69413,5,2,0:0:0:0:
128,288,69579,1,0,0:0:0:0:
240,278,69746,1,2,0:0:0:0:
228,170,69913,1,0,0:0:0:0:
92,188,70079,5,2,0:0:0:0:
135,310,70246,1,0,0:0:0:0:
262,269,70413,1,2,0:0:0:0:
220,147,70579,1,0,0:0:0:0:
64,200,70746,6,0,P|16:200|-8:184,1,67.5000025749208,2|0,0:0|0:0,0:0:0:0:
212,124,71079,2,0,P|260:124|284:140,1,67.5000025749208,2|0,0:0|0:0,0:0:0:0:
344,176,71413,1,2,0:0:0:0:
424,184,71579,1,0,0:0:0:0:
476,124,71746,1,2,0:0:0:0:
464,44,71913,1,0,0:0:0:0:
388,24,72079,6,0,L|236:48,1,135.000005149842,2|2,0:0|0:0,0:0:0:0:
176,56,72579,1,0,0:0:0:0:
60,332,72746,2,0,L|212:356,1,135.000005149842,2|2,0:0|0:0,0:0:0:0:
276,364,73246,1,0,0:0:0:0:
370,312,73413,5,2,0:0:0:0:
401,207,73579,1,0,0:0:0:0:
349,113,73746,1,2,0:0:0:0:
246,82,73913,1,0,0:0:0:0:
151,133,74079,1,2,0:0:0:0:
120,238,74246,1,0,0:0:0:0:
120,238,74329,1,0,0:0:0:0:
120,238,74413,1,6,0:0:0:0:
172,332,74579,1,0,0:0:0:0:
370,312,74746,6,0,L|456:300,1,67.5000025749208,2|0,0:0|0:0,0:0:0:0:
312,240,75079,2,0,L|245:249,1,67.5000025749208,2|0,0:0|0:0,0:0:0:0:
348,112,75413,2,0,L|434:100,1,67.5000025749208,2|0,0:0|0:0,0:0:0:0:
290,40,75746,2,0,L|223:49,1,67.5000025749208,2|0,0:0|0:0,0:0:0:0:
196,52,75996,1,0,0:0:0:0:
168,55,76079,5,2,0:0:0:0:
52,96,76246,1,0,0:0:0:0:
121,238,76413,2,0,L|212:228,1,67.5000025749208,2|0,0:0|0:0,0:0:0:0:
218,227,76663,1,0,0:0:0:0:
244,224,76746,5,2,0:0:0:0:
356,276,76913,1,0,0:0:0:0:
380,280,76996,1,0,0:0:0:0:
412,284,77079,2,0,L|456:272,2,33.7500012874604,2|0|0,0:0|0:0|0:0,0:0:0:0:
256,344,77413,5,2,0:0:0:0:
256,128,77579,1,2,0:1:0:0:
256,128,77913,1,2,0:1:0:0:
172,80,78079,6,0,L|136:64,1,33.7500012874604,2|0,0:1|0:0,0:0:0:0:
340,80,78246,2,0,L|376:64,1,33.7500012874604,2|0,0:1|0:0,0:0:0:0:
256,344,78579,2,0,L|256:280,1,33.7500012874604,2|0,0:1|0:0,0:0:0:0:
200,256,78746,5,2,0:0:0:0:
312,256,78913,1,0,0:0:0:0:
168,256,79079,1,2,0:0:0:0:
343,256,79246,1,0,0:0:0:0:
170,176,79413,5,2,0:0:0:0:
341,176,79579,1,0,0:0:0:0:
121,176,79746,1,2,0:0:0:0:
389,176,79913,1,0,0:0:0:0:
256,33,80079,5,2,0:0:0:0:
256,33,80246,1,2,0:1:0:0:
143,79,80413,1,2,0:1:0:0:
143,79,80579,1,0,0:0:0:0:
97,192,80746,1,2,0:1:0:0:
97,192,80913,1,0,0:0:0:0:
143,304,81079,1,2,0:1:0:0:
143,304,81246,1,0,0:0:0:0:
256,350,81413,5,2,0:0:0:0:
256,350,81579,1,2,0:1:0:0:
368,304,81746,1,2,0:1:0:0:
368,304,81913,1,0,0:0:0:0:
414,191,82079,1,2,0:1:0:0:
414,191,82246,1,0,0:0:0:0:
368,79,82413,1,2,0:1:0:0:
368,79,82579,1,0,0:0:0:0:
256,28,82746,5,8,0:3:0:0:
228,40,82829,1,8,0:3:0:0:
200,52,82913,1,8,0:3:0:0:
172,64,82996,1,8,0:3:0:0:
144,76,83079,1,8,0:3:0:0:
132,104,83163,1,8,0:3:0:0:
120,132,83246,1,8,0:3:0:0:
109,160,83329,1,8,0:3:0:0:
97,188,83413,5,8,0:3:0:0:
106,216,83496,1,8,0:3:0:0:
117,244,83579,1,8,0:3:0:0:
129,272,83663,1,8,0:3:0:0:
141,300,83746,1,8,0:3:0:0:
166,314,83829,1,8,0:3:0:0:
195,325,83913,1,8,0:3:0:0:
223,336,83996,1,8,0:3:0:0:
255,344,84079,6,0,L|347:316,1,67.5000025749208,6|0,0:0|0:0,0:0:0:0:
404,332,84329,1,0,0:0:0:0:
424,312,84413,2,0,P|440:280|432:224,1,67.5000025749208,0|0,1:0|0:0,0:0:0:0:
408,168,84663,1,0,0:0:0:0:
384,148,84746,2,0,L|300:172,1,67.5000025749208,2|0,0:0|0:0,0:0:0:0:
240,192,84996,1,0,0:0:0:0:
240,192,85079,5,0,1:0:0:0:
200,180,85163,1,0,1:0:0:0:
156,184,85246,1,0,1:0:0:0:
112,172,85329,1,0,1:0:0:0:
68,172,85413,5,0,1:0:0:0:
62,175,85579,1,2,0:1:0:0:
56,178,85746,1,2,0:1:0:0:
50,181,85913,1,2,0:1:0:0:
44,184,86079,1,0,0:0:0:0:
64,44,86746,6,0,L|128:60,3,45,4|0|2|0,0:0|0:0|0:0|0:0,0:0:0:0:
188,88,87079,2,0,L|256:72,3,45,2|0|0|0,0:0|0:0|0:0|0:0,0:0:0:0:
140,168,87413,2,0,L|136:224,3,45,0|0|2|0,0:0|0:0|0:0|0:0,0:0:0:0:
196,276,87746,2,0,L|200:332,3,45,2|0|0|0,0:0|0:0|0:0|0:0,0:0:0:0:
284,348,88079,5,0,0:0:0:0:
305,346,88163,1,0,0:0:0:0:
326,345,88246,1,2,0:0:0:0:
347,343,88329,1,0,0:0:0:0:
368,342,88413,1,2,0:0:0:0:
389,340,88496,1,0,0:0:0:0:
411,339,88579,1,2,0:0:0:0:
432,337,88663,1,0,0:0:0:0:
453,336,88746,5,2,0:0:0:0:
476,307,88829,1,0,0:0:0:0:
489,272,88913,1,2,0:0:0:0:
491,235,88996,1,0,0:0:0:0:
481,199,89079,1,2,0:0:0:0:
461,168,89163,1,0,0:0:0:0:
433,145,89246,1,0,0:0:0:0:
398,131,89329,1,0,0:0:0:0:
361,129,89413,6,0,L|300:144,3,45,0|0|2|0,0:0|0:0|0:0|0:0,0:0:0:0:
252,88,89746,2,0,L|200:80,3,45,2|0|0|0,0:0|0:0|0:0|0:0,0:0:0:0:
148,140,90079,2,0,L|156:196,3,45,0|0|2|0,0:0|0:0|0:0|0:0,0:0:0:0:
212,248,90413,2,0,L|204:304,3,45,2|0|0|0,0:0|0:0|0:0|0:0,0:0:0:0:
140,344,90746,5,0,0:0:0:0:
119,349,90829,1,0,0:0:0:0:
98,349,90913,1,2,0:0:0:0:
78,343,90996,1,0,0:0:0:0:
60,331,91079,1,2,0:0:0:0:
46,315,91163,1,0,0:0:0:0:
37,296,91246,1,2,0:0:0:0:
33,275,91329,1,0,0:0:0:0:
36,254,91413,5,2,0:0:0:0:
62,249,91496,1,0,0:0:0:0:
88,243,91579,1,2,0:0:0:0:
114,238,91663,1,0,0:0:0:0:
140,233,91746,1,2,0:0:0:0:
166,227,91829,1,0,0:0:0:0:
192,222,91913,1,0,0:0:0:0:
218,217,91996,1,0,0:0:0:0:
244,211,92079,5,2,0:0:0:0:
352,244,92246,1,2,0:0:0:0:
436,133,92413,1,2,0:0:0:0:
328,100,92579,1,0,0:0:0:0:
352,244,92746,5,0,0:0:0:0:
368,352,92913,1,2,0:0:0:0:
512,380,93079,1,2,0:0:0:0:
496,272,93246,1,0,0:0:0:0:
436,133,93413,5,0,0:0:0:0:
328,100,93579,1,2,0:0:0:0:
158,161,93746,2,0,P|197:177|248:172,1,90,2|2,0:0|0:0,0:0:0:0:
180,64,94079,2,0,P|137:62|88:84,1,90,2|2,0:0|0:0,0:0:0:0:
24,208,94413,1,2,0:0:0:0:
128,312,94579,1,0,0:0:0:0:
272,276,94746,6,0,L|208:288,1,45,0|0,1:0|1:0,1:0:0:0:
300,288,94913,2,0,L|236:300,1,45,0|0,1:0|1:0,1:0:0:0:
328,300,95079,2,0,L|264:308,1,45,0|0,1:0|1:0,1:0:0:0:
352,312,95246,2,0,L|292:324,1,45,0|0,1:0|1:0,1:0:0:0:
332,184,95413,6,0,L|396:172,1,45,0|0,1:0|1:0,1:0:0:0:
304,172,95579,2,0,L|368:160,1,45,0|0,1:0|1:0,1:0:0:0:
276,160,95746,2,0,L|340:152,1,45,0|0,1:0|1:0,1:0:0:0:
252,148,95913,2,0,L|312:136,1,45,0|0,1:0|1:0,1:0:0:0:
192,68,96079,6,0,L|232:60,11,22.5,4|0|0|0|0|0|0|0|0|0|0|0,0:0|0:0|0:0|0:0|0:0|0:0|0:0|0:0|0:0|0:0|0:0|0:0,1:0:0:0:
120,84,96579,2,0,L|84:76,11,22.5,4|0|0|0|0|0|0|0|0|0|0|0,0:0|0:0|0:0|0:0|0:0|0:0|0:0|0:0|0:0|0:0|0:0|0:0,1:0:0:0:
172,140,97079,1,0,1:0:0:0:
172,140,97413,5,2,0:0:0:0:
152,176,97496,1,2,0:0:0:0:
132,208,97579,1,2,0:0:0:0:
112,240,97663,1,2,0:0:0:0:
92,272,97746,2,0,L|28:264,1,45,2|0,0:0|0:0,0:0:0:0:
112,364,97913,2,0,L|52:356,1,45,2|2,0:0|0:0,0:0:0:0:
180,300,98079,5,2,0:0:0:0:
216,312,98163,1,2,0:0:0:0:
252,324,98246,1,2,0:0:0:0:
288,336,98329,1,2,0:0:0:0:
324,348,98413,2,0,L|392:340,1,45,2|0,0:0|0:0,0:0:0:0:
344,256,98579,2,0,L|408:248,1,45,2|2,0:0|0:0,0:0:0:0:
464,184,98746,5,0,0:0:0:0:
428,168,98829,1,0,0:0:0:0:
392,152,98913,1,0,0:0:0:0:
356,136,98996,1,0,0:0:0:0:
320,124,99079,2,0,L|328:64,1,45,0|0,0:0|0:0,0:0:0:0:
232,136,99246,2,0,L|240:76,1,45
140,156,99413,1,4,0:2:0:0:
140,156,99496,2,0,P|88:156|40:124,2,90,4|4|4,0:2|0:2|0:2,0:0:0:0:
140,156,100079,6,0,L|128:256,1,90,0|0,1:0|0:0,0:0:0:0:
264,324,100413,2,0,L|276:224,1,90,0|0,1:0|0:0,0:0:0:0:
224,88,100746,1,2,1:2:0:0:
228,112,100829,1,2,0:2:0:0:
232,136,100913,1,2,0:2:0:0:
264,324,101079,1,0,1:0:0:0:
275,234,101246,1,2,0:0:0:0:
456,272,101413,6,0,P|408:288|360:284,1,90,0|0,1:0|0:0,0:0:0:0:
232,136,101746,2,0,P|282:129|328:144,1,90,0|0,1:0|0:0,0:0:0:0:
176,212,102079,1,2,1:2:0:0:
152,204,102163,1,2,0:2:0:0:
128,196,102246,1,2,0:2:0:0:
164,308,102413,1,0,1:0:0:0:
276,236,102579,1,2,0:0:0:0:
364,332,102746,6,0,L|464:328,1,90,0|0,1:0|0:0,0:0:0:0:
323,140,103079,2,0,L|219:136,1,90,0|0,1:0|0:0,0:0:0:0:
380,232,103413,1,2,1:2:0:0:
404,228,103496,1,2,0:2:0:0:
428,224,103579,1,2,0:2:0:0:
364,332,103746,1,0,1:0:0:0:
324,140,103913,1,2,0:0:0:0:
208,292,104079,6,0,P|164:300|112:288,1,90,0|0,1:0|0:0,0:0:0:0:
68,156,104413,2,0,P|116:148|168:168,1,90,0|0,1:0|0:0,0:0:0:0:
208,292,104746,1,2,1:2:0:0:
212,316,104829,1,2,0:2:0:0:
216,340,104913,1,2,0:2:0:0:
256,208,105079,1,0,1:0:0:0:
136,376,105246,1,2,1:2:0:0:
401,306,105413,6,0,L|308:296,1,90,0|0,1:0|0:0,0:0:0:0:
368,160,105746,2,0,L|460:152,1,90,0|0,1:0|0:0,0:0:0:0:
401,306,106079,1,2,1:2:0:0:
396,332,106163,1,2,0:2:0:0:
392,356,106246,1,2,0:2:0:0:
488,240,106413,1,0,1:0:0:0:
368,160,106579,1,2,0:0:0:0:
488,92,106746,6,0,P|464:56|412:32,1,90,0|0,1:0|0:0,0:0:0:0:
276,152,107079,2,0,L|372:160,1,90,0|0,1:0|0:0,0:0:0:0:
232,68,107413,1,2,1:2:0:0:
232,68,107496,1,2,0:2:0:0:
232,68,107579,1,2,0:2:0:0:
308,236,107746,1,0,1:0:0:0:
408,84,107913,1,2,0:0:0:0:
276,152,108079,6,0,P|228:156|180:136,1,90,0|0,1:0|0:0,0:0:0:0:
32,196,108413,2,0,P|80:192|128:216,1,90,0|0,1:0|0:0,0:0:0:0:
68,336,108746,1,2,1:2:0:0:
64,312,108829,1,2,0:2:0:0:
60,288,108913,1,2,0:2:0:0:
60,108,109079,1,0,1:0:0:0:
32,196,109246,1,2,0:0:0:0:
148,84,109413,5,4,0:0:0:0:
148,84,109579,2,0,B|216:72|216:72|268:88|268:88|336:76,1,180,4|4,0:0|0:0,0:0:0:0:
412,160,110079,2,0,L|452:152,6,22.5
344,216,110413,2,0,L|336:276,1,45
256,296,110579,2,0,L|260:352,1,45
172,256,110746,5,0,1:0:0:0:
60,352,110913,1,0,0:0:0:0:
16,212,111079,1,0,1:0:0:0:
22,176,111163,1,0,0:0:0:0:
40,144,111246,1,0,0:0:0:0:
67,120,111329,1,0,0:0:0:0:
101,106,111413,2,0,L|164:108,3,45,2|2|2|0,1:2|0:0|0:0|0:0,0:0:0:0:
220,140,111746,2,0,B|268:140|268:140|308:124|308:124|368:124,1,135,2|0,1:0|0:0,0:0:0:0:
428,180,112079,6,0,P|448:140|436:76,1,90,0|0,1:0|0:0,0:0:0:0:
344,216,112413,1,0,1:0:0:0:
352,252,112496,1,0,0:0:0:0:
360,288,112579,1,0,0:0:0:0:
368,324,112663,1,0,0:0:0:0:
376,360,112746,2,0,L|320:352,3,45,2|2|2|0,1:2|0:0|0:0|0:0,0:0:0:0:
248,356,113079,2,0,B|208:360|192:328|192:328|164:352|120:336,1,135,2|0,1:0|0:0,0:0:0:0:
41,296,113413,6,0,P|76:263|120:256,1,90,0|0,1:0|0:0,0:0:0:0:
248,356,113746,1,0,1:0:0:0:
288,352,113829,1,0,0:0:0:0:
328,348,113913,1,0,0:0:0:0:
368,344,113996,1,0,0:0:0:0:
408,340,114079,2,0,L|456:368,4,45,2|2|2|0|2,1:2|0:0|0:0|0:0|1:2,0:0:0:0:
372,236,114579,5,4,0:0:0:0:
364,216,114913,1,4,0:0:0:0:
356,196,115246,1,4,0:0:0:0:
272,112,115413,6,0,L|216:104,3,45,4|0|0|0,0:0|0:0|0:0|0:0,0:0:0:0:
152,140,115746,2,0,L|96:148,3,45,2|2|2|2,0:0|0:0|0:0|0:0,0:0:0:0:
216,200,116079,6,0,P|216:248|192:296,1,90,4|0,1:2|0:0,0:0:0:0:
72,328,116413,2,0,P|72:280|96:232,1,90,0|0,1:0|0:0,0:0:0:0:
216,200,116746,1,2,1:2:0:0:
256,204,116829,1,2,0:2:0:0:
296,208,116913,1,2,0:2:0:0:
336,212,116996,1,0,0:0:0:0:
376,216,117079,2,0,P|424:208|468:176,1,90,2|0,1:0|0:0,0:0:0:0:
400,24,117413,6,0,L|388:116,1,90,4|0,1:2|0:0,0:0:0:0:
454,278,117746,2,0,L|460:184,1,90,0|0,1:0|0:0,0:0:0:0:
371,335,118079,1,2,1:2:0:0:
331,339,118163,1,2,0:2:0:0:
291,343,118246,1,2,0:2:0:0:
251,347,118329,1,0,0:0:0:0:
211,351,118413,1,2,1:0:0:0:
64,279,118579,1,0,1:0:0:0:
139,132,118746,5,4,1:2:0:0:
236,148,118913,1,0,1:0:0:0:
368,232,119079,5,0,1:0:0:0:
252,252,119246,1,0,1:0:0:0:
432,144,119413,5,4,1:2:0:0:
324,316,119579,2,0,L|332:352,4,22.5,0|0|0|0|0,0:0|0:0|0:0|0:0|1:0,0:0:0:0:
236,148,119913,2,0,L|244:112,4,22.5,0|0|0|0|0,0:0|0:0|0:0|0:0|1:0,0:0:0:0:
228,160,120413,5,0,0:0:0:0:
196,180,120496,1,0,0:0:0:0:
156,188,120579,1,0,0:0:0:0:
116,184,120663,1,0,0:0:0:0:
84,160,120746,6,0,L|76:112,1,45,2|0,0:0|0:0,0:0:0:0:
40,236,120913,2,0,L|32:284,1,45,2|0,0:0|0:0,0:0:0:0:
92,348,121079,1,2,0:0:0:0:
132,340,121163,1,0,0:0:0:0:
172,332,121246,1,0,0:0:0:0:
212,324,121329,1,0,0:0:0:0:
252,316,121413,6,0,L|288:320,10,22.5
316,236,121913,2,2,L|288:236,10,22.5,2|2|2|2|2|2|2|2|2|2|0,0:0|0:0|0:0|0:0|0:0|0:0|0:0|0:0|0:0|0:0|0:0,0:0:0:0:
360,160,122413,1,0,0:0:0:0:
360,160,122746,1,4,0:2:0:0:
256,192,122829,12,0,124913,0:0:0:0:
56,133,126079,5,0,0:0:0:0:
96,213,126510,1,0,0:0:0:0:
136,293,126942,6,0,P|199:340|288:306,1,180,6|0,0:0|0:0,0:0:0:0:
296,213,127596,1,0,0:0:0:0:
240,143,127814,2,0,P|209:193|215:252,2,120,2|2|2,0:0|0:0|0:0,0:0:0:0:
352,97,128687,2,0,L|181:38,1,180,6|0,0:0|0:0,0:0:0:0:
92,29,129342,1,0,0:0:0:0:
47,109,129560,2,0,P|56:167|95:212,2,120,2|2|2,0:0|0:0|0:0,0:0:0:0:
168,113,130432,6,0,P|223:134|281:123,1,120,6|2,0:0|0:0,0:0:0:0:
412,312,131014,2,0,P|402:253|363:208,1,120,2|2,0:0|0:0,0:0:0:0:
462,0,131596,2,0,P|416:38|397:94,1,120,2|2,0:0|0:0,0:0:0:0:
168,113,132178,2,0,P|223:134|281:123,1,90,6|0,0:0|0:0,0:0:0:0:
412,312,132606,2,0,P|402:253|363:208,1,90,2|0,0:0|0:0,0:0:0:0:
462,0,133035,2,0,P|416:38|397:94,1,90,2|0,0:0|0:0,0:0:0:0:
168,113,133463,2,0,P|223:134|281:123,1,90,2|0,0:0|0:0,0:0:0:0:
472,29,133892,5,4,0:1:0:0:
462,0,133988,1,0,0:0:0:0:
328,81,134182,1,0,0:0:0:0:
337,52,134279,1,0,0:0:0:0:
472,133,134472,1,4,0:1:0:0:
463,104,134569,1,0,0:0:0:0:
328,185,134762,1,0,0:0:0:0:
337,156,134859,1,0,0:0:0:0:
472,237,135053,5,4,0:1:0:0:
463,208,135150,1,0,0:0:0:0:
472,133,135246,5,4,0:1:0:0:
463,104,135343,1,0,0:0:0:0:
472,29,135440,6,0,P|409:58|355:45,1,90,4|0,0:0|0:0,0:0:0:0:
350,46,135730,1,0,0:0:0:0:
315,24,135827,1,0,0:0:0:0:
310,61,135924,1,0,0:0:0:0:
305,98,136021,1,0,0:0:0:0:
300,135,136117,1,0,0:0:0:0:
296,172,136214,6,0,L|231:181,1,45,2|0,0:0|0:0,0:0:0:0:
358,241,136408,2,0,L|423:249,1,45,2|2,0:0|0:0,0:0:0:0:
275,281,136601,2,0,L|209:289,1,45,2|0,0:0|0:0,0:0:0:0:
336,349,136795,1,2,0:0:0:0:
228,216,136988,6,0,P|181:201|133:217,1,90,2|0,0:0|0:0,0:0:0:0:
113,240,137279,1,0,0:0:0:0:
101,279,137375,1,0,0:0:0:0:
82,246,137472,1,0,0:0:0:0:
63,214,137569,1,0,0:0:0:0:
44,182,137666,1,0,0:0:0:0:
25,149,137762,5,2,0:0:0:0:
25,149,137859,2,0,P|16:104|40:52,1,90,2|0,0:0|0:0,0:0:0:0:
65,36,138150,1,2,0:3:0:0:
110,34,138246,1,2,0:3:0:0:
148,56,138343,1,2,0:3:0:0:
186,79,138440,1,2,0:3:0:0:
230,76,138537,5,2,0:0:0:0:
248,64,138633,2,0,L|328:104,1,90,2|2,0:0|0:0,0:0:0:0:
347,92,138924,1,0,0:0:0:0:
456,208,139117,1,2,0:0:0:0:
438,196,139214,2,0,L|358:236,1,90,0|2,0:0|0:0,0:0:0:0:
339,224,139504,1,0,0:0:0:0:
158,296,139698,1,2,0:0:0:0:
176,284,139795,1,0,0:0:0:0:
216,304,139892,1,2,0:0:0:0:
256,324,139988,1,0,0:0:0:0:
275,312,140085,5,2,0:0:0:0:
293,299,140182,2,0,P|336:288|392:308,1,90,0|2,0:0|0:0,0:0:0:0:
400,308,140472,1,0,0:0:0:0:
496,168,140666,1,2,0:0:0:0:
478,181,140762,2,0,P|435:192|379:172,1,90,0|2,0:0|0:0,0:0:0:0:
371,172,141053,1,0,0:0:0:0:
226,85,141246,1,2,0:0:0:0:
244,72,141343,1,0,0:0:0:0:
287,61,141440,1,2,0:0:0:0:
330,72,141537,1,0,0:0:0:0:
351,81,141633,5,2,0:0:0:0:
372,90,141730,2,0,B|413:108|413:108|454:90,1,90,0|2,0:0|0:0,0:0:0:0:
475,81,142021,1,0,0:0:0:0:
368,212,142214,1,2,0:0:0:0:
347,203,142311,2,0,B|306:185|306:185|265:203,1,90,0|2,0:0|0:0,0:0:0:0:
244,212,142601,1,0,0:0:0:0:
203,232,142698,1,0,0:0:0:0:
158,227,142795,2,0,P|127:221|107:224,1,45,2|0,0:0|0:0,0:0:0:0:
74,144,142988,2,0,P|105:150|125:147,1,45,2|0,0:0|0:0,0:0:0:0:
172,80,143182,6,0,P|141:74|121:77,1,45,2|0,0:0|0:0,0:0:0:0:
352,64,143472,2,0,P|372:40|380:21,1,45,2|0,0:0|0:0,0:0:0:0:
275,227,143762,2,0,P|285:256|297:272,1,45,2|0,0:0|0:0,0:0:0:0:
266,123,144053,1,2,0:0:0:0:
266,123,144150,1,0,0:0:0:0:
296,137,144246,1,0,0:0:0:0:
326,152,144343,2,0,L|351:205,1,45,2|0,0:0|0:0,0:0:0:0:
412,132,144537,2,0,L|436:184,1,45,2|0,0:0|0:0,0:0:0:0:
497,111,144730,5,2,0:0:0:0:
484,80,144827,1,0,0:0:0:0:
327,152,145021,1,2,0:0:0:0:
340,183,145117,1,0,0:0:0:0:
481,284,145311,1,2,0:0:0:0:
468,253,145408,1,0,0:0:0:0:
311,325,145601,1,2,0:0:0:0:
324,356,145698,1,0,0:0:0:0:
340,183,145892,1,2,0:0:0:0:
327,152,145988,1,0,0:0:0:0:
300,131,146085,1,2,0:0:0:0:
266,126,146182,1,0,0:0:0:0:
234,139,146279,5,2,0:0:0:0:
202,152,146375,1,0,0:0:0:0:
372,170,146569,1,2,0:0:0:0:
340,183,146666,1,0,0:0:0:0:
219,51,146859,1,0,0:0:0:0:
251,38,146956,1,2,0:0:0:0:
389,69,147150,1,2,0:0:0:0:
357,82,147246,1,0,0:0:0:0:
202,152,147440,1,2,0:0:0:0:
170,165,147537,1,0,0:0:0:0:
138,178,147633,1,2,0:0:0:0:
104,173,147730,1,0,0:0:0:0:
77,152,147827,5,2,0:0:0:0:
64,121,147924,1,0,0:0:0:0:
48,294,148117,1,2,0:0:0:0:
61,325,148214,1,0,0:0:0:0:
218,253,148408,1,2,0:0:0:0:
205,222,148504,1,0,0:0:0:0:
221,49,148698,1,2,0:0:0:0:
234,80,148795,2,0,L|228:141,1,45
332,60,148988,2,0,L|338:-1,1,45,2|0,0:0|0:0,0:0:0:0:
408,113,149182,2,0,L|402:174,1,45,2|0,0:0|0:0,0:0:0:0:
506,93,149375,5,2,0:0:0:0:
506,93,149472,1,4,3:0:0:0:
390,227,149666,1,2,0:0:0:0:
390,227,149762,1,4,3:0:0:0:
332,60,149956,1,2,0:0:0:0:
332,60,150053,2,0,L|132:100,1,180,4|0,3:0|0:0,0:0:0:0:
84,108,150537,2,0,L|76:172,1,45,2|0,0:0|0:0,0:0:0:0:
160,184,150730,2,0,L|152:248,1,45,2|0,0:0|0:0,0:0:0:0:
236,260,150924,6,0,P|264:276|296:276,1,45,6|0,0:0|0:0,0:0:0:0:
348,273,151117,2,0,P|375:256|391:229,1,45,0|0,0:0|0:0,0:0:0:0:
415,182,151311,2,0,L|447:213,1,45,2|0,0:0|0:0,0:0:0:0:
506,128,151504,2,0,L|462:117,1,45,2|0,0:0|0:0,0:0:0:0:
369,78,151698,1,2,0:0:0:0:
412,65,151795,1,2,0:0:0:0:
296,128,151988,1,4,0:0:0:0:
296,128,152182,2,0,P|250:133|212:112,1,90,4|0,0:0|0:0,0:0:0:0:
160,64,152472,6,0,L|100:48,1,45,4|0,0:0|0:0,0:0:0:0:
152,152,152666,2,0,L|92:168,1,45
189,232,152859,2,0,L|145:275,1,45,2|0,0:0|0:0,0:0:0:0:
261,282,153053,2,0,L|245:342,1,45,2|0,0:0|0:0,0:0:0:0:
348,290,153246,1,2,0:0:0:0:
359,333,153343,1,2,0:0:0:0:
312,208,153537,1,4,0:0:0:0:
312,208,153730,2,0,P|300:168|312:122,1,90,4|0,0:0|0:0,0:0:0:0:
352,60,154021,6,0,L|368:16,1,45,4|0,0:0|0:0,0:0:0:0:
464,80,154214,2,0,L|423:99,1,45
445,176,154408,2,0,L|488:192,1,45,2|0,0:0|0:0,0:0:0:0:
426,289,154601,2,0,L|406:248,1,45,2|0,0:0|0:0,0:0:0:0:
329,270,154795,1,2,0:0:0:0:
314,313,154891,1,2,0:0:0:0:
260,188,155085,2,0,P|240:136|112:104,1,180,4|0,0:0|0:0,0:0:0:0:
60,112,155569,6,0,L|16:60,1,45,4|0,0:0|0:0,0:0:0:0:
60,188,155762,1,0,0:0:0:0:
60,188,155859,1,0,0:0:0:0:
60,188,155956,2,0,L|-4:164,1,45,6|0,0:0|0:0,0:0:0:0:
98,253,156150,1,2,0:0:0:0:
98,253,156246,1,0,0:0:0:0:
98,253,156343,2,0,L|30:265,3,45,2|2|2|2,0:0|0:0|0:0|0:0,0:0:0:0:
163,291,156730,2,0,L|136:316,6,30,2|2|2|2|2|2|2,3:2|3:2|3:2|3:2|3:2|3:2|3:2,0:0:0:0:
238,291,157214,5,4,0:0:0:0:
80,260,163836,6,0,P|156:264|224:188,1,160.200000122223,2|2,3:0|0:0,0:0:0:0:
264,80,164295,1,0,0:0:0:0:
264,80,164386,2,0,L|396:52,1,106.800000081482,2|0,0:0|0:0,0:0:0:0:
456,56,164662,2,0,P|440:112|384:144,1,106.800000081482,2|2,0:0|0:0,0:0:0:0:
328,204,164937,6,0,L|488:168,2,160.200000122223,2|2|0,3:0|3:0|0:0,0:0:0:0:
356,368,165671,1,0,0:0:0:0:
356,368,165763,1,2,0:0:0:0:
220,332,165946,1,0,0:0:0:0:
220,332,166038,6,0,P|160:328|108:356,1,106.800000081482,2|0,3:0|0:0,0:0:0:0:
24,268,166313,2,0,P|84:272|136:244,1,106.800000081482,2|0,0:0|0:0,0:0:0:0:
76,80,166588,2,0,L|65:186,1,106.800000081482,2|2,2:0|0:0,0:0:0:0:
165,170,166864,2,0,P|113:164|65:186,1,106.800000081482,2|0,0:0|0:0,0:0:0:0:
240,228,167139,6,0,P|292:234|340:212,1,106.800000081482,2|0,3:0|0:0,0:0:0:0:
396,148,167414,1,8,0:3:0:0:
240,228,167689,1,8,0:3:0:0:
80,300,167964,1,8,0:3:0:0:
212,340,168148,1,0,0:0:0:0:
212,340,168240,6,0,P|276:340|348:268,1,160.200000122223,2|2,3:0|0:0,0:0:0:0:
228,124,168698,1,0,0:0:0:0:
228,124,168790,2,0,P|220:176|240:228,1,106.800000081482,2|0,0:0|0:0,0:0:0:0:
308,168,169065,2,0,P|316:116|296:64,1,106.800000081482,2|0,0:0|0:0,0:0:0:0:
228,124,169341,6,0,L|116:120,1,106.800000081482,2|0,3:0|0:0,0:0:0:0:
32,128,169616,2,0,P|52:176|152:204,1,160.200000122223,2|2,3:0|0:0,0:0:0:0:
308,168,170075,1,0,0:0:0:0:
308,168,170166,1,2,0:0:0:0:
268,328,170350,1,0,0:0:0:0:
268,328,170442,6,0,P|240:280|244:216,1,106.800000081482,2|0,3:0|0:0,0:0:0:0:
308,168,170717,2,0,L|420:176,1,106.800000081482,2|0,0:0|0:0,0:0:0:0:
488,132,170992,1,2,0:0:0:0:
296,80,171175,1,0,0:0:0:0:
296,80,171267,2,0,P|252:96|220:152,1,106.800000081482,2|0,0:0|0:0,0:0:0:0:
316,256,171542,6,0,P|364:236|390:190,1,106.800000081482,2|0,3:0|0:0,0:0:0:0:
308,168,171818,1,2,0:0:0:0:
324,348,172093,1,2,0:0:0:0:
176,248,172368,1,2,0:0:0:0:
96,336,172552,1,0,0:0:0:0:
96,336,172643,6,0,P|64:272|80:176,1,160.200000122223,2|2,3:0|0:0,0:0:0:0:
184,100,173102,1,0,0:0:0:0:
184,100,173194,2,0,P|136:108|76:84,1,106.800000081482,2|0,0:0|0:0,0:0:0:0:
140,24,173469,2,0,P|188:15|248:40,1,106.800000081482,2|0,0:0|0:0,0:0:0:0:
300,101,173744,6,0,L|412:81,1,106.800000081482,2|0,3:0|0:0,0:0:0:0:
344,180,174019,2,0,L|502:153,1,160.200000122223,2|0,3:0|0:0,0:0:0:0:
332,268,174478,1,0,0:0:0:0:
332,268,174570,2,0,P|288:248|256:192,1,106.800000081482,2|0,0:0|0:0,0:0:0:0:
396,108,174845,6,0,P|424:146|425:211,1,106.800000081482,2|0,3:0|0:0,0:0:0:0:
304,84,175120,2,0,L|192:72,1,106.800000081482,2|2,0:0|0:0,0:0:0:0:
368,28,175396,2,0,P|424:28|476:60,1,106.800000081482
280,112,175671,2,0,L|168:100,1,106.800000081482,2|2,0:0|0:0,0:0:0:0:
84,232,175946,6,0,L|190:220,1,106.800000081482,2|0,3:0|0:0,0:0:0:0:
264,244,176221,1,0,0:0:0:0:
412,324,176405,1,0,0:0:0:0:
412,324,176497,2,0,P|364:336|308:308,1,106.800000081482,2|0,0:0|0:0,0:0:0:0:
368,248,176772,2,0,P|415:234|472:260,1,106.800000081482,2|0,0:0|0:0,0:0:0:0:
466,254,177047,6,0,B|452:188|452:188|472:80,1,160.200000122223,2|2,3:0|0:0,0:0:0:0:
340,44,177506,1,0,0:0:0:0:
340,44,177597,2,0,P|280:52|236:32,1,106.800000081482,2|0,0:0|0:0,0:0:0:0:
116,108,177873,2,0,P|176:100|220:120,1,106.800000081482,2|0,0:0|0:0,0:0:0:0:
160,184,178148,6,0,L|168:296,1,106.800000081482,2|0,3:0|0:0,0:0:0:0:
240,328,178423,2,0,P|184:372|100:336,1,160.200000122223,2|0,3:0|0:0,0:0:0:0:
160,184,178882,1,0,0:0:0:0:
160,184,178974,1,2,0:0:0:0:
240,328,179157,1,0,0:0:0:0:
240,328,179249,6,0,L|356:336,1,106.800000081482,2|0,3:0|0:0,0:0:0:0:
488,284,179524,2,0,P|432:288|376:248,1,106.800000081482,2|0,0:0|0:0,0:0:0:0:
352,184,179799,2,0,P|408:180|464:220,1,106.800000081482,2|0,0:0|0:0,0:0:0:0:
389,264,180075,1,2,0:0:0:0:
268,136,180258,1,0,0:0:0:0:
268,136,180350,5,2,3:0:0:0:
240,328,180625,1,0,0:0:0:0:
76,216,180900,1,2,0:0:0:0:
240,328,181175,1,2,0:0:0:0:
348,88,181451,6,0,P|272:44|200:76,1,160.200000122223,2|0,3:0|0:0,0:0:0:0:
152,276,182001,1,2,0:0:0:0:
268,136,182185,1,0,0:0:0:0:
268,136,182276,1,2,0:0:0:0:
340,304,182460,1,0,0:0:0:0:
340,304,182552,2,0,P|396:300|436:264,1,106.800000081482,2|0,0:3|0:0,0:0:0:0:
360,220,182827,1,2,0:3:0:0:
232,360,183102,5,2,0:0:0:0:
160,168,183377,1,2,3:0:0:0:
32,328,183653,2,0,P|12:284|48:180,1,160.200000122223,2|0,3:0|0:0,0:0:0:0:
232,272,184203,5,2,0:0:0:0:
32,328,184478,1,2,0:0:0:0:
160,168,184662,1,0,0:0:0:0:
160,168,184753,2,0,P|212:144|272:156,1,106.800000081482,2|0,3:0|0:0,0:0:0:0:
332,188,185029,2,0,P|384:193|431:170,1,106.800000081482,2|0,3:0|0:0,0:0:0:0:
468,100,185304,5,2,0:0:0:0:
464,312,185579,1,2,0:0:0:0:
256,292,185854,5,6,3:0:0:0:
256,292,186130,2,0,B|240:240|272:240|256:188,1,106.666666666667,6|0,0:0|0:0,0:0:0:0:
199,139,186405,2,0,L|305:132,1,106.666666666667,2|0,0:0|0:0,0:0:0:0:
278,62,186680,2,0,L|171:70,1,106.666666666667,2|0,0:0|0:0,0:0:0:0:
352,73,186955,1,4,0:0:0:0:
125,128,187230,1,4,0:0:0:0:
125,128,187506,1,0,0:0:0:0:
352,73,187781,1,2,0:0:0:0:
125,128,188056,5,6,3:0:0:0:
125,128,188331,2,0,P|166:161|177:218,1,106.666666666667,6|0,0:0|0:0,0:0:0:0:
230,268,188607,2,0,P|180:287|126:268,1,106.666666666667,2|0,0:0|0:0,0:0:0:0:
252,197,188882,2,0,P|301:177|355:196,1,106.666666666667,2|0,0:0|0:0,0:0:0:0:
426,199,189157,2,0,P|349:191|303:252,1,160,4|2,0:0|3:0,0:0:0:0:
55,265,189708,2,0,P|131:272|177:211,1,160,4|2,0:0|3:0,0:0:0:0:
348,68,190258,6,0,L|508:40,1,160,6|0,3:0|0:0,0:0:0:0:
380,224,190808,1,4,0:0:0:0:
232,199,190992,1,0,0:0:0:0:
232,199,191084,1,2,0:0:0:0:
164,332,191267,1,0,0:0:0:0:
164,332,191359,2,0,L|4:360,1,160,6|6,3:0|3:0,0:0:0:0:
56,116,191909,1,6,0:0:0:0:
272,8,192185,1,2,0:0:0:0:
380,224,192460,6,0,P|304:316|164:332,1,266.666666666667,6|0,3:0|0:0,0:0:0:0:
96,368,193010,2,0,L|125:265,1,106.666666666667,2|0,0:0|0:0,0:0:0:0:
61,223,193286,2,0,P|114:224|160:198,1,106.666666666667,2|0,0:0|0:0,0:0:0:0:
195,132,193561,1,4,0:0:0:0:
57,298,193836,1,6,3:0:0:0:
210,166,194111,1,0,0:0:0:0:
42,263,194386,1,2,0:0:0:0:
224,199,194662,5,6,3:0:0:0:
27,228,194937,1,4,0:0:0:0:
252,266,195212,1,4,0:0:0:0:
172,52,195487,1,4,0:0:0:0:
37,125,195671,1,0,0:0:0:0:
37,125,195763,2,0,P|20:175|27:228,1,106.666666666667,6|0,3:2|0:0,0:0:0:0:
57,298,196038,1,6,3:0:0:0:
282,336,196313,1,4,0:0:0:0:
202,122,196588,1,4,0:0:0:0:
153,267,196772,1,0,0:0:0:0:
153,267,196864,6,0,P|109:296|57:298,1,106.666666666667,6|0,0:0|0:0,0:0:0:0:
27,228,197139,1,0,0:0:0:0:
358,267,197414,2,0,P|402:296|455:298,1,106.666666666667,2|0,0:0|0:0,0:0:0:0:
485,228,197689,1,0,0:0:0:0:
360,144,197873,1,0,0:0:0:0:
360,144,197964,1,6,3:0:0:0:
294,180,198056,1,0,0:0:0:0:
218,180,198148,1,0,0:0:0:0:
152,144,198240,2,0,P|88:135|42:181,1,106.666666666667,6|0,3:0|0:0,0:0:0:0:
27,228,198515,2,0,L|-14:129,1,106.666666666667,2|0,0:0|0:0,0:0:0:0:
112,204,198790,1,4,0:0:0:0:
400,204,199060,6,0,P|360:144|388:42,1,160,4|0,0:0|0:0,0:0:0:0:
138,60,199610,2,0,P|153:137|112:204,1,160,2|0,0:0|0:0,0:0:0:0:
0,104,200069,1,0,0:0:0:0:
0,104,200161,1,6,3:0:0:0:
27,228,200344,1,0,0:0:0:0:
27,228,200436,1,6,3:0:0:0:
256,204,200712,1,2,0:0:0:0:
0,368,200987,1,2,0:0:0:0:
112,204,201262,6,0,P|152:144|124:42,1,160,6|0,3:0|0:0,0:0:0:0:
373,60,201813,2,0,P|358:137|400:204,1,160,2|0,0:0|0:0,0:0:0:0:
512,104,202272,1,0,0:0:0:0:
512,104,202364,1,6,3:0:0:0:
485,228,202547,1,0,0:0:0:0:
485,228,202639,1,6,3:0:0:0:
256,204,202914,2,0,B|240:152|272:152|256:100,1,106.666666666667,4|0,0:0|0:0,0:0:0:0:
207,40,203190,2,0,P|269:24|305:40,1,106.666666666667,2|0,0:0|0:0,0:0:0:0:
180,112,203465,6,0,P|86:136|32:112,1,160,4|0,0:0|0:0,0:0:0:0:
332,192,204016,2,0,P|425:167|479:192,1,160,2|0,0:0|0:0,0:0:0:0:
305,264,204475,1,0,0:0:0:0:
305,264,204567,2,0,P|243:280|207:264,1,106.666666666667,6|0,3:0|0:0,0:0:0:0:
148,216,204842,1,6,3:0:0:0:
364,88,205117,1,2,0:0:0:0:
148,88,205393,1,2,0:0:0:0:
364,216,205668,6,0,P|392:268|364:360,1,160,6|0,3:0|0:0,0:0:0:0:
147,216,206219,2,0,P|118:287|147:359,1,160,2|0,0:0|0:0,0:0:0:0:
256,152,206769,2,0,L|202:60,1,106.666666666667,6|0,0:0|0:0,0:0:0:0:
309,60,207045,2,0,L|202:60,1,106.666666666667,2|0,0:0|0:0,0:0:0:0:
324,130,207320,1,2,0:0:0:0:
112,180,207871,6,0,P|152:240|124:342,1,160,4|0,0:0|0:0,0:0:0:0:
374,324,208422,2,0,P|359:247|400:180,1,160,2|0,0:0|0:0,0:0:0:0:
512,280,208881,1,0,0:0:0:0:
512,280,208972,1,6,3:0:0:0:
485,156,209156,1,0,0:0:0:0:
485,156,209248,1,6,3:0:0:0:
256,180,209523,1,2,0:0:0:0:
512,16,209798,1,2,0:0:0:0:
400,180,210074,6,0,P|360:240|388:342,1,160,6|0,3:0|0:0,0:0:0:0:
139,324,210624,2,0,P|154:247|112:180,1,160,2|0,0:0|0:0,0:0:0:0:
0,280,211083,1,0,0:0:0:0:
0,280,211175,1,6,3:0:0:0:
27,156,211359,1,0,0:0:0:0:
27,156,211451,1,6,3:0:0:0:
256,180,211726,2,0,B|272:232|240:232|256:284,1,106.666666666667,4|0,0:0|0:0,0:0:0:0:
305,344,212001,2,0,P|243:360|207:344,1,106.666666666667,2|0,0:0|0:0,0:0:0:0:
332,272,212277,6,0,P|426:248|480:272,1,160,4|0,0:0|0:0,0:0:0:0:
180,192,212827,2,0,P|87:217|33:192,1,160,2|0,0:0|0:0,0:0:0:0:
207,120,213286,1,0,0:0:0:0:
207,120,213378,2,0,P|269:104|305:120,1,106.666666666667,6|0,3:0|0:0,0:0:0:0:
364,168,213653,1,6,3:0:0:0:
148,296,213929,1,2,0:0:0:0:
364,296,214204,1,2,0:0:0:0:
148,168,214479,6,0,P|120:116|148:24,1,160,6|0,3:0|0:0,0:0:0:0:
365,168,215030,2,0,P|394:97|365:25,1,160,2|0,0:0|0:0,0:0:0:0:
256,232,215581,2,0,L|310:324,1,106.666666666667,6|0,0:0|0:0,0:0:0:0:
203,324,215856,2,0,L|310:324,1,106.666666666667,2|0,0:0|0:0,0:0:0:0:
188,254,216132,1,2,0:0:0:0:
59,73,216693,6,0,P|113:60|150:82,1,90.0000034332277,8|2,0:0|0:0,0:0:0:0:
160,88,216963,1,0,0:0:0:0:
264,116,217143,2,0,B|348:112|348:112|420:72,1,135.000005149842,8|2,0:0|0:0,0:0:0:0:
412,72,217503,2,0,P|448:116|444:184,1,90.0000034332277,8|2,0:0|0:0,0:0:0:0:
452,180,217773,2,0,L|496:196,2,45.0000017166138,8|0|0,0:0|0:0|0:0,0:0:0:0:
452,180,218043,1,0,0:0:0:0:
388,268,218223,2,0,B|248:228,1,135.000005149842,8|2,0:0|0:0,0:0:0:0:
236,248,218583,2,0,B|192:264|192:264|144:256,1,90.0000034332277,8|0,0:0|0:0,0:0:0:0:
124,252,218853,5,8,0:0:0:0:
192,116,219033,1,2,0:0:0:0:
192,116,219123,1,0,0:0:0:0:
340,208,219303,2,0,P|385:225|456:168,1,135.000005149842,8|2,0:0|0:0,0:0:0:0:
448,156,219663,2,0,P|478:207|518:227,1,90.0000034332277,8|0,0:0|0:0,0:0:0:0:
504,300,219933,1,8,0:0:0:0:
496,312,220023,1,2,0:0:0:0:
488,324,220113,1,0,0:0:0:0:
480,336,220203,1,0,0:0:0:0:
256,336,220383,2,0,L|116:312,1,135.000005149842,8|2,0:0|0:0,0:0:0:0:
97,307,220743,1,8,0:0:0:0:
192,116,220923,1,0,0:0:0:0:
192,116,221013,6,0,P|240:104|296:132,1,90.0000034332277,8|2,0:0|0:0,0:0:0:0:
300,96,221283,1,0,0:0:0:0:
352,240,221463,2,0,P|304:252|232:186,1,135.000005149842,8|2,0:0|0:0,0:0:0:0:
237,183,221823,2,0,P|177:227|173:275,1,90.0000034332277,8|0,0:0|0:0,0:0:0:0:
364,320,222093,2,0,P|424:276|428:228,1,90.0000034332277,8|2,0:0|0:0,0:0:0:0:
432,232,222363,1,0,0:0:0:0:
184,328,222543,1,8,0:0:0:0:
184,328,222633,2,0,L|72:300,1,90.0000034332277,0|2,0:0|0:0,0:0:0:0:
72,296,222903,2,0,L|12:197,1,90.0000034332277,8|0,0:0|0:0,0:0:0:0:
8,192,223173,5,12,0:0:0:0:
240,184,223353,1,2,0:0:0:0:
240,184,223443,1,0,0:0:0:0:
60,104,223623,2,0,P|68:44|136:12,1,135.000005149842,12|2,0:0|0:0,0:0:0:0:
200,32,223984,2,0,L|288:48,1,90.0000034332277,8|2,0:0|0:0,0:0:0:0:
312,40,224253,1,12,0:0:0:0:
388,192,224433,1,0,0:0:0:0:
388,192,224523,1,10,0:0:0:0:
256,340,224703,1,0,0:0:0:0:
256,340,224793,6,0,P|328:328|396:376,1,135.000005149842,10|0,0:0|0:0,0:0:0:0:
488,56,225333,1,4,0:3:0:0:
300,132,225513,5,0,0:0:0:0:
280,128,225603,1,0,0:0:0:0:
188,200,225783,1,4,0:3:0:0:
160,208,225873,1,8,0:0:0:0:
116,92,226053,1,0,0:0:0:0:
84,88,226143,1,4,0:3:0:0:
24,244,226323,1,0,0:0:0:0:
28,264,226413,6,0,B|44:328|44:328|60:292,1,90.0000034332277,4|0,0:3|0:0,0:0:0:0:
136,312,226683,2,0,B|145:290|145:290|161:354,1,90.0000034332277,4|4,0:3|0:3,0:0:0:0:
168,376,226953,1,8,0:0:0:0:
316,344,227133,1,4,0:3:0:0:
316,344,227223,1,0,0:0:0:0:
416,224,227403,1,4,0:3:0:0:
416,224,227493,6,0,P|415:278|437:307,1,90.0000034332277,4|0,0:3|0:0,0:0:0:0:
496,244,227764,2,0,P|496:189|474:160,1,90.0000034332277,4|4,0:3|0:3,0:0:0:0:
400,144,228034,1,8,0:0:0:0:
256,344,228214,2,0,L|120:356,1,135.000005149842,4|0,0:3|0:0,0:0:0:0:
72,372,228574,6,2,B|80:316|29:287|29:287|53:267|53:267|14:250|14:250|44:224|44:224|6:214|6:214|39:183|39:183|0:176|0:176|24:144|24:144|0:108|29:39,1,450.000017166138,2|0,0:2|0:0,2:2:0:0:
96,104,229564,6,0,B|184:124|184:124|136:80,1,135.000005149842,4|4,0:3|0:3,0:0:0:0:
200,36,229925,2,0,L|284:108,1,90.0000034332277,0|4,0:0|0:3,0:0:0:0:
332,144,230195,2,0,P|316:192|284:216,1,90.0000034332277,8|4,0:0|0:3,0:0:0:0:
276,208,230465,1,0,0:0:0:0:
120,320,230645,6,0,L|280:352,1,135.000005149842,4|4,0:3|0:3,0:0:0:0:
324,360,231004,2,0,B|364:328|364:328|404:344,1,90.0000034332277,4|4,0:3|0:3,0:0:0:0:
472,364,231274,2,0,P|496:316|480:252,1,90.0000034332277,8|4,0:0|0:3,0:0:0:0:
452,216,231544,1,4,0:3:0:0:
256,292,231724,1,4,0:3:0:0:
88,136,232039,6,0,B|74:142|74:142|65:132|65:132|56:140|56:140|44:140,5,63,2|0|0|0|8|0,0:0|0:0|0:0|0:0|0:0|0:0,0:0:0:0:
372,44,233074,5,2,0:3:0:0:
355,175,233254,1,8,0:0:0:0:
444,87,233434,1,2,0:3:0:0:
316,104,233614,1,8,0:0:0:0:
435,165,233794,1,0,2:3:0:0:
248,228,234129,5,4,0:3:0:0:
240,256,234219,1,0,0:0:0:0:
112,288,234399,1,4,0:3:0:0:
92,312,234489,1,8,0:0:0:0:
32,192,234670,1,4,0:3:0:0:
0,196,234760,1,4,0:3:0:0:
92,88,234940,1,8,0:0:0:0:
116,68,235029,6,0,B|144:60|144:60|208:96,1,90.0000034332277,4|0,0:3|0:0,0:0:0:0:
264,136,235299,2,0,B|292:144|292:144|356:108,1,90.0000034332277,4|0,0:3|0:0,0:0:0:0:
400,64,235569,1,8,0:0:0:0:
256,16,235749,1,4,0:3:0:0:
256,16,235839,1,4,0:3:0:0:
136,148,236019,1,8,0:0:0:0:
135,149,236108,6,0,P|136:95|114:66,1,90.0000034332277,0|4,0:3|0:3,0:0:0:0:
32,124,236378,2,0,P|32:179|54:208,1,90.0000034332277,4|4,0:3|0:3,0:0:0:0:
128,228,236649,1,8,0:0:0:0:
256,40,236829,2,0,L|392:28,1,135.000005149842,4|4,0:3|0:3,0:0:0:0:
428,16,237189,6,2,B|419:71|470:100|470:100|446:120|446:120|485:137|485:137|456:164|456:164|493:173|493:173|460:204|460:204|500:212|500:212|476:244|476:244|500:280|470:348,1,450.000017166138,2|0,0:2|0:0,2:2:0:0:
408,280,238178,6,0,B|320:260|320:260|368:304,1,135.000005149842,4|4,0:3|0:3,0:0:0:0:
304,348,238539,2,0,L|220:276,1,90.0000034332277,0|4,0:0|0:3,0:0:0:0:
172,240,238809,2,0,P|188:192|220:168,1,90.0000034332277,8|4,0:0|0:3,0:0:0:0:
228,176,239079,1,0,0:0:0:0:
392,64,239259,6,0,L|232:32,1,135.000005149842,4|4,0:3|0:3,0:0:0:0:
188,24,239619,2,0,B|148:56|148:56|108:40,1,90.0000034332277,4|4,0:3|0:3,0:0:0:0:
40,20,239889,2,0,P|16:68|32:132,1,90.0000034332277,8|4,0:0|0:3,0:0:0:0:
60,168,240159,1,4,0:3:0:0:
256,136,240339,1,4,0:3:0:0:
460,328,240879,1,4,0:3:0:0:
460,328,240969,6,0,P|396:344|356:328,1,90.0000034332277,8|4,0:0|0:3,0:0:0:0:
312,288,241239,1,4,0:3:0:0:
132,332,241419,1,4,0:3:0:0:
132,332,241959,1,4,0:3:0:0:
60,232,242588,5,4,0:0:0:0:
60,232,242723,2,0,L|52:96,1,135.000005149842,0|0,0:0|0:0,0:0:0:0:
168,256,243128,2,0,L|156:368,1,67.5000025749208,4|0,0:0|0:0,0:0:0:0:
168,256,243398,6,0,L|160:132,1,80.9999975280763,2|0,0:0|0:0,0:0:0:0:
252,324,243669,5,4,0:0:0:0:
252,324,243804,2,0,P|308:352|408:312,1,135.000005149842
488,200,244209,2,0,P|432:192|396:208,1,67.5000025749208,4|0,0:0|0:0,0:0:0:0:
352,112,244479,6,0,P|332:148|332:216,1,80.9999975280763
252,324,244750,6,0,P|256:264|240:204,1,90,2|0,0:0|0:0,0:0:0:0:
156,120,245020,2,0,P|148:176|164:228,1,67.5000025749208,2|0,0:0|0:0,0:0:0:0:
332,364,245290,6,0,P|252:324|124:396,1,180,4|0,0:0|0:0,0:0:0:0:
492,192,245831,6,0,L|480:72,1,67.5000025749208,2|0,1:0|0:0,0:0:0:0:
480,204,246101,1,2,1:0:0:0:
376,12,246371,2,0,P|344:72|372:224,1,202.500007724762,6|0,1:0|0:0,0:0:0:0:
432,84,246912,5,4,0:0:0:0:
432,84,247047,2,0,L|248:96,1,135.000005149842
192,168,247452,2,0,P|244:176|284:168,1,67.5000025749208,4|0,0:0|0:0,0:0:0:0:
372,328,247723,6,0,P|324:324|252:344,1,80.9999975280763,2|0,0:0|0:0,0:0:0:0:
400,260,247993,5,4,0:0:0:0:
400,260,248128,2,0,P|316:248|224:280,1,135.000005149842
76,344,248533,2,0,P|128:348|168:340,1,67.5000025749208,4|0,0:0|0:0,0:0:0:0:
76,344,248804,6,0,P|80:292|80:232,1,80.9999975280763,2|0,0:0|0:0,0:0:0:0:
104,316,249074,6,0,P|108:264|104:216,1,90,2|0,0:0|0:0,0:0:0:0:
136,296,249344,6,0,P|140:244|136:188,1,90,2|0,0:0|0:0,0:0:0:0:
260,72,249615,6,0,L|264:28,7,33.7500012874604,4|0|0|0|0|0|0|0,0:0|0:0|0:0|0:0|0:0|0:0|0:0|0:0,0:0:0:0:
316,132,250155,2,0,L|324:172,6,39.3750003755093,2|0|0|0|0|0|0,0:0|0:0|0:0|0:0|0:0|0:0|0:0,0:0:0:0:
364,64,250696,5,6,0:0:0:0:
260,72,250831,1,4,3:0:0:0:
368,72,250966,1,2,0:0:0:0:
264,80,251101,1,4,3:0:0:0:
372,80,251236,5,4,0:0:0:0:
440,272,251506,2,0,L|452:176,1,90.0000034332277,2|0,0:0|0:0,0:0:0:0:
360,232,251777,2,0,L|349:321,1,90.0000034332277,4|0,0:0|0:0,0:0:0:0:
272,360,252047,2,0,P|204:344|116:380,1,135.000005149842,2|8,0:0|3:0,0:0:0:0:
60,324,252407,1,0,0:0:0:0:
188,168,252723,1,0,0:0:0:0:
128,104,252858,6,0,P|104:160|136:240,1,135.000005149842,4|0,0:0|0:0,0:0:0:0:
188,168,253263,1,0,0:0:0:0:
232,96,253398,6,0,L|224:4,1,67.5000025749208,4|0,0:0|0:0,0:0:0:0:
312,132,253669,2,0,L|300:220,1,67.5000025749208,2|0,0:0|0:0,0:0:0:0:
384,80,253939,2,0,L|376:-12,1,67.5000025749208,4|0,0:0|0:0,0:0:0:0:
464,116,254209,2,0,L|452:204,1,67.5000025749208,2|0,0:0|0:0,0:0:0:0:
368,308,254479,6,0,P|320:276|368:336,1,202.500007724762,2|0,0:0|0:0,0:0:0:0:
376,304,255020,6,0,P|308:264|376:332,1,270.000010299683,4|0,0:0|0:0,0:0:0:0:
384,296,255560,6,0,L|376:184,1,67.5000025749208,2|0,0:0|0:0,0:0:0:0:
304,120,255831,2,0,L|300:244,1,67.5000025749208,2|0,0:0|0:0,0:0:0:0:
404,140,256101,2,0,L|396:0,2,135.000005149842,4|2|4,0:0|0:0|0:0,0:0:0:0:
469,214,256822,6,0,L|463:263,1,45.0000017166138,2|0,0:0|0:0,0:0:0:0:
384,296,257002,2,0,L|368:224,1,45.0000017166138,2|2,0:0|0:0,0:0:0:0:
296,208,257182,6,0,P|288:240|284:268,1,45.0000017166138,4|2,0:0|0:0,0:0:0:0:
176,336,257452,2,0,P|132:344|72:328,1,90.0000034332277,2|2,0:0|0:0,0:0:0:0:
32,284,257723,1,8,3:0:0:0:
296,68,257993,1,2,0:0:0:0:
296,68,258128,1,2,0:0:0:0:
296,68,258263,6,0,P|392:48|456:136,1,202.500007724762,4|0,0:0|0:0,0:0:0:0:
364,124,258804,2,0,L|356:224,1,67.5000025749208,6|0,0:0|0:0,0:0:0:0:
288,284,259074,2,0,L|276:188,1,67.5000025749208,2|0,0:0|0:0,0:0:0:0:
196,116,259344,2,0,L|184:296,2,135.000005149842,4|0|4,0:0|0:0|0:0,0:0:0:0:
464,344,260155,5,2,0:0:0:0:
464,344,260245,2,0,L|368:356,1,90.0000034332277,0|4,0:0|0:0,0:0:0:0:
288,284,260696,1,0,0:0:0:0:
436,88,260966,2,0,P|452:152|440:236,1,135.000005149842,4|2,0:0|0:0,0:0:0:0:
432,236,261326,6,0,L|340:248,1,90.0000034332277,0|4,0:0|0:0,0:0:0:0:
256,176,261777,1,2,0:0:0:0:
80,244,262047,6,0,P|84:304|124:232,1,202.500007724762,0|0,1:0|0:0,0:0:0:0:
76,232,262588,6,0,P|96:320|120:220,1,270,4|0,0:0|0:0,0:0:0:0:
80,152,263128,5,0,1:0:0:0:
80,152,263263,1,0,0:0:0:0:
80,152,263398,1,2,0:0:0:0:
376,237,263669,6,0,P|396:313|432:244,1,202.500007724762,0|0,1:0|0:0,0:0:0:0:
386,221,264209,6,0,P|391:320|436:232,1,270,4|0,0:0|1:0,0:0:0:0:
196,52,265290,5,0,3:0:0:0:
292,88,265560,1,0,3:0:0:0:
216,220,265831,1,0,3:0:0:0:
264,8,266101,1,0,3:0:0:0:
276,284,266375,1,0,3:0:0:0:
124,44,267060,5,2,0:0:0:0:
388,44,267403,1,2,0:0:0:0:
256,108,267746,6,0,B|224:192|284:192|256:288,1,180,4|8,0:0|0:0,0:0:0:0:
336,344,268260,2,0,P|408:339|456:248,2,180,0|0|0,0:0|0:0|0:0,0:0:0:0:
228,344,269117,5,2,0:0:0:0:
200,344,269203,1,0,0:0:0:0:
168,344,269289,1,0,0:0:0:0:
72,288,269460,2,0,P|60:248|72:196,1,90,8|0,0:0|0:0,0:0:0:0:
128,112,269803,2,0,P|72:92|24:32,2,135,0|0|0,0:0|0:0|0:0,0:0:0:0:
236,132,270489,2,0,L|416:104,1,180,2|8,0:0|0:0,0:0:0:0:
148,224,271003,1,0,0:0:0:0:
284,256,271175,1,0,0:0:0:0:
72,288,271346,2,0,P|48:248|48:192,1,90,0|8,0:0|0:0,0:0:0:0:
28,108,271689,1,0,0:0:0:0:
128,132,271860,6,0,L|224:124,1,90,2|0,0:0|0:0,0:0:0:0:
456,232,272203,2,0,L|360:224,1,90,8|0,0:0|0:0,0:0:0:0:
176,252,272546,1,2,0:0:0:0:
72,288,272717,1,0,0:0:0:0:
160,352,272889,1,8,0:0:0:0:
260,320,273060,1,0,0:0:0:0:
176,252,273232,6,0,P|192:168|136:96,1,180,4|8,0:0|0:0,0:0:0:0:
96,196,273746,1,0,0:0:0:0:
96,196,273832,1,0,0:0:0:0:
96,196,273917,1,2,0:0:0:0:
240,72,274089,2,0,L|336:68,1,90,0|8,0:0|0:0,0:0:0:0:
448,128,274432,2,0,P|460:172|452:216,1,90,0|2,0:0|0:0,0:0:0:0:
408,332,274775,1,0,0:0:0:0:
296,296,274946,2,0,B|208:268|208:324|120:292,2,180,8|2|8,0:0|0:0|0:0,0:0:0:0:
408,332,275803,1,0,0:0:0:0:
384,228,275975,6,0,L|408:136,1,90,4|0,0:0|0:0,0:0:0:0:
105,140,276317,2,0,L|128:228,1,90,8|0,0:0|0:0,0:0:0:0:
468,268,276660,6,0,L|492:176,1,90
24,184,277003,2,0,L|46:271,1,90,8|0,0:0|0:0,0:0:0:0:
140,320,277346,2,0,P|196:332|228:356,1,90,4|0,0:0|0:0,0:0:0:0:
320,384,277689,2,0,L|420:376,1,90,8|0,0:0|0:0,0:0:0:0:
468,288,278032,5,2,0:0:0:0:
104,212,278375,1,2,0:0:0:0:
296,216,278717,6,0,B|332:124|260:128|304:36,1,180,4|8,0:0|0:0,0:0:0:0:
376,264,279232,2,0,P|292:304|216:264,1,180
128,328,279746,2,0,L|36:320,1,90,8|0,0:0|0:0,0:0:0:0:
220,268,280089,1,2,0:0:0:0:
232,380,280260,1,2,0:0:0:0:
52,140,280432,1,8,0:0:0:0:
52,140,280775,6,0,L|24:4,2,135,0|0|0,0:0|0:0|0:0,0:0:0:0:
148,200,281460,2,0,P|228:204|300:120,1,180,2|8,0:0|0:0,0:0:0:0:
412,72,281975,2,0,L|396:168,1,90,0|2,0:0|0:0,0:0:0:0:
432,320,282317,1,0,0:0:0:0:
328,268,282489,2,0,P|280:276|240:316,1,90,8|0,0:0|0:0,0:0:0:0:
168,352,282832,2,0,P|80:336|44:252,1,180,2|8,0:0|0:0,0:0:0:0:
124,192,283346,1,0,0:0:0:0:
43,123,283517,6,0,P|82:46|168:32,1,180,2|8,0:0|0:0,0:0:0:0:
256,104,284032,1,0,0:0:0:0:
344,31,284203,2,0,P|432:48|468:123,1,180,4|8,0:0|0:0,0:0:0:0:
292,216,284717,5,0,0:0:0:0:
468,228,284889,1,2,0:0:0:0:
468,228,284975,1,0,0:0:0:0:
468,228,285060,1,0,0:0:0:0:
372,124,285232,1,8,0:0:0:0:
396,308,285403,1,0,0:0:0:0:
304,336,285575,2,0,P|260:372|216:380,1,90,4|0,0:0|0:0,0:0:0:0:
144,332,285917,6,0,L|52:324,1,90,2|0,0:0|0:0,0:0:0:0:
90,232,286260,2,0,L|180:240,1,90,2|0,0:0|0:0,0:0:0:0:
232,152,286603,2,0,L|140:144,1,90,2|0,0:0|0:0,0:0:0:0:
328,64,286946,5,4,0:0:0:0:
368,152,287117,1,0,0:0:0:0:
436,80,287289,2,0,P|464:128|464:188,1,90,8|0,0:0|0:0,0:0:0:0:
380,264,287632,2,0,P|352:216|352:156,1,90,4|0,0:0|0:0,0:0:0:0:
456,308,287975,1,2,0:0:0:0:
328,328,288146,1,2,0:0:0:0:
328,328,288317,6,0,P|276:348|224:340,1,101.250003862381,4|0,0:0|0:0,0:0:0:0:
80,296,288660,2,0,P|132:276|184:284,1,101.250003862381,4|0,0:0|0:0,0:0:0:0:
328,196,289003,2,0,P|264:216|196:184,1,135.000005149842,4|0,0:0|0:0,0:0:0:0:
36,48,289689,6,0,P|100:28|168:64,1,135,4|0,0:0|0:0,0:0:0:0:
88,197,290027,2,0,L|96:108,1,90,8|0,0:0|0:0,0:0:0:0:
144,272,290366,1,8,0:0:0:0:
0,212,290536,1,0,0:0:0:0:
200,200,290705,1,8,0:0:0:0:
48,296,290875,1,0,0:0:0:0:
212,336,291044,6,0,P|272:316|360:348,1,135,8|0,0:0|0:0,0:0:0:0:
492,368,291383,2,0,P|440:380|392:364,1,90,8|0,0:0|0:0,0:0:0:0:
304,240,291722,1,8,0:0:0:0:
448,300,291892,1,0,0:0:0:0:
396,132,292061,2,0,L|388:232,1,90,8|0,0:0|0:0,0:0:0:0:
316,80,292400,6,0,P|364:44|488:112,1,180,4|8,0:0|0:0,0:0:0:0:
396,132,292909,1,0,0:0:0:0:
316,168,293078,2,0,B|334:212|318:260|318:260|306:300|322:344,2,180,8|8|0,0:0|0:0|0:0,0:0:0:0:
236,116,293926,6,0,P|176:140|52:96,1,180,2|2,0:0|0:0,0:0:0:0:
24,240,294434,2,0,P|88:224|180:268,1,135,8|0,0:0|0:0,0:0:0:0:
192,312,294773,2,0,L|292:304,1,90,8|0,0:0|0:0,0:0:0:0:
476,344,295112,6,0,P|408:364|324:336,1,135,4|0,0:0|0:0,0:0:0:0:
281,304,295451,2,0,L|192:312,1,90,8|0,0:0|0:0,0:0:0:0:
80,352,295790,1,8,0:0:0:0:
80,352,295960,1,0,0:0:0:0:
24,240,296129,1,8,0:0:0:0:
24,240,296299,1,0,0:0:0:0:
152,164,296468,6,0,P|216:152|292:204,1,135,8|0,0:0|0:0,0:0:0:0:
340,228,296807,2,0,L|448:216,1,90,8|0,0:0|0:0,0:0:0:0:
344,140,297146,1,8,0:0:0:0:
344,140,297316,1,0,0:0:0:0:
272,316,297485,1,8,0:0:0:0:
272,316,297655,1,0,0:0:0:0:
492,296,297824,5,4,0:0:0:0:
453,317,297909,1,0,0:0:0:0:
408,316,297994,1,8,3:0:0:0:
370,293,298078,1,8,3:0:0:0:
349,254,298163,5,4,0:0:0:0:
306,223,298248,1,0,0:0:0:0:
253,220,298333,1,8,3:0:0:0:
206,246,298417,1,8,3:0:0:0:
176,292,298502,5,4,0:2:0:0:
121,319,298587,1,0,0:0:0:0:
62,300,298672,1,8,3:0:0:0:
35,245,298756,1,8,3:0:0:0:
64,188,298841,6,0,L|56:128,3,45,4|0|8|8,0:0|0:0|3:0|3:0,0:0:0:0:
128,88,299180,2,0,L|136:16,3,45,4|0|0|0,0:0|0:0|0:0|0:0,0:0:0:0:
186,159,299519,6,0,L|192:204,1,45,4|0,0:0|0:0,0:0:0:0:
256,104,299689,2,0,L|260:59,1,45,8|0,3:0|0:0,0:0:0:0:
286,183,299858,2,0,L|291:227,1,45,8|0,3:0|0:0,0:0:0:0:
356,128,300027,2,0,L|360:83,1,45,8|0,3:0|0:0,0:0:0:0:
388,208,300197,2,0,L|393:252,1,45,8|0,3:0|0:0,0:0:0:0:
457,152,300366,2,0,L|461:107,1,45,8|0,3:0|0:0,0:0:0:0:
492,236,300536,6,0,B|496:304|496:304|436:372,1,135,4|0,0:0|0:0,0:0:0:0:
340,356,300875,2,0,L|429:363,1,90,8|0,0:0|0:0,0:0:0:0:
256,304,301214,1,8,0:0:0:0:
256,304,301383,1,0,0:0:0:0:
172,356,301553,2,0,L|82:363,1,90,8|0,0:0|0:0,0:0:0:0:
44,184,301892,6,0,P|116:164|192:216,1,135,8|0,0:0|0:0,0:0:0:0:
240,224,302231,2,0,L|340:212,1,90,8|0,0:0|0:0,0:0:0:0:
240,128,302570,1,8,0:0:0:0:
240,128,302739,1,0,0:0:0:0:
216,320,302909,1,8,0:0:0:0:
216,320,303078,1,0,0:0:0:0:
160,176,303248,6,0,P|148:112|244:40,1,180,4|8,0:0|0:0,0:0:0:0:
240,128,303756,1,0,0:0:0:0:
240,224,303926,2,8,P|200:264|76:224,2,180
472,336,304773,6,0,B|384:288|288:356,1,180,2|2,0:0|0:0,0:0:0:0:
92,296,305282,2,0,P|160:316|240:284,1,135,8|0,0:0|0:0,0:0:0:0:
240,224,305621,2,0,L|232:100,1,90,8|0,0:0|0:0,0:0:0:0:
148,92,305960,6,0,L|157:226,1,135,4|0,0:0|0:0,0:0:0:0:
92,296,306299,2,0,P|144:316|200:308,1,90,8|0,0:0|0:0,0:0:0:0:
392,172,306638,2,0,P|340:164|288:180,1,90,8|0,0:0|0:0,0:0:0:0:
360,352,306977,2,0,L|352:256,1,90,8|0,0:0|0:0,0:0:0:0:
254,100,307316,6,0,P|224:159|240:224,1,135,4|0,0:0|0:0,0:0:0:0:
302,168,307655,2,0,L|392:172,1,90,8|0,0:0|0:0,0:0:0:0:
204,292,307994,1,8,0:0:0:0:
204,292,308163,1,0,0:0:0:0:
168,136,308333,1,8,0:0:0:0:
168,136,308502,1,0,0:0:0:0:
132,340,308672,6,0,P|196:376|276:340,1,135,4|0,0:0|0:0,0:0:0:0:
316,320,309011,2,0,L|424:328,1,90,8|0,0:0|0:0,0:0:0:0:
488,236,309350,5,4,0:0:0:0:
456,204,309434,1,0,0:0:0:0:
413,194,309519,1,8,3:0:0:0:
371,208,309604,1,8,3:0:0:0:
344,243,309689,5,4,3:0:0:0:
300,273,309773,1,0,0:0:0:0:
247,270,309858,1,8,0:0:0:0:
205,237,309943,1,8,0:0:0:0:
192,186,310027,6,0,L|184:64,1,90,4|2,0:0|0:0,0:0:0:0:
280,188,310366,1,2,0:0:0:0:
128,264,310536,1,2,0:0:0:0:
100,88,310705,5,4,0:0:0:0:
134,59,310790,1,0,0:0:0:0:
178,51,310875,1,2,0:0:0:0:
220,63,310960,1,2,0:0:0:0:
252,94,311044,5,4,0:0:0:0:
302,124,311129,1,0,0:0:0:0:
359,123,311214,1,2,0:0:0:0:
407,91,311299,1,2,0:0:0:0:
456,64,311383,6,0,L|446:171,1,90,4|2,1:2|0:0,0:0:0:0:
353,353,311722,2,0,L|339:210,1,135,8|2,0:2|0:0,0:0:0:0:
330,129,312061,5,4,0:0:0:0:
448,280,312231,1,2,0:0:0:0:
448,280,312316,2,0,L|507:272,3,45,8|0|8|2,0:0|0:1|0:0|0:2,0:0:0:0:
252,252,312739,5,4,0:2:0:0:
410,176,312909,1,2,0:0:0:0:
271,344,313078,2,0,P|222:338|159:294,1,90,8|0,0:2|0:0,0:0:0:0:
159,118,313417,5,4,0:2:0:0:
87,291,313587,1,2,0:2:0:0:
87,291,313672,2,0,L|64:365,3,45,8|0|8|2,0:2|0:0|0:2|0:2,0:0:0:0:
73,174,314095,6,0,L|63:118,1,45,4|2,1:3|0:0,0:0:0:0:
307,30,314350,2,2,L|297:140,1,90,8|4,0:3|0:3,0:0:0:0:
294,155,314604,1,2,0:2:0:0:
471,110,314773,1,4,0:3:0:0:
471,110,314858,2,0,P|427:93|363:90,2,90,2|8|4,0:0|0:3|0:3,0:0:0:0:
512,173,315282,1,2,0:0:0:0:
316,295,315451,6,0,L|359:284,1,45,4|2,0:3|0:0,0:0:0:0:
128,363,315705,2,0,L|113:252,1,90,8|4,0:3|0:3,0:0:0:0:
104,200,315960,1,2,0:0:0:0:
215,224,316129,1,4,1:3:0:0:
215,224,316214,1,2,1:2:0:0:
35,320,316383,1,4,1:2:0:0:
230,350,316553,1,2,1:2:0:0:
230,350,316638,1,4,1:2:0:0:
40,144,316807,6,0,P|92:122|163:139,1,107.999996704102,4|2,1:2|0:0,0:0:0:0:
299,279,317146,2,0,L|317:127,1,135,8|2,0:0|0:0,0:0:0:0:
290,68,317485,1,4,0:0:0:0:
488,255,317655,1,2,0:0:0:0:
488,255,317739,2,0,B|437:240|437:240|385:265,1,107.999996704102,8|8,0:0|0:0,0:0:0:0:
348,384,317994,2,0,L|358:326,1,53.9999983520508,2|2,0:0|0:0,0:0:0:0:
328,208,318163,5,4,0:0:0:0:
447,330,318333,1,2,0:0:0:0:
487,168,318502,2,0,L|497:73,1,90,8|2,0:0|0:0,0:0:0:0:
241,100,318841,2,0,B|227:143|227:143|242:201,1,90,4|2,0:0|0:0,0:0:0:0:
191,298,319095,2,0,P|134:288|68:316,1,107.999996704102,8|8,0:0|0:0,0:0:0:0:
7,317,319350,2,0,L|15:253,1,53.9999983520508,2|2,0:0|0:0,0:0:0:0:
34,124,319519,5,4,1:0:0:0:
155,197,319689,2,0,P|100:204|45:190,1,90,8|0,0:1|1:0,0:0:0:0:
212,44,320027,2,0,P|157:37|102:51,1,90,8|0,0:1|1:0,0:0:0:0:
337,200,320366,2,0,P|282:207|227:193,1,90,8|0,0:1|1:0,0:0:0:0:
290,117,320705,1,8,0:1:0:0:
368,284,320875,5,4,1:0:0:0:
467,100,321044,2,0,L|457:213,1,90,8|0,0:1|1:0,0:0:0:0:
275,361,321383,2,0,L|285:248,1,90,8|0,0:1|1:0,0:0:0:0:
293,147,321722,1,8,0:1:0:0:
97,321,321892,1,0,1:0:0:0:
0,248,322061,1,8,1:0:0:0:
71,143,322231,6,0,L|204:128,1,107.999996704102,4|2,1:2|0:0,0:0:0:0:
229,194,322485,1,2,0:0:0:0:
229,194,322570,2,0,L|291:206,1,53.9999983520508,0|2,0:0|0:0,0:0:0:0:
496,71,322824,6,0,P|457:41|358:51,1,107.999996704102,4|2,0:0|0:0,0:0:0:0:
423,115,323078,1,0,0:0:0:0:
419,136,323163,1,2,0:0:0:0:
416,157,323248,5,8,0:0:0:0:
322,186,323417,1,8,0:0:0:0:
497,209,323587,6,0,L|476:333,1,107.999996704102,4|0,0:0|0:0,0:0:0:0:
397,303,323841,1,2,0:0:0:0:
397,303,323926,2,0,P|364:304|337:311,1,53.9999983520508,0|2,0:0|0:0,0:0:0:0:
48,332,324180,6,0,P|106:339|160:320,1,107.999996704102,4|2,0:0|0:0,0:0:0:0:
224,244,324434,2,0,L|235:309,1,53.9999983520508,0|2,0:0|0:0,0:0:0:0:
141,241,324604,2,0,L|126:152,1,90,4|8,0:3|0:3,0:0:0:0:
35,66,324943,6,0,L|228:50,1,161.999995056153,4|2,0:0|0:0,0:0:0:0:
227,35,325282,1,0,0:0:0:0:
397,116,325451,1,0,0:0:0:0:
397,116,325536,2,0,L|279:108,1,107.999996704102,4|2,0:0|0:0,0:0:0:0:
203,134,325790,2,0,L|194:196,1,53.9999983520508,0|2,0:0|0:0,0:0:0:0:
142,242,325960,5,0,1:0:0:0:
281,187,326129,1,0,1:0:0:0:
281,187,326214,1,0,1:0:0:0:
281,187,326299,1,4,1:0:0:0:
349,294,326468,6,0,L|336:342,2,45,2|2|0,0:0|0:0|1:0,0:0:0:0:
421,222,326807,1,2,0:0:0:0:
512,256,326977,1,0,1:0:0:0:
494,154,327146,5,2,0:0:0:0:
441,317,327316,1,4,1:2:0:0:
349,294,327485,1,2,0:0:0:0:
327,288,327570,1,2,0:0:0:0:
305,282,327655,6,0,L|297:221,2,45,4|0|0,1:2|0:0|0:0,0:0:0:0:
195,323,327994,2,0,L|95:337,1,90,2|2,0:0|0:0,0:0:0:0:
70,341,328248,1,4,0:0:0:0:
70,341,328333,1,2,0:0:0:0:
61,206,328502,1,2,0:0:0:0:
61,206,328587,2,0,L|212:215,1,135,8|8,0:0|0:0,0:0:0:0:
231,217,328926,1,0,0:0:0:0:
266,220,329011,5,4,0:0:0:0:
254,122,329180,1,2,0:0:0:0:
477,87,329350,5,2,0:0:0:0:
465,185,329519,1,2,0:0:0:0:
465,185,329604,1,4,0:0:0:0:
465,185,329689,1,2,0:0:0:0:
361,146,329858,1,2,0:0:0:0:
361,146,329943,2,0,L|356:88,3,45,2|4|0|8,0:0|0:3|0:0|0:3,0:0:0:0:
479,298,330366,5,4,0:0:0:0:
479,298,330451,1,2,0:0:0:0:
479,298,330536,1,2,0:0:0:0:
173,343,330705,2,0,L|101:352,1,45,2|0,0:0|0:0,0:0:0:0:
257,319,330875,2,0,L|308:319,1,45,2|4,0:0|0:0,0:0:0:0:
192,266,331044,2,0,P|186:221|190:166,1,90,2|2,0:0|0:0,0:0:0:0:
442,96,331383,2,0,P|448:141|444:196,1,90,10|8,0:2|0:0,0:0:0:0:
322,202,331722,6,0,L|319:148,2,45,4|2|2,0:0|0:0|0:0,0:0:0:0:
234,94,332061,2,0,P|181:86|98:137,1,135,2|4,0:0|0:0,0:0:0:0:
98,155,332400,1,2,0:0:0:0:
193,178,332570,1,0,1:0:0:0:
125,253,332739,2,0,P|119:302|109:353,1,90,0|0,1:0|1:0,0:0:0:0:
231,320,333078,6,2,B|302:281|302:281|386:305,1,161.999995056153,2|2,0:0|0:0,0:0:0:0:
379,303,333417,1,0,0:0:0:0:
477,293,333587,6,0,P|474:332|459:366,1,67.5000025749208,2|0,0:0|0:0,0:0:0:0:
417,212,333926,1,2,0:0:0:0:
361,133,334095,2,0,P|364:94|379:60,1,67.5000025749208,2|0,0:0|0:0,0:0:0:0:
326,225,334434,5,2,1:2:0:0:
295,210,334519,1,2,1:2:0:0:
261,211,334604,1,2,1:2:0:0:
229,224,334689,1,2,1:2:0:0:
208,250,334773,1,0,1:2:0:0:
26,43,335112,6,0,L|14:123,1,67.5000025749208,0|2,0:0|0:0,0:0:0:0:
100,178,335451,2,0,L|112:98,1,67.5000025749208,2|0,0:0|0:0,0:0:0:0:
218,82,335790,6,2,L|392:69,1,161.999995056153
379,69,336129,1,0,0:0:0:0:
454,185,336299,6,0,P|465:140|463:109,1,67.5000025749208,2|0,0:0|0:0,0:0:0:0:
376,234,336638,1,2,0:0:0:0:
376,234,336722,1,2,0:0:0:0:
376,234,336807,2,0,P|365:189|367:158,1,67.5000025749208,0|2,0:0|0:0,0:0:0:0:
144,234,337146,5,2,1:2:0:0:
171,214,337231,1,2,1:2:0:0:
204,206,337316,1,2,1:2:0:0:
237,210,337400,1,2,1:2:0:0:
268,223,337485,1,2,1:2:0:0:
213,300,337655,5,2,0:0:0:0:
308,312,337824,2,0,L|397:293,2,67.5000025749208,0|2|0,0:0|0:0|0:0,0:0:0:0:
454,365,338333,1,2,0:0:0:0:
454,365,338417,1,2,0:0:0:0:
454,365,338502,6,2,B|473:282|473:282|431:208,1,161.999995056153
435,215,338841,1,0,0:0:0:0:
345,156,339011,5,2,0:0:0:0:
437,116,339180,2,0,L|454:68,2,33.7500012874604,0|2|0,0:0|0:0|0:0,0:0:0:0:
349,254,339519,2,0,P|292:263|260:264,1,67.5000025749208,2|0,0:0|0:0,0:0:0:0:
197,149,339858,5,2,1:2:0:0:
169,129,339943,1,2,1:2:0:0:
135,125,340027,1,2,1:2:0:0:
102,135,340112,1,2,1:2:0:0:
80,160,340197,1,2,1:3:0:0:
95,53,340366,5,2,0:3:0:0:
144,212,340536,1,2,0:3:0:0:
226,72,340705,1,2,0:0:0:0:
226,72,340790,1,2,0:0:0:0:
226,72,340875,2,0,L|237:22,2,33.7500012874604,4|0|0,0:0|0:0|0:0,0:0:0:0:
310,122,341214,6,2,L|483:110,1,161.999995056153,0|0,0:0|0:0,0:0:0:0:
471,110,341553,1,0,0:0:0:0:
471,110,341892,6,0,P|470:165|475:207,1,90,0|2,0:0|0:0,0:0:0:0:
342,365,342231,2,0,P|343:310|338:268,1,90,2|2,0:0|0:0,0:0:0:0:
336,248,342485,1,2,0:0:0:0:
332,221,342570,6,0,P|330:193|331:170,2,45,2|2|2,1:2|1:2|1:2,0:0:0:0:
159,333,342909,2,0,L|249:325,1,90,0|2,0:0|0:0,0:0:0:0:
434,353,343248,1,0,0:0:0:0:
434,353,343333,1,2,0:0:0:0:
434,353,343417,1,2,0:0:0:0:
453,245,343587,2,0,L|470:190,3,45,2|0|0|0,0:0|0:0|0:0|0:0,0:0:0:0:
477,169,343926,5,0,0:0:0:0:
444,60,344095,1,2,0:0:0:0:
333,57,344265,1,0,0:0:0:0:
295,165,344434,1,2,0:0:0:0:
384,232,344604,1,2,0:0:0:0:
68,52,345282,6,0,P|64:104|84:136,1,90,2|0,0:0|0:0,0:0:0:0:
172,156,345617,2,0,P|192:195|186:238,1,90,2|0,0:0|0:0,0:0:0:0:
132,312,345952,1,0,0:0:0:0:
44,308,346119,1,0,0:0:0:0:
92,232,346287,1,2,0:0:0:0:
208,356,346455,1,0,0:0:0:0:
208,356,346538,1,0,0:0:0:0:
208,356,346622,6,0,P|264:312|328:320,1,135,2|0,0:0|0:0,0:0:0:0:
392,360,346957,2,0,L|340:228,1,135,2|0,0:0|0:0,0:0:0:0:
372,160,347293,2,0,P|316:204|252:196,1,135,2|0,0:0|0:0,0:0:0:0:
188,156,347628,2,0,L|240:288,1,135,2|0,0:0|0:0,0:0:0:0:
208,356,347963,6,0,L|116:336,1,90,2|0,0:0|0:0,0:0:0:0:
32,320,348298,1,2,0:0:0:0:
112,368,348466,1,0,0:0:0:0:
256,256,348633,6,0,L|164:236,1,90,2|0,0:0|0:0,0:0:0:0:
40,212,348969,1,2,0:0:0:0:
148,304,349136,1,0,0:0:0:0:
176,140,349304,2,0,P|180:92|160:48,1,90,2|0,0:0|0:0,0:0:0:0:
224,208,349639,2,0,P|251:168|256:120,1,90,2|0,0:0|0:0,0:0:0:0:
236,292,349974,2,0,P|279:271|307:232,2,90,2|0|0,0:0|0:0|0:0,0:0:0:0:
40,212,350477,1,0,0:0:0:0:
32,180,350561,1,0,0:0:0:0:
24,148,350645,6,0,L|40:52,1,90,2|0,0:0|0:0,0:0:0:0:
140,20,350980,2,0,L|156:116,1,90,2|0,0:0|0:0,0:0:0:0:
236,180,351315,2,0,L|252:84,1,90,2|0,0:0|0:0,0:0:0:0:
352,52,351650,2,0,L|368:148,1,90,2|0,0:0|0:0,0:0:0:0:
384,248,351985,5,2,0:0:0:0:
400,356,352153,1,0,0:0:0:0:
252,288,352321,1,2,0:0:0:0:
236,180,352488,1,0,0:0:0:0:
351,51,352656,2,0,P|371:91|372:136,1,90,2|0,0:0|0:0,0:0:0:0:
272,372,352991,2,0,P|252:332|252:288,1,90,2|0,0:0|0:0,0:0:0:0:
236,180,353326,5,2,0:0:0:0:
132,152,353494,1,0,0:0:0:0:
108,256,353661,1,2,0:0:0:0:
4,232,353829,1,0,0:0:0:0:
24,124,353997,2,0,P|24:72|48:32,1,90,2|0,0:0|0:0,0:0:0:0:
212,284,354332,2,0,P|212:336|188:376,1,90,2|0,0:0|0:0,0:0:0:0:
108,256,354667,6,0,L|16:240,1,90,2|0,0:0|0:0,0:0:0:0:
272,208,355002,2,0,L|364:192,1,90,2|0,0:0|0:0,0:0:0:0:
88,116,355337,2,0,L|-4:100,1,90,2|0,0:0|0:0,0:0:0:0:
320,68,355673,2,0,L|412:52,1,90,2|0,0:0|0:0,0:0:0:0:
484,168,356008,5,2,0:0:0:0:
480,196,356092,1,2,0:0:0:0:
476,224,356175,1,0,0:0:0:0:
448,352,356343,1,8,0:0:0:0:
328,300,356511,2,0,L|296:304,4,18
364,176,356846,1,0,0:0:0:0:
276,80,357013,2,0,L|192:96,1,72,8|0,0:0|0:0,0:0:0:0:
76,120,357349,5,2,0:0:0:0:
8,16,357516,1,0,0:0:0:0:
84,152,357684,1,10,0:0:0:0:
148,16,357851,1,0,0:0:0:0:
76,192,358019,1,2,0:0:0:0:
8,16,358187,1,0,0:0:0:0:
84,228,358354,1,10,0:0:0:0:
148,16,358522,1,0,0:0:0:0:
76,264,358689,6,0,L|120:328,1,72,2|0,0:0|0:0,0:0:0:0:
144,336,358941,1,0,0:0:0:0:
172,348,359025,1,10,0:0:0:0:
292,300,359192,1,0,0:0:0:0:
400,372,359360,1,2,0:0:0:0:
428,368,359444,1,2,0:0:0:0:
456,364,359527,1,0,0:0:0:0:
500,244,359695,2,0,P|496:196|476:164,1,72,10|0,0:0|0:0,0:0:0:0:
352,140,360030,6,0,L|308:136,1,36,2|0,0:0|0:0,0:0:0:0:
420,92,360198,2,0,L|464:88,1,36,0|0,0:0|0:0,0:0:0:0:
344,56,360365,2,0,L|300:52,1,36,10|0,0:0|0:0,0:0:0:0:
412,8,360533,2,0,L|456:4,1,36,0|0,0:0|0:0,0:0:0:0:
344,56,360700,6,0,P|280:56|232:80,1,108,2|0,0:0|0:0,0:0:0:0:
212,140,361036,2,0,L|136:116,1,72,10|0,0:0|0:0,0:0:0:0:
116,112,361287,1,0,0:0:0:0:
88,104,361371,5,2,0:0:0:0:
156,12,361538,1,0,0:0:0:0:
212,140,361706,1,10,0:0:0:0:
144,232,361874,1,0,0:0:0:0:
88,104,362041,1,2,0:0:0:0:
76,80,362125,1,2,0:0:0:0:
64,56,362209,1,0,0:0:0:0:
224,172,362376,2,0,P|264:176|300:160,1,72,10|0,0:0|0:0,0:0:0:0:
372,104,362712,5,2,0:0:0:0:
392,204,362879,1,0,0:0:0:0:
489,58,363047,1,10,0:0:0:0:
392,204,363214,1,0,0:0:0:0:
364,61,363382,1,2,0:0:0:0:
392,204,363550,1,0,0:0:0:0:
460,103,363717,1,10,0:0:0:0:
392,204,363885,2,0,L|384:256,1,36
368,312,364052,5,2,0:0:0:0:
340,320,364136,1,2,0:0:0:0:
312,328,364220,1,0,0:0:0:0:
184,352,364388,2,0,P|160:320|152:288,1,72,10|0,0:0|0:0,0:0:0:0:
252,204,364723,1,2,0:0:0:0:
244,176,364807,1,0,0:0:0:0:
236,148,364890,1,2,0:0:0:0:
228,120,364974,1,0,0:0:0:0:
216,92,365058,6,0,L|224:48,1,36,10|0,0:0|0:0,0:0:0:0:
157,149,365226,2,0,L|131:112,1,36,2|0,0:0|0:0,0:0:0:0:
156,232,365393,2,0,L|72:216,1,72,2|0,0:0|0:0,0:0:0:0:
356,232,365728,2,0,L|439:216,1,72,10|0,0:0|0:0,0:0:0:0:
208,292,366064,1,2,0:0:0:0:
320,136,366231,1,0,0:0:0:0:
396,332,366399,1,10,0:0:0:0:
216,92,366566,1,0,0:0:0:0:
177,362,366734,6,0,P|255:370|320:296,1,180,4|8,0:0|0:0,0:0:0:0:
216,196,367234,1,0,0:0:0:0:
216,196,367400,2,0,P|209:247|227:281,1,90,2|0,0:0|0:0,0:0:0:0:
326,161,367734,1,8,0:0:0:0:
138,132,367900,1,2,0:0:0:0:
138,132,367984,1,0,0:0:0:0:
138,132,368067,6,0,L|42:119,1,90,2|0,0:0|0:0,0:0:0:0:
216,197,368400,2,0,L|275:120,1,90,8|0,0:0|0:0,0:0:0:0:
120,233,368734,2,0,L|156:322,1,90,2|0,0:0|0:0,0:0:0:0:
206,331,368984,1,2,0:0:0:0:
248,297,369067,2,2,L|250:269,4,22.5,10|0|2|0|2,0:0|0:0|0:0|0:0|0:0,0:0:0:0:
286,240,369317,1,2,0:0:0:0:
286,240,369400,6,0,P|346:205|452:230,1,180,2|8,0:0|0:0,0:0:0:0:
509,93,369900,1,0,0:0:0:0:
509,93,370067,2,0,P|459:112|420:107,1,90,2|0,0:0|0:0,0:0:0:0:
333,48,370400,1,8,0:0:0:0:
162,101,370567,1,2,0:0:0:0:
162,101,370650,1,2,0:0:0:0:
162,101,370734,6,0,L|138:194,1,90,2|0,0:0|0:0,0:0:0:0:
37,329,371067,1,8,0:0:0:0:
37,329,371150,1,0,0:0:0:0:
37,329,371234,1,2,0:0:0:0:
203,275,371400,1,2,0:0:0:0:
203,275,371484,1,2,0:0:0:0:
203,275,371567,1,0,0:0:0:0:
37,221,371734,1,8,0:0:0:0:
139,362,371900,1,0,0:0:0:0:
140,188,372067,6,0,P|125:136|96:106,1,90,2|0,0:0|0:0,0:0:0:0:
24,33,372400,2,0,P|86:63|155:45,1,135,8|0,0:0|0:0,0:0:0:0:
211,89,372734,2,0,P|267:78|311:90,1,90,2|0,0:0|0:0,0:0:0:0:
393,33,373067,1,8,0:0:0:0:
475,102,373234,1,2,0:0:0:0:
475,102,373317,1,2,0:0:0:0:
474,102,373400,6,0,L|434:193,1,90,2|0,0:0|0:0,0:0:0:0:
510,265,373734,2,0,L|470:356,1,90,8|0,0:0|0:0,0:0:0:0:
369,374,374067,1,2,0:0:0:0:
311,285,374234,1,0,0:0:0:0:
379,200,374400,1,8,0:0:0:0:
480,239,374567,1,0,0:0:0:0:
473,347,374734,6,0,P|414:381|347:363,1,135,2|0,0:0|0:0,0:0:0:0:
311,306,375067,2,0,P|317:247|350:212,1,90,8|0,0:0|0:0,0:0:0:0:
401,289,375400,2,0,L|291:381,2,135,2|2|0,0:0|0:0|0:0,0:0:0:0:
476,141,376067,6,0,P|479:114|474:89,1,45,0|0,0:0|0:0,0:0:0:0:
428,44,376234,1,2,0:0:0:0:
217,107,376400,2,0,P|214:134|219:159,1,45
265,204,376567,1,2,0:0:0:0:
339,123,376734,1,4,0:0:0:0:
40,35,377067,1,4,0:0:0:0:
38,52,377150,1,2,0:0:0:0:
36,70,377234,1,2,0:0:0:0:
34,87,377317,1,2,0:0:0:0:
32,104,377400,6,0,P|61:154|170:140,1,180,4|8,0:0|0:0,0:0:0:0:
247,65,377900,1,0,0:0:0:0:
339,123,378067,2,0,P|357:173|346:216,1,90,2|0,0:0|0:0,0:0:0:0:
272,283,378400,1,8,0:0:0:0:
179,227,378567,1,2,0:0:0:0:
179,227,378650,1,2,0:0:0:0:
179,227,378734,6,0,L|79:218,1,90,2|0,0:0|0:0,0:0:0:0:
126,355,379067,1,8,0:0:0:0:
170,351,379150,1,0,0:0:0:0:
215,347,379234,1,0,0:0:0:0:
345,368,379400,1,2,0:0:0:0:
441,270,379567,1,2,0:0:0:0:
397,259,379650,1,2,0:0:0:0:
353,247,379734,1,8,0:0:0:0:
309,236,379817,1,2,0:0:0:0:
265,225,379900,1,2,0:0:0:0:
220,213,379984,1,2,0:0:0:0:
176,202,380067,6,0,P|136:165|130:76,1,135,2|0,0:0|0:0,0:0:0:0:
125,42,380400,2,0,P|85:74|40:88,1,90,8|0,0:0|0:0,0:0:0:0:
211,98,380734,2,0,P|263:81|342:108,2,135,2|2|2,0:0|0:0|0:0,0:0:0:0:
270,187,381400,6,0,P|293:202|321:207,1,45,0|0,0:0|0:0,0:0:0:0:
384,187,381567,1,2,0:0:0:0:
494,318,381734,1,2,0:0:0:0:
456,293,381817,1,2,0:0:0:0:
413,279,381900,1,2,0:0:0:0:
369,279,381984,1,2,0:0:0:0:
325,291,382067,2,0,P|270:305|190:269,2,135,4|4|4,0:0|0:0|0:0,0:0:0:0:
361,251,382650,1,2,0:0:0:0:
361,251,382734,6,0,P|373:191|356:155,1,90,2|0,0:0|0:0,0:0:0:0:
143,41,383067,2,0,P|131:101|148:137,1,90,8|0,0:0|0:0,0:0:0:0:
250,157,383400,2,0,B|343:158|343:158|421:121,1,180,2|8,0:0|0:0,0:0:0:0:
317,43,383900,1,0,0:0:0:0:
317,43,383984,1,0,0:0:0:0:
317,43,384067,1,2,0:0:0:0:
166,116,384234,6,0,P|147:200|215:277,1,180,2|0,0:0|0:0,0:0:0:0:
298,315,384734,2,0,L|403:305,1,90,2|0,0:0|0:0,0:0:0:0:
200,270,385067,2,0,L|95:280,1,90,8|0,0:0|0:0,0:0:0:0:
16,224,385400,5,2,0:0:0:0:
102,158,385567,1,0,0:0:0:0:
146,155,385650,1,0,0:0:0:0:
191,152,385734,1,8,0:0:0:0:
284,205,385900,1,2,0:0:0:0:
376,149,386067,1,0,0:0:0:0:
420,146,386150,1,0,0:0:0:0:
465,143,386234,1,2,0:0:0:0:
509,241,386400,1,8,0:0:0:0:
422,306,386567,1,2,0:0:0:0:
378,303,386650,1,2,0:0:0:0:
332,300,386734,6,0,L|275:296,1,45,2|0,0:0|0:0,0:0:0:0:
243,351,386900,2,0,L|186:347,1,45,2|0,0:0|0:0,0:0:0:0:
157,289,387067,2,0,L|100:285,1,45,2|0,0:0|0:0,0:0:0:0:
68,340,387234,2,0,L|11:336,1,45,2|0,0:0|0:0,0:0:0:0:
11,255,387400,2,0,P|4:226|13:199,3,45,2|2|2|0,0:0|0:0|0:0|0:0,0:0:0:0:
93,152,387734,2,0,P|95:174|88:195,3,45,2|2|2|0,0:0|0:0|0:0|0:0,0:0:0:0:
23,111,388067,5,4,0:0:0:0:
56,80,388150,1,0,0:0:0:0:
100,71,388234,1,2,0:0:0:0:
142,85,388317,1,0,0:0:0:0:
171,118,388400,1,8,0:0:0:0:
205,147,388484,1,0,0:0:0:0:
248,157,388567,1,2,0:0:0:0:
292,156,388650,1,0,0:0:0:0:
332,135,388734,2,0,P|345:123|360:95,1,45,0|0,0:0|0:0,0:0:0:0:
261,97,388900,2,0,P|260:79|248:49,1,45,2|0,0:0|0:0,0:0:0:0:
186,127,389067,2,0,P|172:116|142:106,1,45,8|0,0:0|0:0,0:0:0:0:
161,203,389234,2,0,P|144:207|117:224,1,45,2|0,0:0|0:0,0:0:0:0:
204,271,389400,6,8,P|195:287|191:318,3,45,4|0|0|0,0:0|0:0|0:0|0:0,0:0:0:0:
287,269,389734,2,0,P|283:246|274:226,3,45,4|0|0|0,0:0|0:0|0:0|0:0,0:0:0:0:
330,161,390067,1,4,0:0:0:0:
373,150,390150,1,0,0:0:0:0:
416,162,390234,1,0,0:0:0:0:
449,191,390317,1,0,0:0:0:0:
468,231,390400,1,4,0:0:0:0:
467,276,390484,1,2,0:0:0:0:
446,315,390567,1,2,0:0:0:0:
410,342,390650,1,2,0:0:0:0:
365,348,390734,1,4,0:0:0:0:
424,56,392900,5,2,0:0:0:0:
408,108,392984,1,2,0:0:0:0:
392,160,393067,1,2,0:0:0:0:
64,316,393400,6,4,P|124:332|172:308,1,112.5,4|0,0:0|0:0,0:0:0:0:
200,280,393650,1,0,0:0:0:0:
216,236,393734,1,2,0:0:0:0:
212,192,393817,1,0,0:0:0:0:
188,156,393900,1,0,0:0:0:0:
144,140,393984,1,0,0:0:0:0:
100,152,394067,1,2,0:0:0:0:
116,112,394150,1,0,0:0:0:0:
112,68,394234,1,2,0:0:0:0:
96,28,394317,1,0,0:0:0:0:
56,8,394400,2,0,L|4:28,1,56.25,2|0,0:0|0:0,0:0:0:0:
192,72,394567,2,0,L|244:52,1,56.25,2|0,0:0|0:0,0:0:0:0:
284,32,394733,6,0,P|360:32|400:64,1,112.5,4|0,0:0|0:0,0:0:0:0:
420,84,394983,1,0,0:0:0:0:
416,128,395067,1,2,0:0:0:0:
452,152,395150,1,0,0:0:0:0:
472,192,395233,1,0,0:0:0:0:
472,236,395317,1,0,0:0:0:0:
452,276,395400,1,2,0:0:0:0:
416,304,395483,1,0,0:0:0:0:
372,304,395567,1,2,0:0:0:0:
332,284,395650,1,0,0:0:0:0:
308,244,395733,2,0,P|308:208|324:184,1,56.25,2|0,0:0|0:0,0:0:0:0:
264,84,395900,2,0,P|264:120|248:144,1,56.25,2|0,0:0|0:0,0:0:0:0:
224,172,396067,6,0,P|164:188|108:172,1,112.5,4|0,0:0|0:0,0:0:0:0:
80,148,396317,1,0,0:0:0:0:
64,108,396400,1,2,0:0:0:0:
68,64,396483,1,0,0:0:0:0:
100,32,396567,1,0,0:0:0:0:
144,20,396650,1,0,0:0:0:0:
188,32,396733,1,2,0:0:0:0:
216,68,396817,1,0,0:0:0:0:
260,56,396900,1,2,0:0:0:0:
304,60,396983,1,0,0:0:0:0:
344,84,397067,2,0,P|364:108|372:132,1,56.25,2|0,0:0|0:0,0:0:0:0:
356,172,397233,2,0,P|365:198|383:219,1,56.25,2|0,0:0|0:0,0:0:0:0:
424,240,397400,5,4,0:0:0:0:
208,360,397567,1,0,0:0:0:0:
340,344,397733,1,2,0:0:0:0:
103,276,397900,1,0,0:0:0:0:
171,39,398067,1,4,0:0:0:0:
88,144,398233,1,0,0:0:0:0:
408,107,398400,1,2,0:0:0:0:
304,24,398567,1,2,0:0:0:0:
288,64,398650,1,0,0:0:0:0:
272,104,398733,6,0,P|264:168|292:224,1,112.5,4|0,0:0|0:0,0:0:0:0:
316,244,398983,1,0,0:0:0:0:
360,256,399067,1,2,0:0:0:0:
404,244,399150,1,0,0:0:0:0:
432,208,399233,1,0,0:0:0:0:
436,164,399317,1,0,0:0:0:0:
420,120,399400,1,2,0:0:0:0:
452,88,399483,1,0,0:0:0:0:
452,44,399567,1,0,0:0:0:0:
428,8,399650,1,0,0:0:0:0:
384,0,399733,2,0,L|328:16,1,56.25,2|0,0:0|0:0,0:0:0:0:
268,64,399900,2,0,L|212:48,1,56.25,2|0,0:0|0:0,0:0:0:0:
140,24,400067,6,0,P|156:84|144:140,1,112.5,4|0,0:0|0:0,0:0:0:0:
128,172,400317,1,0,0:0:0:0:
88,192,400400,1,2,0:0:0:0:
112,232,400483,1,0,0:0:0:0:
116,276,400567,1,0,0:0:0:0:
100,320,400650,1,0,0:0:0:0:
68,352,400733,1,2,0:0:0:0:
112,336,400817,1,0,0:0:0:0:
156,336,400900,1,2,0:0:0:0:
200,352,400983,1,0,0:0:0:0:
236,376,401067,2,0,L|296:356,1,56.25,2|0,0:0|0:0,0:0:0:0:
336,296,401233,2,0,L|276:276,1,56.25,2|0,0:0|0:0,0:0:0:0:
232,224,401400,6,0,P|224:168|244:112,1,112.5,4|0,0:0|0:0,0:0:0:0:
272,84,401650,1,0,0:0:0:0:
316,72,401733,1,2,0:0:0:0:
360,80,401817,1,0,0:0:0:0:
396,108,401900,1,0,0:0:0:0:
416,148,401983,1,0,0:0:0:0:
416,192,402067,1,2,0:0:0:0:
448,224,402150,1,0,0:0:0:0:
460,268,402233,1,2,0:0:0:0:
452,312,402317,1,0,0:0:0:0:
432,352,402400,2,0,P|376:364|364:360,1,56.25,2|0,0:0|0:0,0:0:0:0:
336,296,402567,2,0,P|308:296|282:308,1,56.25,2|0,0:0|0:0,0:0:0:0:
256,344,402733,5,4,0:0:0:0:
312,192,402900,1,0,0:0:0:0:
432,352,403067,1,2,0:0:0:0:
208,192,403233,1,0,0:0:0:0:
168,172,403317,1,0,0:0:0:0:
128,152,403400,2,0,P|124:120|128:88,1,56.25,2|0,0:0|0:0,0:0:0:0:
220,20,403567,2,0,P|224:52|220:84,1,56.25,2|0,0:0|0:0,0:0:0:0:
292,188,403733,2,0,P|288:156|292:124,1,56.25,2|0,0:0|0:0,0:0:0:0:
384,56,403900,2,0,P|388:88|384:120,1,56.25,2|0,0:0|0:0,0:0:0:0:
372,192,404067,6,0,L|416:284,1,90,4|0,0:0|0:0,0:0:0:0:
476,372,404400,1,2,0:0:0:0:
360,356,404567,1,0,0:0:0:0:
327,340,404650,1,0,0:0:0:0:
291,334,404733,1,2,0:0:0:0:
256,345,404817,1,0,0:0:0:0:
229,369,404900,1,0,0:0:0:0:
136,296,405067,1,2,0:0:0:0:
32,344,405233,6,0,L|4:384,2,45,0|0|2,0:0|0:0|0:0,0:0:0:0:
44,228,405567,1,0,0:0:0:0:
0,120,405733,1,2,0:0:0:0:
116,136,405900,1,0,0:0:0:0:
116,136,405983,1,0,0:0:0:0:
116,136,406067,2,0,L|160:124,2,45,2|0|2,0:0|0:0|0:0,0:0:0:0:
68,28,406400,1,2,0:0:0:0:
44,228,406567,5,0,0:0:0:0:
44,228,406650,1,0,0:0:0:0:
44,228,406733,2,0,P|88:260|128:260,1,90,2|0,0:0|0:0,0:0:0:0:
236,228,407067,2,0,P|280:232|314:261,1,90,2|0,0:0|0:0,0:0:0:0:
328,296,407317,1,0,0:0:0:0:
324,332,407400,2,0,L|424:364,1,90,2|0,0:0|0:0,0:0:0:0:
480,264,407733,2,0,L|380:232,1,90,2|0,0:0|0:0,0:0:0:0:
368,212,407983,1,0,0:0:0:0:
348,184,408067,6,0,P|352:139|381:105,1,90,2|0,0:0|0:0,0:0:0:0:
130,105,408400,2,0,P|159:139|164:184,1,90,2|0,0:0|0:0,0:0:0:0:
144,212,408650,1,0,0:0:0:0:
120,240,408733,2,0,L|68:228,2,45,2|0|2,0:0|0:0|0:0,0:0:0:0:
172,336,409067,1,2,0:0:0:0:
256,268,409233,1,0,0:0:0:0:
256,268,409317,1,0,0:0:0:0:
256,268,409400,6,0,L|364:296,1,90,4|0,0:0|0:0,0:0:0:0:
452,188,409733,2,0,L|344:160,1,90,2|0,0:0|0:0,0:0:0:0:
260,140,410067,1,2,0:0:0:0:
332,60,410233,1,0,0:0:0:0:
256,268,410400,2,0,P|204:260|172:232,1,90,2|0,0:0|0:0,0:0:0:0:
124,144,410733,6,0,L|36:196,1,90,2|0,0:0|0:0,0:0:0:0:
8,292,411067,1,2,0:0:0:0:
68,380,411233,1,0,0:0:0:0:
176,376,411400,2,0,P|188:328|176:276,1,90,2|0,0:0|0:0,0:0:0:0:
164,256,411650,1,0,0:0:0:0:
140,228,411733,2,0,L|224:164,1,90,2|0,0:0|0:0,0:0:0:0:
296,104,412067,6,0,P|288:164|368:244,1,180,2|2,0:0|0:0,0:0:0:0:
472,268,412567,1,0,0:0:0:0:
444,164,412733,2,0,L|480:76,1,90,2|0,0:0|0:0,0:0:0:0:
392,12,413067,1,2,0:0:0:0:
392,12,413150,1,0,0:0:0:0:
392,12,413233,1,2,0:0:0:0:
296,60,413400,6,0,P|244:64|192:52,1,90,2|0,0:0|0:0,0:0:0:0:
132,160,413733,2,0,P|184:156|236:168,1,90,2|0,0:0|0:0,0:0:0:0:
252,268,414067,1,2,0:0:0:0:
168,336,414233,1,0,0:0:0:0:
64,312,414400,2,0,P|56:264|64:216,1,90,2|0,0:0|0:0,0:0:0:0:
104,129,414733,5,4,0:0:0:0:
188,97,414900,2,0,P|246:139|351:107,1,180,2|0,0:0|0:0,0:0:0:0:
462,109,415400,2,0,L|495:20,1,90,2|0,0:0|0:0,0:0:0:0:
344,113,415733,2,0,L|376:198,1,90,2|0,0:0|0:0,0:0:0:0:
271,42,416067,5,4,0:0:0:0:
188,97,416233,2,0,P|159:167|207:256,1,180,2|0,0:0|0:0,0:0:0:0:
348,178,416733,2,0,P|280:163|257:172,1,90,2|0,0:0|0:0,0:0:0:0:
247,358,417067,2,0,P|315:373|338:364,1,90,2|0,0:0|0:0,0:0:0:0:
369,341,417317,1,0,0:0:0:0:
369,341,417400,1,4,0:0:0:0:
299,270,417567,6,0,B|211:238|211:302|123:270,1,180,2|0,0:0|0:0,0:0:0:0:
23,113,418067,1,2,0:0:0:0:
113,54,418233,1,0,0:0:0:0:
206,109,418400,2,0,P|227:161|214:209,1,90,2|0,0:0|0:0,0:0:0:0:
113,54,418733,6,0,P|168:11|250:13,2,135,4|0|2,0:0|0:0|0:0,0:0:0:0:
114,162,419400,2,0,P|120:222|106:260,1,90,4|0,0:0|0:0,0:0:0:0:
250,319,419733,2,0,P|239:275|247:231,1,90,0|2,0:0|0:0,0:0:0:0:
278,198,419983,1,2,0:0:0:0:
278,198,420067,1,4,0:0:0:0:
377,154,420233,5,0,0:0:0:0:
464,217,420400,1,2,0:0:0:0:
452,325,420567,1,0,0:0:0:0:
353,369,420733,1,0,0:0:0:0:
266,306,420900,1,2,0:0:0:0:
278,198,421067,1,2,0:0:0:0:
364,262,421233,1,0,0:0:0:0:
364,262,421317,1,0,0:0:0:0:
364,262,421400,1,4,0:0:0:0:
266,306,421567,5,2,0:0:0:0:
184,235,421733,2,0,P|180:187|196:145,1,90
358,164,422067,2,0,P|318:191|274:198,1,90,2|0,0:0|0:0,0:0:0:0:
208,51,422400,2,0,P|251:71|279:106,1,90,2|0,0:0|0:0,0:0:0:0:
286,143,422650,1,0,0:0:0:0:
286,143,422733,1,4,0:0:0:0:
376,78,422900,5,0,0:0:0:0:
461,144,423067,2,0,L|487:243,1,90,2|0,0:0|0:0,0:0:0:0:
375,228,423400,2,0,L|401:327,1,90,6|0,0:0|0:0,0:0:0:0:
291,295,423733,2,0,P|250:334|168:333,1,135,2|0,0:0|0:0,0:0:0:0:
137,309,424067,6,0,L|100:227,1,90,4|0,0:0|0:0,0:0:0:0:
375,75,424400,2,0,L|412:157,1,90,4|0,0:0|0:0,0:0:0:0:
100,157,424733,2,0,L|137:75,1,90,4|0,0:0|0:0,0:0:0:0:
412,227,425067,2,0,L|375:309,1,90,4|0,0:0|0:0,0:0:0:0:
256,192,425400,5,4,0:0:0:0:
161,244,425567,1,0,0:0:0:0:
161,244,425650,1,0,0:0:0:0:
161,244,425733,2,0,P|149:297|167:347,1,90,8|0,0:0|0:0,0:0:0:0:
346,232,426067,2,0,P|354:188|342:145,1,90,2|0,0:0|0:0,0:0:0:0:
191,54,426400,5,8,0:0:0:0:
260,216,426567,1,0,0:0:0:0:
299,45,426733,1,2,0:0:0:0:
167,160,426900,1,0,0:0:0:0:
342,146,427067,2,0,P|400:150|445:176,1,90,8|0,0:0|0:0,0:0:0:0:
167,160,427400,2,0,P|103:142|67:115,1,90,2|0,0:0|0:0,0:0:0:0:
191,54,427733,1,8,0:0:0:0:
253,142,427900,5,2,0:0:0:0:
253,142,427983,1,2,0:0:0:0:
253,142,428067,2,0,L|266:244,1,90,4|0,0:0|0:0,0:0:0:0:
344,303,428400,1,8,0:0:0:0:
449,277,428567,1,0,0:0:0:0:
449,277,428733,2,0,P|474:219|455:151,1,135,2|0,0:0|0:0,0:0:0:0:
413,117,429067,2,0,P|369:110|311:131,1,90,8|0,0:0|0:0,0:0:0:0:
228,75,429400,5,6,0:0:0:0:
146,146,429567,1,0,0:0:0:0:
146,146,429650,1,0,0:0:0:0:
146,146,429733,2,0,P|133:208|145:246,1,90,8|0,0:0|0:0,0:0:0:0:
396,320,430067,2,0,P|402:275|388:233,1,90,2|0,0:0|0:0,0:0:0:0:
266,242,430400,1,0,0:0:0:0:
191,320,430567,5,2,0:0:0:0:
191,320,430650,1,2,0:0:0:0:
191,320,430733,2,0,P|135:333|89:321,1,90,4|0,0:0|0:0,0:0:0:0:
85,119,431067,2,0,P|141:106|187:118,1,90,8|0,0:0|0:0,0:0:0:0:
138,219,431400,1,2,0:0:0:0:
245,207,431567,1,0,0:0:0:0:
245,207,431650,1,0,0:0:0:0:
245,207,431733,2,0,L|343:199,1,90,8|0,0:0|0:0,0:0:0:0:
430,148,432067,6,0,P|451:106|453:61,1,90,6|0,0:0|0:0,0:0:0:0:
417,270,432400,2,0,P|460:251|491:218,1,90,10|0,0:0|0:0,0:0:0:0:
329,355,432733,2,0,P|374:369|419:363,1,90,2|0,0:0|0:0,0:0:0:0:
325,265,433067,1,8,0:0:0:0:
229,315,433233,1,2,0:0:0:0:
229,315,433317,1,2,0:0:0:0:
229,315,433400,5,4,0:0:0:0:
126,281,433567,1,8,0:0:0:0:
81,182,433733,1,10,0:0:0:0:
180,137,433900,1,8,0:0:0:0:
225,236,434067,2,0,L|247:247,6,22.5,6|0|0|0|10|0|0,0:0|0:0|0:0|0:0|0:0|0:0|0:0,0:0:0:0:
276,251,434400,1,10,0:0:0:0:
320,253,434483,1,0,0:0:0:0:
363,241,434567,1,10,0:0:0:0:
402,218,434650,1,0,0:0:0:0:
429,183,434733,6,0,P|449:136|447:88,1,90,12|0,0:0|0:0,0:0:0:0:
200,51,435067,2,0,P|180:98|182:146,1,90,4|0,0:0|0:0,0:0:0:0:
316,117,435400,2,0,L|284:268,1,135,4|0,0:0|0:0,0:0:0:0:
284,324,435733,2,0,L|296:348,7,22.5,4|0|0|0|0|0|0|0,0:0|0:0|0:0|0:0|0:0|0:0|0:0|0:0,0:0:0:0:
208,332,436067,5,4,0:0:0:0:
88,44,439598,6,0,P|86:71|92:96,1,45
200,236,440198,2,0,P|201:208|196:184,1,45,0|0,0:0|0:0,0:0:0:0:
40,192,440798,2,0,L|24:156,2,22.5
168,348,441398,1,0,0:0:0:0:
256,308,441698,1,0,0:0:0:0:
344,348,441998,1,0,0:0:0:0:
432,320,442298,2,0,L|456:332,2,22.5
356,264,442898,1,0,0:0:0:0:
340,176,443198,1,0,0:0:0:0:
352,148,443351,1,0,0:0:0:0:
368,124,443504,6,0,L|404:108,1,22.5,4|0,3:1|0:0,0:0:0:0:
476,192,443810,2,0,L|448:188,1,22.5,0|0,1:0|0:0,0:0:0:0:
356,264,444116,2,0,L|388:256,1,22.5,4|0,3:1|0:0,0:0:0:0:
452,300,444422,6,0,P|372:276|292:324,1,180,6|8,0:0|2:3,0:0:0:0:
220,356,445313,2,0,B|136:320|136:384|40:348,1,180
4,272,446204,1,2,0:0:0:0:
44,192,446501,1,2,0:0:0:0:
89,117,446798,6,0,P|153:69|249:85,1,180,2|8,0:0|2:3,0:0:0:0:
247,83,447986,2,0,L|343:75,1,90,2|2,0:0|0:0,0:0:0:0:
465,257,448580,2,0,L|375:249,1,90,2|2,0:0|0:0,0:0:0:0:
288,204,449174,6,0,P|200:200|136:260,1,180,4|8,1:2|2:3,0:0:0:0:
60,328,450065,1,0,0:0:0:0:
60,328,450659,2,0,L|40:216,2,90,2|8|0,0:0|2:3|0:0,0:0:0:0:
152,368,451550,2,0,P|240:372|304:312,1,180,4|8,3:0|2:3,0:0:0:0:
260,60,452441,5,2,0:0:0:0:
284,92,452590,1,0,0:0:0:0:
288,132,452738,2,0,P|284:180|276:200,1,45,4|0,1:2|0:0,0:0:0:0:
256,256,453035,1,2,0:0:0:0:
256,256,453184,1,0,0:0:0:0:
424,208,453332,2,0,P|428:256|436:276,1,45,4|0,1:2|0:0,0:0:0:0:
456,332,453629,1,2,0:0:0:0:
456,332,453778,1,0,0:0:0:0:
456,332,453926,6,0,P|384:372|288:356,1,180,4|8,1:2|2:3,0:0:0:0:
120,384,454799,1,0,0:0:0:0:
72,248,455091,2,0,L|48:148,1,90,2|0,0:0|0:0,0:0:0:0:
144,80,455673,2,0,L|168:180,1,90,8|0,2:3|0:0,0:0:0:0:
196,284,456256,6,0,L|288:272,1,90,2|0,0:0|0:0,0:0:0:0:
444,200,456838,2,0,L|352:188,1,90,8|0,2:3|0:0,0:0:0:0:
196,104,457421,2,0,L|288:92,1,90,2|2,0:0|0:0,0:0:0:0:
444,200,458003,1,8,2:3:0:0:
432,280,458294,1,0,0:0:0:0:
372,336,458586,6,0,P|336:356|288:356,1,90,4|0,1:2|0:0,0:0:0:0:
212,336,459168,1,8,2:3:0:0:
212,336,459751,5,2,0:0:0:0:
76,360,460042,1,2,0:0:0:0:
48,220,460333,1,2,0:0:0:0:
184,196,460625,1,2,0:0:0:0:
260,228,460916,6,0,P|316:220|344:196,1,90,2|0,0:0|0:0,0:0:0:0:
492,284,461498,2,0,L|388:268,1,90,2|0,0:0|0:0,0:0:0:0:
424,368,462081,2,0,L|328:352,1,90,2|0,0:0|0:0,0:0:0:0:
256,332,462518,1,0,0:0:0:0:
256,332,462663,2,0,L|272:284,2,45,2|0|0,0:0|0:0|0:0,0:0:0:0:
144,328,463246,6,0,P|120:272|124:224,1,90,4|0,1:2|0:0,0:0:0:0:
368,56,463822,2,0,P|392:112|388:160,1,90,8|0,2:3|0:0,0:0:0:0:
80,208,464399,2,0,P|103:152|140:121,1,90,2|0,0:0|0:0,0:0:0:0:
431,175,464976,2,0,P|408:231|371:262,1,90,8|0,2:3|0:0,0:0:0:0:
120,80,465553,2,0,P|176:56|224:60,1,90,2|0,0:0|0:0,0:0:0:0:
392,304,466130,2,0,P|335:328|288:324,1,90,8|0,2:3|0:0,0:0:0:0:
399,89,466707,2,0,P|408:149|391:195,1,90,2|0,0:0|0:0,0:0:0:0:
112,294,467284,2,0,P|103:234|120:188,1,90,8|0,2:3|0:0,0:0:0:0:
200,96,467861,6,0,L|100:72,1,90,8|0,2:3|0:0,0:0:0:0:
312,96,468438,2,0,L|412:72,1,90,8|0,2:3|0:0,0:0:0:0:
144,180,469015,2,0,L|44:156,1,90,8|0,2:3|0:0,0:0:0:0:
352,180,469592,2,0,L|452:156,1,90,8|0,2:3|0:0,0:0:0:0:
256,276,470169,1,2,0:0:0:0:
256,276,470457,2,0,L|236:332,1,45,2|0,0:0|0:0,0:0:0:0:
172,368,470746,2,0,P|124:356|88:324,1,90,6|0,0:0|0:0,0:0:0:0:
120,120,471322,6,4,L|104:72,2,45,4|0|4,0:0|0:0|0:0,1:2:0:0:
292,276,471899,2,0,L|276:324,2,45,4|0|4,0:0|0:0|0:0,0:0:0:0:
376,76,472476,1,4,0:0:0:0:
256,192,472621,12,0,478390,0:0:0:0:
