osu file format v14

[General]
AudioFilename: audio.mp3
AudioLeadIn: 0
PreviewTime: 88285
Countdown: 0
SampleSet: Soft
StackLeniency: 0.7
Mode: 0
LetterboxInBreaks: 0
EpilepsyWarning: 1
WidescreenStoryboard: 1

[Editor]
Bookmarks: 11044,55182,66216
DistanceSpacing: 1.2
BeatDivisor: 4
GridSize: 4
TimelineZoom: 1.6

[Metadata]
Title:YUKARI
TitleUnicode:YUKARI
Artist:Ocelot
ArtistUnicode:Ocelot
Creator:Nhawak
Version:NiNo's Hard
Source:CROSSxBEATS
Tags:oriental drumstep Plaudible SnowNiNo_ Mikii Rohit6 Nerova Riuz GX Kanari
BeatmapID:1174887
BeatmapSetID:497536

[Difficulty]
HPDrainRate:5
CircleSize:4
OverallDifficulty:6
ApproachRate:8
SliderMultiplier:1.4
SliderTickRate:1

[Events]
//Background and Video events
0,0,"BG.jpg",0,0
//Break Periods
2,55382,59949
//Storyboard Layer 0 (Background)
//Storyboard Layer 1 (Fail)
//Storyboard Layer 2 (Pass)
//Storyboard Layer 3 (Foreground)
Sprite,Foreground,Centre,"sb\highlight.png",320,240 F,0,66130,66216,0,1 P,0,66216,,A M,0,66216,66389,312.2849,323.463,379.1702,307.6243 F,0,66216,66906,1 M,0,66389,66561,379.1702,307.6243,431.6012,355.2296 M,0,66561,66734,431.6012,355.2296,509.2041,312.0463 M,0,66734,66906,509.2041,312.0463,508.6684,313.6438 F,0,66906,67251,1,0
Sprite,Foreground,Centre,"sb\highlight.png",320,240 F,0,71647,71733,0,1 P,0,71733,,A M,0,71733,71906,269.5014,188.0986,339.8935,189.7942 F,0,71733,72423,1 M,0,71906,72078,339.8935,189.7942,390.9218,204.435 M,0,72078,72251,390.9218,204.435,460.1082,212.4518 M,0,72251,72423,460.1082,212.4518,423.8027,284.8877 F,0,72423,72768,1,0
Sprite,Foreground,Centre,"sb\highlight.png",320,240 F,0,77165,77251,0,1 P,0,77251,,A M,0,77251,77424,292.6466,124.9754,280.2771,192.5997 F,0,77251,77941,1 M,0,77424,77596,280.2771,192.5997,241.53,245.8159 M,0,77596,77769,241.53,245.8159,227.2534,314.8519 M,0,77769,77941,227.2534,314.8519,305.2712,282.7836 F,0,77941,78286,1,0
Sprite,Foreground,Centre,"sb\highlight.png",320,240 F,0,82682,82768,0,1 P,0,82768,,A M,0,82768,82941,446.2466,82.89316,381.2743,64.95039 F,0,82768,83458,1 M,0,82941,83113,381.2743,64.95039,325.6943,85.20215 M,0,83113,83286,325.6943,85.20215,259.5164,76.38608 M,0,83286,83458,259.5164,76.38608,277.9178,153.7315 F,0,83458,83803,1,0
Sprite,Foreground,Centre,"sb\highlight.png",320,240 F,0,87510,87596,0,1 P,0,87596,,A M,0,87596,87769,139.748,171.2658,188.3976,217.849 F,0,87596,88286,1 M,0,87769,87941,188.3976,217.849,175.6012,285.0926 M,0,87941,88114,175.6012,285.0926,119.2424,308.5395 M,0,88114,88286,119.2424,308.5395,85.7424,347.3096 F,0,88286,88631,1,0 M,0,88286,88724,85.7424,347.3096,85.7424,348.3096
Sprite,Foreground,Centre,"sb\highlight.png",320,240 F,0,70268,70355,0,1 M,0,70355,,296.8549,320.6576 C,0,70355,,255,128,128 P,0,70355,,A F,0,70355,71044,1,0
Sprite,Foreground,Centre,"sb\highlight.png",320,240 F,0,70785,70872,0,1 M,0,70872,,219.7042,401.3151 C,0,70872,,255,128,128 P,0,70872,,A F,0,70872,71561,1,0
Sprite,Foreground,Centre,"sb\highlight.png",320,240 F,0,70958,71045,0,1 M,0,71045,,190.9481,297.5124 C,0,71045,,255,128,128 P,0,71045,,A F,0,71045,71734,1,0
Sprite,Foreground,Centre,"sb\highlight.png",320,240 F,0,71303,71390,0,1 M,0,71390,,201.4687,139.0028 C,0,71390,,255,128,128 P,0,71390,,A F,0,71390,72079,1,0
Sprite,Foreground,Centre,"sb\highlight.png",320,240 F,0,71475,71562,0,1 M,0,71562,,197.2604,140.4055 C,0,71562,,255,128,128 P,0,71562,,A F,0,71562,72251,1,0
Sprite,Foreground,Centre,"sb\highlight.png",320,240 F,0,75785,75872,0,1 M,0,75872,,392.2412,245.611 C,0,75872,,255,128,128 P,0,75872,,A F,0,75872,76561,1,0
Sprite,Foreground,Centre,"sb\highlight.png",320,240 F,0,76130,76217,0,1 M,0,76217,,443.4413,100.4274 C,0,76217,,255,128,128 P,0,76217,,A F,0,76217,76906,1,0
Sprite,Foreground,Centre,"sb\highlight.png",320,240 F,0,76303,76390,0,1 M,0,76390,,443.4412,100.4274 C,0,76390,,255,128,128 P,0,76390,,A F,0,76390,77079,1,0
Sprite,Foreground,Centre,"sb\highlight.png",320,240 F,0,76475,76562,0,1 M,0,76562,,359.9782,112.3507 C,0,76562,,255,128,128 P,0,76562,,A F,0,76562,77251,1,0
Sprite,Foreground,Centre,"sb\highlight.png",320,240 F,0,76820,76907,0,1 M,0,76907,,208.4823,143.211 C,0,76907,,255,128,128 P,0,76907,,A F,0,76907,77596,1,0
Sprite,Foreground,Centre,"sb\highlight.png",320,240 F,0,76992,77079,0,1 M,0,77079,,235.8358,60.44934 C,0,77079,,255,128,128 P,0,77079,,A F,0,77079,77768,1,0
Sprite,Foreground,Centre,"sb\highlight.png",320,240 F,0,81303,81390,0,1 M,0,81390,,262.4878,249.8192 C,0,81390,,255,128,128 P,0,81390,,A F,0,81390,82079,1,0
Sprite,Foreground,Centre,"sb\highlight.png",320,240 F,0,81647,81734,0,1 M,0,81734,,343.8467,223.1671 C,0,81734,,255,128,128 P,0,81734,,A F,0,81734,82423,1,0
Sprite,Foreground,Centre,"sb\highlight.png",320,240 F,0,81992,82079,0,1 M,0,82079,,479.2111,289.0959 C,0,82079,,255,128,128 P,0,82079,,A F,0,82079,82768,1,0
Sprite,Foreground,Centre,"sb\highlight.png",320,240 F,0,82251,82338,0,1 M,0,82338,,522.696,193.0082 C,0,82338,,255,128,128 P,0,82338,,A F,0,82338,83027,1,0
Sprite,Foreground,Centre,"sb\highlight.png",320,240 F,0,82510,82597,0,1 M,0,82597,,530.4111,87.10139 C,0,82597,,255,128,128 P,0,82597,,A F,0,82597,83286,1,0
Sprite,Foreground,Centre,"sb\highlight.png",320,240 F,0,86820,86907,0,1 M,0,86907,,373.3043,182.4877 C,0,86907,,255,128,128 P,0,86907,,A F,0,86907,87596,1,0
Sprite,Foreground,Centre,"sb\highlight.png",320,240 F,0,87165,87252,0,1 M,0,87252,,261.7864,91.30962 C,0,87252,,255,128,128 P,0,87252,,A F,0,87252,87941,1,0
Sprite,Foreground,Centre,"sb\highlight.png",320,240 F,0,103372,103459,0,1 M,0,103459,,283.5289,73.77538 C,0,103459,,255,128,128 P,0,103459,,A F,0,103459,104148,1,0
Sprite,Foreground,Centre,"sb\highlight.png",320,240 F,0,103544,103631,0,1 M,0,103631,,216.8987,116.5589 C,0,103631,,255,128,128 P,0,103631,,A F,0,103631,104320,1,0
Sprite,Foreground,Centre,"sb\highlight.png",320,240 F,0,103630,103717,0,1 M,0,103717,,214.7946,116.5589 C,0,103717,,255,128,128 P,0,103717,,A F,0,103717,104406,1,0
Sprite,Foreground,Centre,"sb\highlight.png",320,240 F,0,103716,103803,0,1 M,0,103803,,213.3919,113.7535 C,0,103803,,255,128,128 P,0,103803,,A F,0,103803,104492,1,0
Sprite,Foreground,Centre,"sb\highlight.png",320,240 F,0,104061,104148,0,1 M,0,104148,,278.6193,311.5398 C,0,104148,,255,128,128 P,0,104148,,A F,0,104148,104837,1,0
Sprite,Foreground,Centre,"sb\highlight.png",320,240 F,0,104406,104493,0,1 M,0,104493,,300.3618,159.3425 C,0,104493,,255,128,128 P,0,104493,,A F,0,104493,105182,1,0
Sprite,Foreground,Centre,"sb\highlight.png",320,240 F,0,104578,104665,0,1 M,0,104665,,221.8084,185.2932 C,0,104665,,255,128,128 P,0,104665,,A F,0,104665,105354,1,0
Sprite,Foreground,Centre,"sb\highlight.png",320,240 F,0,104751,104838,0,1 M,0,104838,,361.381,213.348 C,0,104838,,255,128,128 P,0,104838,,A F,0,104838,105527,1,0
Sprite,Foreground,Centre,"sb\highlight.png",320,240 F,0,107510,107597,0,1 M,0,107597,,219.7042,287.6932 C,0,107597,,255,128,128 P,0,107597,,A F,0,107597,108286,1,0
Sprite,Foreground,Centre,"sb\highlight.png",320,240 F,0,107854,107941,0,1 M,0,107941,,372.6028,297.5124 C,0,107941,,255,128,128 P,0,107941,,A F,0,107941,108630,1,0
Sprite,Foreground,Centre,"sb\highlight.png",320,240 F,0,108027,108114,0,1 M,0,108114,,371.9015,298.9151 C,0,108114,,255,128,128 P,0,108114,,A F,0,108114,108803,1,0
Sprite,Foreground,Centre,"sb\highlight.png",320,240 F,0,108199,108286,0,1 M,0,108286,,220.4056,204.9315 C,0,108286,,255,128,128 P,0,108286,,A F,0,108286,108975,1,0
Sprite,Foreground,Centre,"sb\highlight.png",320,240 F,0,108544,108631,0,1 M,0,108631,,377.5124,216.8548 C,0,108631,,255,128,128 P,0,108631,,A F,0,108631,109320,1,0
Sprite,Foreground,Centre,"sb\highlight.png",320,240 F,0,108716,108803,0,1 M,0,108803,,376.1097,216.8548 C,0,108803,,255,128,128 P,0,108803,,A F,0,108803,109492,1,0
Sprite,Foreground,Centre,"sb\highlight.png",320,240 F,0,108889,108976,0,1 M,0,108976,,336.1316,143.211 C,0,108976,,255,128,128 P,0,108976,,A F,0,108976,109665,1,0
Sprite,Foreground,Centre,"sb\highlight.png",320,240 F,0,109406,109493,0,1 M,0,109493,,137.6439,190.9042 C,0,109493,,255,128,128 P,0,109493,,A F,0,109493,110182,1,0
Sprite,Foreground,Centre,"sb\highlight.png",320,240 F,0,109578,109665,0,1 M,0,109665,,136.9426,192.3069 C,0,109665,,255,128,128 P,0,109665,,A F,0,109665,110354,1,0
Sprite,Foreground,Centre,"sb\highlight.png",320,240 F,0,109923,110010,0,1 M,0,110010,,209.1837,230.8822 C,0,110010,,255,128,128 P,0,110010,,A F,0,110010,110699,1,0
Sprite,Foreground,Centre,"sb\highlight.png",320,240 F,0,110268,110355,0,1 M,0,110355,,282.8275,196.5151 C,0,110355,,255,128,128 P,0,110355,,A F,0,110355,111044,1,0
Sprite,Foreground,Centre,"sb\highlight.png",320,240 F,0,114406,114493,0,1 M,0,114493,,316.4933,403.4193 C,0,114493,,255,128,128 P,0,114493,,A F,0,114493,115182,1,0
Sprite,Foreground,Centre,"sb\highlight.png",320,240 F,0,98544,98631,0,1 M,0,98631,,373.3043,331.178 C,0,98631,,255,128,128 P,0,98631,,A F,0,98631,99320,1,0
Sprite,Foreground,Centre,"sb\highlight.png",320,240 F,0,98716,98803,0,1 M,0,98803,,373.3043,331.178 C,0,98803,,255,128,128 P,0,98803,,A F,0,98803,99492,1,0
Sprite,Foreground,Centre,"sb\highlight.png",320,240 F,0,98889,98976,0,1 M,0,98976,,373.3043,331.178 C,0,98976,,255,128,128 P,0,98976,,A F,0,98976,99665,1,0
Sprite,Foreground,Centre,"sb\highlight.png",320,240 F,0,99061,99148,0,1 M,0,99148,,373.3043,331.178 C,0,99148,,255,128,128 P,0,99148,,A F,0,99148,99837,1,0
Sprite,Foreground,Centre,"sb\highlight.png",320,240 F,0,99234,99321,0,1 M,0,99321,,333.3262,309.4355 C,0,99321,,255,128,128 P,0,99321,,A F,0,99321,100010,1,0
//Storyboard Sound Samples

[TimingPoints]
10,344.827586206897,4,2,1,30,1,0
10,-133.333333333333,4,2,1,30,0,0
96,-133.333333333333,4,2,3,30,0,0
11044,-100,4,2,1,60,0,0
53803,-100,4,2,1,50,0,0
54492,-100,4,2,1,30,0,0
65182,-100,4,2,1,50,0,0
65527,-100,4,2,1,60,0,0
65872,-100,4,2,1,5,0,0
66216,-100,4,2,1,60,0,0
88285,-100,4,2,10,60,0,0
88630,-100,4,2,1,60,0,0
99320,-100,4,2,1,60,0,1
100354,-100,4,2,10,60,0,1
100699,-100,4,2,1,60,0,1
105872,-100,4,2,10,60,0,1
106044,-100,4,2,1,60,0,1
110354,-100,4,2,1,60,0,0
115872,-100,4,2,1,30,0,0

[Colours]
Combo1 : 231,227,224
Combo2 : 248,133,136
Combo3 : 236,140,207
Combo4 : 226,167,122

[HitObjects]
445,80,10,6,0,P|432:113|361:146,1,105.000004005432,4|0,0:0|0:0,0:0:0:0:
310,99,527,2,0,L|199:89,1,105.000004005432,2|0,0:0|0:0,0:0:0:0:
126,80,1044,1,0,0:0:0:0:
126,80,1216,1,0,0:0:0:0:
123,158,1389,6,0,L|285:172,1,157.500006008148,0|0,0:0|0:0,0:0:0:0:
316,241,2078,2,0,L|368:236,1,52.5000020027161,2|0,0:0|0:0,0:0:0:0:
415,172,2423,2,0,L|467:176,1,52.5000020027161,0|0,0:0|0:0,0:0:0:0:
504,246,2768,6,0,P|472:270|462:347,2,105.000004005432,0|0|2,0:0|0:0|0:0,0:0:0:0:
256,192,3630,12,0,5182,0:0:0:0:
154,101,5527,6,0,L|143:224,1,105.000004005432,0|0,0:0|0:0,0:0:0:0:
212,246,6044,2,0,L|223:369,1,105.000004005432,2|0,0:0|0:0,0:0:0:0:
299,365,6561,1,0,0:0:0:0:
299,365,6734,1,0,0:0:0:0:
343,300,6906,6,0,L|358:129,1,157.500006008148,0|0,0:0|0:0,0:0:0:0:
281,119,7596,2,0,L|274:191,2,52.5000020027161,2|0|0,0:0|0:0|0:0,0:0:0:0:
340,67,8113,1,0,0:0:0:0:
357,143,8285,5,0,0:0:0:0:
245,31,8630,1,0,0:0:0:0:
104,102,8975,1,2,0:0:0:0:
129,258,9320,1,0,0:0:0:0:
285,282,9665,2,0,B|242:324|146:354|146:354|293:313|383:351,1,393.750015020371,0|0,0:0|0:0,0:0:0:0:
413,343,11044,6,0,L|418:264,1,70,6|0,0:0|0:0,0:0:0:0:
488,228,11389,2,0,L|483:149,1,70,0|0,0:0|0:0,0:0:0:0:
471,74,11734,2,0,P|430:54|400:53,1,70,2|0,0:0|0:0,0:0:0:0:
322,60,12078,1,0,0:0:0:0:
322,60,12251,1,0,0:0:0:0:
304,141,12423,6,0,L|292:303,1,140,2|0,0:0|0:0,0:0:0:0:
210,296,12941,1,0,0:0:0:0:
210,296,13027,1,0,0:0:0:0:
210,296,13113,2,0,L|204:214,1,70,2|0,0:0|0:0,0:0:0:0:
147,164,13458,2,0,L|152:82,1,70,0|0,0:0|0:0,0:0:0:0:
122,246,13803,6,0,P|81:221|69:129,1,140,2|0,0:0|0:0,0:0:0:0:
79,52,14320,1,0,0:0:0:0:
152,94,14492,2,0,P|196:108|225:108,1,70,2|0,0:0|0:0,0:0:0:0:
275,45,14837,2,0,P|319:31|348:31,1,70,0|0,0:0|0:0,0:0:0:0:
425,47,15182,6,0,B|400:120|400:120|414:191,1,140,2|0,0:0|0:0,0:0:0:0:
450,256,15699,1,0,0:0:0:0:
428,337,15872,2,0,P|380:354|349:353,1,70,2|0,0:0|0:0,0:0:0:0:
277,349,16216,1,0,0:0:0:0:
277,349,16389,1,0,0:0:0:0:
216,290,16561,6,0,L|231:146,1,140,2|0,0:0|0:0,0:0:0:0:
314,157,17078,1,2,0:0:0:0:
314,157,17251,2,0,L|299:13,1,140,2|0,0:0|0:0,0:0:0:0:
215,17,17768,1,2,0:0:0:0:
178,92,17941,6,0,P|150:115|108:128,1,70,2|0,0:0|0:0,0:0:0:0:
34,127,18285,2,0,P|25:168|26:208,1,70,0|2,0:0|0:0,0:0:0:0:
67,268,18630,2,0,P|110:249|193:298,1,140,2|0,0:0|0:0,0:0:0:0:
240,353,19147,1,2,0:0:0:0:
320,327,19320,6,0,L|331:178,1,140,2|2,0:0|0:0,0:0:0:0:
412,205,19837,1,0,0:0:0:0:
412,205,20010,2,0,L|418:292,1,70,2|2,0:0|0:0,0:0:0:0:
424,358,20354,1,2,0:0:0:0:
493,311,20527,2,0,L|497:266,1,35,2|2,0:0|0:0,0:0:0:0:
493,311,22078,6,0,L|486:236,1,70,6|0,0:0|0:0,0:0:0:0:
436,173,22423,2,0,L|443:98,1,70,0|2,0:0|0:0,0:0:0:0:
442,103,22682,1,0,0:0:0:0:
442,103,22768,1,8,0:0:0:0:
401,28,22941,2,0,P|342:60|261:52,1,140,0|8,0:0|0:0,0:0:0:0:
191,29,23458,6,0,L|197:120,1,70,2|8,0:0|0:0,0:0:0:0:
115,71,23803,2,0,L|121:162,1,70,0|0,0:0|0:0,0:0:0:0:
54,193,24147,2,0,P|122:179|189:233,1,140,8|2,0:0|0:0,0:0:0:0:
192,298,24665,1,0,0:0:0:0:
192,298,24751,1,0,0:0:0:0:
192,298,24837,6,0,L|339:305,1,140,2|0,0:0|0:0,0:0:0:0:
398,355,25354,1,2,0:0:0:0:
398,355,25441,1,2,0:0:0:0:
398,355,25527,2,0,P|365:313|370:219,1,140,8|0,0:0|0:0,0:0:0:0:
391,149,26044,1,2,0:0:0:0:
391,149,26130,1,2,0:0:0:0:
391,149,26216,6,0,L|298:137,1,70,2|8,0:0|0:0,0:0:0:0:
283,64,26561,2,0,L|190:76,1,70,2|2,0:0|0:0,0:0:0:0:
154,132,26906,2,0,P|193:178|196:242,1,105,8|2,0:0|0:0,0:0:0:0:
171,251,27251,2,0,P|159:288|161:328,1,70,8|2,0:0|0:0,0:0:0:0:
228,366,27596,6,0,P|266:357|299:336,1,70,2|0,0:0|0:0,0:0:0:0:
372,315,27941,2,0,P|410:323|443:344,1,70,0|2,0:0|0:0,0:0:0:0:
450,349,28199,1,2,0:0:0:0:
464,358,28285,2,0,L|469:204,1,140,8|0,0:0|0:0,0:0:0:0:
474,133,28803,1,8,0:0:0:0:
432,60,28975,6,0,P|392:45|353:18,1,70,2|8,0:0|0:0,0:0:0:0:
337,109,29320,2,0,P|297:124|258:151,1,70,0|2,0:0|0:0,0:0:0:0:
331,199,29665,2,0,P|322:283|326:354,1,140,8|2,0:0|0:0,0:0:0:0:
240,351,30182,1,0,0:0:0:0:
240,351,30268,1,0,0:0:0:0:
240,351,30354,6,0,P|185:326|99:328,1,140,2|0,0:0|0:0,0:0:0:0:
29,360,30872,1,2,0:0:0:0:
29,360,30958,1,2,0:0:0:0:
29,360,31044,2,0,L|39:205,1,140,8|0,0:0|0:0,0:0:0:0:
45,136,31561,1,2,0:0:0:0:
45,136,31647,1,2,0:0:0:0:
45,136,31734,6,0,P|83:125|114:124,1,70,2|8,0:0|0:0,0:0:0:0:
161,55,32078,2,0,P|199:66|230:67,1,70,2|2,0:0|0:0,0:0:0:0:
312,57,32423,1,8,0:0:0:0:
363,123,32596,1,8,0:0:0:0:
363,123,32682,1,8,0:0:0:0:
363,123,32768,2,0,L|365:205,1,70,8|2,0:0|0:0,0:0:0:0:
437,235,33113,6,0,L|435:317,1,70,6|0,0:0|0:0,0:0:0:0:
367,354,33458,2,0,P|328:342|291:344,1,70,0|2,0:0|0:0,0:0:0:0:
282,348,33716,1,2,0:0:0:0:
267,357,33803,2,0,P|216:372|124:356,1,140,8|0,0:0|0:0,0:0:0:0:
60,313,34320,1,8,0:0:0:0:
42,231,34492,6,0,L|51:146,1,70,2|8,0:0|0:0,0:0:0:0:
121,117,34837,2,0,L|112:32,1,70,0|2,0:0|0:0,0:0:0:0:
197,53,35182,2,0,P|231:86|325:93,1,140,8|2,0:0|0:0,0:0:0:0:
398,63,35699,1,0,0:0:0:0:
398,63,35785,1,0,0:0:0:0:
398,63,35872,6,0,L|407:209,1,140,2|0,0:0|0:0,0:0:0:0:
488,223,36389,1,2,0:0:0:0:
488,223,36475,1,2,0:0:0:0:
488,223,36562,2,0,L|479:369,1,140,8|0,0:0|0:0,0:0:0:0:
396,354,37078,1,2,0:0:0:0:
396,354,37165,1,2,0:0:0:0:
396,354,37251,6,0,P|359:335|319:332,1,70,2|8,0:0|0:0,0:0:0:0:
284,261,37596,2,0,P|247:280|207:283,1,70,2|2,0:0|0:0,0:0:0:0:
140,314,37941,2,0,P|166:276|170:231,1,70,8|2,0:0|0:0,0:0:0:0:
165,236,38199,1,2,0:0:0:0:
159,219,38285,2,0,P|148:174|153:148,1,70,8|2,0:0|0:0,0:0:0:0:
164,68,38630,6,0,B|237:78|237:78|306:55,1,140,2|0,0:0|0:0,0:0:0:0:
386,37,39147,1,2,0:0:0:0:
386,37,39234,1,2,0:0:0:0:
386,37,39320,2,0,P|371:122|412:177,1,140,8|0,0:0|0:0,0:0:0:0:
468,208,39837,1,8,0:0:0:0:
468,208,39923,1,0,0:0:0:0:
468,208,40010,6,0,L|462:289,1,70,2|0,0:0|0:0,0:0:0:0:
382,302,40354,2,0,L|388:383,1,70,2|2,0:0|0:0,0:0:0:0:
303,363,40699,2,0,P|272:327|178:307,1,140,8|2,0:0|0:0,0:0:0:0:
105,334,41216,1,0,0:0:0:0:
81,252,41389,6,0,L|67:104,1,140,2|0,0:0|0:0,0:0:0:0:
23,40,41906,1,2,0:0:0:0:
23,40,41992,1,2,0:0:0:0:
23,40,42078,2,0,P|76:26|130:56,1,105,8|0,0:0|0:0,0:0:0:0:
149,75,42423,2,0,P|194:92|223:89,1,70,8|2,0:0|0:0,0:0:0:0:
297,107,42768,6,0,L|302:32,2,70,6|2|2,0:1|0:0|0:0,0:0:0:0:
241,170,43285,1,2,0:0:0:0:
241,170,43372,1,2,0:0:0:0:
241,170,43458,2,0,L|246:245,1,70,2|2,0:0|0:0,0:0:0:0:
322,275,43803,2,0,L|317:350,1,70,2|2,0:0|0:0,0:0:0:0:
400,355,44147,6,0,P|439:339|464:236,1,140,6|0,0:0|0:0,0:0:0:0:
487,84,44837,2,0,L|336:71,1,140,2|0,0:0|0:0,0:0:0:0:
271,36,45354,1,0,0:0:0:0:
271,36,45527,6,0,L|120:49,1,140,2|0,0:0|0:0,0:0:0:0:
23,176,46216,2,0,P|51:200|63:245,1,70,2|0,0:0|0:0,0:0:0:0:
140,262,46561,2,0,P|112:286|100:331,1,70,2|0,0:0|0:0,0:0:0:0:
183,332,46906,6,0,L|333:324,1,140,2|0,0:0|0:0,0:0:0:0:
427,192,47596,2,0,L|287:184,1,140,2|0,0:0|0:0,0:0:0:0:
220,133,48113,1,0,0:0:0:0:
220,133,48285,6,0,L|80:140,1,140,2|0,0:0|0:0,0:0:0:0:
17,297,48975,2,0,L|93:301,1,70,2|0,0:0|0:0,0:0:0:0:
170,307,49320,1,2,0:0:0:0:
216,237,49492,1,2,0:0:0:0:
131,231,49665,6,0,P|109:198|119:93,1,140,2|0,0:0|0:0,0:0:0:0:
268,35,50354,2,0,P|290:68|280:173,1,140,2|0,0:0|0:0,0:0:0:0:
237,234,50872,1,0,0:0:0:0:
237,234,51044,6,0,P|289:249|361:200,1,140,2|0,0:0|0:0,0:0:0:0:
453,64,51734,2,0,L|463:146,1,70,2|0,0:0|0:0,0:0:0:0:
441,214,52078,2,0,L|431:296,1,70,2|0,0:0|0:0,0:0:0:0:
416,366,52423,5,2,0:0:0:0:
250,338,52768,1,0,0:0:0:0:
291,160,53113,1,2,0:0:0:0:
457,188,53458,1,0,0:0:0:0:
416,366,53803,6,0,P|374:322|289:321,1,140,2|0,0:0|0:0,0:0:0:0:
236,373,54320,1,2,0:0:0:0:
205,295,54492,2,0,L|211:212,1,70,2|0,0:0|0:0,0:0:0:0:
283,184,54837,2,0,L|277:101,1,70
275,29,55182,5,4,0:0:0:0:
256,192,60699,12,0,64492,0:0:0:0:
90,157,64837,6,0,L|83:206,3,35,0|0|0|0,0:0|0:0|0:0|0:0,0:0:0:0:
172,131,65182,2,0,L|165:82,3,35,0|0|0|0,0:0|0:0|0:0|0:0,0:0:0:0:
162,220,65527,2,0,L|155:269,3,35,0|0|0|0,0:0|0:0|0:0|0:0,0:0:0:0:
244,194,65872,2,0,L|237:145,3,35,0|0|0|0,0:0|0:0|0:0|0:0,0:0:0:0:
250,280,66216,6,0,P|298:265|376:337,1,140,6|0,0:0|0:0,0:0:0:0:
448,269,66734,1,0,0:0:0:0:
448,269,66906,2,0,L|441:188,1,70,12|0,0:1|0:0,0:0:0:0:
490,130,67251,2,0,L|495:69,3,35,0|0|0|0,0:0|0:0|0:0|0:0,0:0:0:0:
451,102,67596,6,0,P|408:93|379:71,1,70,2|0,0:0|0:0,0:0:0:0:
308,48,67941,2,0,L|311:11,3,35,0|0|0|0,0:0|0:0|0:0|0:0,0:0:0:0:
271,28,68285,2,0,L|192:36,1,70,8|0,0:0|0:0,0:0:0:0:
118,20,68630,2,0,L|39:12,1,70,0|0,0:0|0:0,0:0:0:0:
10,88,68975,6,0,P|59:108|83:190,1,140,2|0,0:0|0:0,0:0:0:0:
61,267,69492,1,0,0:0:0:0:
93,344,69665,2,0,P|138:359|171:358,1,70,8|0,0:0|0:0,0:0:0:0:
128,251,70010,2,0,P|93:253|60:266,1,70,0|0,0:0|0:0,0:0:0:0:
236,277,70354,6,0,L|241:190,2,70,2|8|0,0:0|0:0|0:0,0:0:0:0:
160,359,70872,1,2,0:0:0:0:
128,251,71044,2,0,L|133:164,1,70,8|2,0:0|0:0,0:0:0:0:
139,97,71389,1,8,0:0:0:0:
139,97,71561,1,2,0:0:0:0:
207,146,71734,6,0,B|242:163|285:145|285:145|316:173|316:173|354:145|405:173,1,210,6|0,0:0|0:0,0:0:0:0:
360,244,72423,2,0,L|353:324,1,70,12|0,0:1|0:0,0:0:0:0:
270,328,72768,2,0,L|273:362,3,35,0|0|0|0,0:0|0:0|0:0|0:0,0:0:0:0:
231,355,73113,6,0,P|188:348|157:326,1,70,2|0,0:0|0:0,0:0:0:0:
128,258,73458,1,0,0:0:0:0:
128,258,73630,1,0,0:0:0:0:
163,181,73803,2,0,P|193:164|228:160,1,70,8|0,0:0|0:0,0:0:0:0:
286,258,74147,1,0,0:0:0:0:
286,258,74319,1,0,0:0:0:0:
314,178,74492,6,0,L|319:73,1,105,2|0,0:0|0:0,0:0:0:0:
331,32,74837,2,0,P|372:49|404:53,1,70,0|0,0:0|0:0,0:0:0:0:
467,98,75182,2,0,P|425:146|431:212,1,105,8|0,0:0|0:0,0:0:0:0:
440,222,75527,2,0,P|450:254|455:295,1,70,0|0,0:0|0:0,0:0:0:0:
332,201,75872,6,0,P|336:166|346:132,1,70,4|0,0:1|0:0,0:0:0:0:
382,57,76216,1,8,0:0:0:0:
382,57,76389,1,0,0:0:0:0:
299,70,76561,2,0,P|262:79|223:82,1,70,0|8,0:0|0:0,0:0:0:0:
147,99,76906,1,8,0:0:0:0:
173,19,77078,1,8,0:0:0:0:
230,81,77251,6,0,B|241:185|143:156|169:289,1,210,6|0,0:0|0:0,0:0:0:0:
244,241,77941,2,0,P|281:256|325:259,1,70,12|0,0:1|0:0,0:0:0:0:
392,239,78285,2,0,L|403:323,1,70,0|0,0:0|0:0,0:0:0:0:
334,178,78630,6,0,L|345:94,1,70,2|0,0:0|0:0,0:0:0:0:
288,44,78975,2,0,P|249:63|207:69,1,70,0|0,0:0|0:0,0:0:0:0:
172,135,79320,2,0,P|205:142|236:159,1,70,8|0,0:0|0:0,0:0:0:0:
285,227,79665,2,0,P|256:261|248:292,1,70,0|0,0:0|0:0,0:0:0:0:
217,362,80010,6,0,B|142:340|142:340|101:359|101:359|10:336,1,210,2|0,0:0|0:0,0:0:0:0:
39,257,80699,2,0,L|32:200,2,46.6666666666667,8|0|0,0:0|0:0|0:0,0:0:0:0:
120,230,81044,2,0,L|113:173,2,46.6666666666667,0|0|0,0:0|0:0|0:0,0:0:0:0:
201,207,81389,2,0,L|194:150,2,46.6666666666667,0|0|0,0:0|0:0|0:0,0:0:0:0:
282,180,81734,2,0,P|325:210|364:215,1,70,2|0,0:0|0:0,0:0:0:0:
418,246,82078,6,0,L|427:170,1,70,8|0,0:0|0:0,0:0:0:0:
461,152,82337,2,0,L|452:76,1,70,2|0,0:0|0:0,0:0:0:0:
470,43,82596,1,2,0:0:0:0:
385,39,82768,6,0,B|347:18|306:23|306:23|280:54|280:54|243:27|190:35,1,210,6|0,0:0|0:0,0:0:0:0:
217,115,83458,2,0,L|223:168,3,35,12|0|0|0,0:1|0:0|0:0|0:0,0:0:0:0:
178,147,83803,2,0,P|119:147|91:135,1,70,0|0,0:0|0:0,0:0:0:0:
34,106,84147,5,2,0:0:0:0:
36,190,84320,1,0,0:0:0:0:
109,143,84492,1,0,0:0:0:0:
111,227,84665,1,0,0:0:0:0:
185,189,84837,2,0,L|256:185,1,70,8|0,0:0|0:0,0:0:0:0:
278,104,85182,2,0,L|349:108,1,70,0|0,0:0|0:0,0:0:0:0:
429,128,85527,6,0,B|395:201|395:201|441:336,1,210,2|0,0:0|0:0,0:0:0:0:
353,332,86216,2,0,L|326:255,1,70,8|0,0:0|0:0,0:0:0:0:
291,248,86475,2,0,L|294:167,1,70,8|0,0:0|0:0,0:0:0:0:
310,139,86734,1,8,0:0:0:0:
310,139,86820,1,8,0:0:0:0:
310,139,86906,6,0,P|258:130|236:118,1,70,8|2,0:0|0:0,0:0:0:0:
200,49,87251,2,0,P|148:58|126:70,1,70,2|2,0:0|0:0,0:0:0:0:
77,128,87596,2,0,P|113:152|17:259,1,245,8|0,0:3|0:0,0:0:0:0:
23,303,88285,6,0,P|62:343|150:350,1,140,14|8,0:1|0:0,0:0:0:0:
226,343,88803,2,0,B|205:266|205:266|232:198,1,140,2|8,0:3|0:0,0:0:0:0:
274,140,89320,1,0,0:0:0:0:
274,140,89492,1,0,0:0:0:0:
315,213,89665,6,0,P|351:232|450:244,1,140,2|8,0:3|0:0,0:0:0:0:
484,167,90182,1,2,0:3:0:0:
467,84,90354,2,0,P|426:65|385:62,1,70,0|8,0:0|0:0,0:0:0:0:
324,27,90699,2,0,P|283:46|242:49,1,70,0|0,0:0|0:0,0:0:0:0:
175,34,91044,6,0,L|167:180,1,140,2|8,0:3|0:0,0:0:0:0:
95,217,91561,1,2,0:3:0:0:
95,217,91734,2,0,L|103:363,1,140
186,367,92251,1,0,0:0:0:0:
186,367,92337,1,0,0:0:0:0:
186,367,92423,6,0,P|221:351|257:352,1,70,2|0,0:3|0:0,0:0:0:0:
321,303,92768,2,0,P|356:319|392:318,1,70,8|2,0:0|0:3,0:0:0:0:
466,291,93113,2,0,L|457:126,1,140,0|0,0:0|0:0,0:0:0:0:
455,66,93630,1,0,0:0:0:0:
384,111,93803,6,0,L|376:250,1,140,2|8,0:3|0:0,0:0:0:0:
394,333,94320,2,0,P|372:283|285:247,1,140,2|8,0:3|0:0,0:0:0:0:
213,245,94837,1,0,0:0:0:0:
134,276,95010,1,0,0:0:0:0:
82,337,95182,6,0,L|70:191,1,140,2|8,0:3|0:0,0:0:0:0:
64,113,95699,1,2,0:3:0:0:
64,113,95872,2,0,P|105:106|132:85,1,70,0|8,0:0|0:0,0:0:0:0:
151,170,96216,2,0,P|192:177|219:198,1,70,0|0,0:0|0:0,0:0:0:0:
291,228,96561,6,0,L|302:72,1,140,2|8,0:3|0:0,0:0:0:0:
354,23,97078,1,2,0:3:0:0:
354,23,97251,2,0,P|397:33|430:34,1,70,0|8,0:0|0:0,0:0:0:0:
506,32,97596,2,0,P|498:76|502:115,1,70,0|0,0:0|0:0,0:0:0:0:
425,142,97941,6,0,P|435:185|438:292,1,140,2|0,0:3|0:0,0:0:0:0:
379,339,98458,1,2,0:3:0:0:
312,287,98630,2,0,L|317:240,7,35,2|2|2|2|2|0|2|0,0:0|0:0|0:0|0:0|0:0|0:0|0:0|0:0,0:0:0:0:
274,263,99320,6,0,P|215:296|137:291,1,140,6|8,0:0|0:0,0:0:0:0:
65,263,99837,1,0,0:0:0:0:
41,181,100010,2,0,P|73:150|103:139,1,70,0|0,0:0|0:0,0:0:0:0:
96,56,100354,2,0,P|138:68|163:88,1,70,12|0,0:0|0:0,0:0:0:0:
177,165,100699,6,0,L|172:329,1,140,2|8,0:0|0:0,0:0:0:0:
231,364,101216,1,0,0:0:0:0:
309,333,101389,2,0,L|306:263,1,70,0|2,0:0|0:0,0:0:0:0:
302,178,101734,1,8,0:0:0:0:
376,216,101906,1,0,0:0:0:0:
306,263,102078,6,0,L|227:255,1,70,2|0,0:0|0:0,0:0:0:0:
160,292,102423,2,0,L|127:219,1,70,8|0,0:0|0:0,0:0:0:0:
71,169,102768,2,0,P|108:153|146:57,1,140,0|8,0:0|0:0,0:0:0:0:
71,29,103285,1,0,0:0:0:0:
223,30,103458,5,4,0:1:0:0:
155,74,103630,1,0,0:0:0:0:
155,74,103716,1,0,0:0:0:0:
155,74,103803,2,0,L|161:150,1,70,8|2,0:0|0:0,0:0:0:0:
216,268,104147,2,0,L|222:192,1,70,6|0,0:1|0:0,0:0:0:0:
240,116,104492,1,2,0:0:0:0:
160,143,104665,1,2,0:0:0:0:
301,171,104837,6,0,L|446:185,1,140,6|8,0:0|0:0,0:0:0:0:
486,112,105354,1,0,0:0:0:0:
468,29,105527,2,0,L|398:35,1,70,0|0,0:0|0:0,0:0:0:0:
322,72,105872,1,12,0:0:0:0:
283,146,106044,1,0,0:0:0:0:
281,229,106216,6,0,B|277:357|277:357|185:302,1,210,2|0,0:0|0:0,0:0:0:0:
158,245,106906,1,0,0:0:0:0:
124,321,107078,1,2,0:0:0:0:
75,252,107251,1,8,0:0:0:0:
41,328,107423,1,0,0:0:0:0:
158,245,107596,6,0,L|239:251,1,70,6|0,0:1|0:0,0:0:0:0:
311,256,107941,1,2,0:0:0:0:
311,256,108113,1,0,0:0:0:0:
162,163,108285,6,0,L|243:169,1,70,6|0,0:1|0:0,0:0:0:0:
315,174,108630,1,2,0:0:0:0:
315,174,108802,1,0,0:0:0:0:
277,98,108975,6,0,L|137:87,1,140,2|2,0:0|0:0,0:0:0:0:
77,146,109492,1,2,0:0:0:0:
77,146,109578,1,0,0:0:0:0:
77,146,109665,2,0,P|67:193|70:225,1,70,2|2,0:0|0:0,0:0:0:0:
148,188,110010,2,0,P|174:216|211:238,1,70,2|2,0:0|0:0,0:0:0:0:
224,152,110354,6,0,L|232:2,1,140,6|0,0:1|0:0,0:0:0:0:
309,44,110872,1,2,0:0:0:0:
309,44,111044,2,0,B|360:91|360:91|440:98,1,140,2|0,0:0|0:0,0:0:0:0:
461,175,111561,1,2,0:0:0:0:
461,175,111734,6,0,P|482:220|478:314,1,140,6|0,0:1|0:0,0:0:0:0:
423,371,112251,1,2,0:0:0:0:
423,371,112423,2,0,P|383:354|350:351,1,70,2|0,0:0|0:0,0:0:0:0:
277,378,112768,1,2,0:0:0:0:
277,378,112941,1,2,0:0:0:0:
293,295,113113,6,0,P|322:237|300:150,1,140,6|0,0:1|0:0,0:0:0:0:
165,78,113803,2,0,P|152:145|181:207,1,140,6|0,0:1|0:0,0:0:0:0:
256,360,114492,1,6,0:1:0:0:
256,192,114665,12,4,115872,0:0:0:0:
