osu file format v14

[General]
AudioFilename: audio.mp3
AudioLeadIn: 0
PreviewTime: 88285
Countdown: 0
SampleSet: Soft
StackLeniency: 0.7
Mode: 0
LetterboxInBreaks: 0
EpilepsyWarning: 1
WidescreenStoryboard: 1

[Editor]
DistanceSpacing: 1.1
BeatDivisor: 1
GridSize: 4
TimelineZoom: 1

[Metadata]
Title:YUKARI
TitleUnicode:YUKARI
Artist:Ocelot
ArtistUnicode:Ocelot
Creator:Nhawak
Version:Easy
Source:CROSSxBEATS
Tags:oriental drumstep Plaudible SnowNiNo_ Mikii Rohit6 Nerova Riuz GX Kanari
BeatmapID:1377406
BeatmapSetID:497536

[Difficulty]
HPDrainRate:2
CircleSize:3
OverallDifficulty:3
ApproachRate:3
SliderMultiplier:0.799999999999999
SliderTickRate:1

[Events]
//Background and Video events
0,0,"BG.jpg",0,0
//Break Periods
2,55382,62018
//Storyboard Layer 0 (Background)
//Storyboard Layer 1 (Fail)
//Storyboard Layer 2 (Pass)
//Storyboard Layer 3 (Foreground)
Sprite,Foreground,Centre,"sb\highlight.png",320,240 F,0,71647,71733,0,1 P,0,71733,,A M,0,71733,71906,370.4986,363.4411,344.8031,338.4846 F,0,71733,72423,1 M,0,71906,72078,344.8031,338.4846,303.2505,325.0707 M,0,72078,72251,303.2505,325.0707,262.3219,329.5806 M,0,72251,72423,262.3219,329.5806,224.6136,345.2054 F,0,72423,72768,1,0
Sprite,Foreground,Centre,"sb\highlight.png",320,240 F,0,77165,77251,0,1 P,0,77251,,A M,0,77251,77424,433.6219,259.6384,435.2798,297.1037 F,0,77251,77941,1 M,0,77424,77596,435.2798,297.1037,423.1848,333.4872 M,0,77596,77769,423.1848,333.4872,434.1575,295.9148 M,0,77769,77941,434.1575,295.9148,431.5177,257.5342 F,0,77941,78286,1,0
Sprite,Foreground,Centre,"sb\highlight.png",320,240 F,0,82682,82768,0,1 P,0,82768,,A M,0,82768,83458,105.3808,322.0602,259.6821,286.9917 F,0,82768,83458,1 F,0,83458,83803,1,0
Sprite,Foreground,Centre,"sb\highlight.png",320,240 F,0,70268,70355,0,1 M,0,70355,,450.455,195.8136 C,0,70355,,255,128,128 P,0,70355,,A F,0,70355,71044,1,0
Sprite,Foreground,Centre,"sb\highlight.png",320,240 F,0,75785,75872,0,1 M,0,75872,,261.7865,164.9533 C,0,75872,,255,128,128 P,0,75872,,A F,0,75872,76561,1,0
Sprite,Foreground,Centre,"sb\highlight.png",320,240 F,0,81992,82079,0,1 M,0,82079,,233.7317,375.3643 C,0,82079,,255,128,128 P,0,82079,,A F,0,82079,82768,1,0
Sprite,Foreground,Centre,"sb\highlight.png",320,240 F,0,103372,103459,0,1 M,0,103459,,243.5509,68.16426 C,0,103459,,255,128,128 P,0,103459,,A F,0,103459,104148,1,0
Sprite,Foreground,Centre,"sb\highlight.png",320,240 F,0,107510,107597,0,1 M,0,107597,,455.3646,284.1862 C,0,107597,,255,128,128 P,0,107597,,A F,0,107597,108286,1,0
Sprite,Foreground,Centre,"sb\highlight.png",320,240 F,0,108889,108976,0,1 M,0,108976,,208.4824,335.3862 C,0,108976,,255,128,128 P,0,108976,,A F,0,108976,109665,1,0
Sprite,Foreground,Centre,"sb\highlight.png",320,240 F,0,110268,110355,0,1 M,0,110355,,58.38921,190.904 C,0,110355,,255,128,128 P,0,110355,,A F,0,110355,111044,1,0
Sprite,Foreground,Centre,"sb\highlight.png",320,240 F,0,114406,114493,0,1 C,0,114493,,255,128,128 P,0,114493,,A M,0,114493,114665,458.17,392.1971,423.6319,375.019 F,0,114493,115527,1 M,0,114665,114837,423.6319,375.019,398.9131,352.2299 M,0,114837,115010,398.9131,352.2299,370.5028,375.6011 M,0,115010,115182,370.5028,375.6011,336.6621,389.0464 M,0,115182,115354,336.6621,389.0464,297.2266,387.8361 M,0,115354,115527,297.2266,387.8361,263.1892,375.3643 F,0,115527,115613,1,0
Sprite,Foreground,Centre,"sb\highlight.png",320,240 F,0,81647,81734,0,1 M,0,81734,,320.7015,362.0382 C,0,81734,,255,128,128 P,0,81734,,A F,0,81734,82423,1,0
Sprite,Foreground,Centre,"sb\highlight.png",320,240 F,0,87854,87941,0,1 M,0,87941,,507.2659,350.8163 C,0,87941,,255,128,128 P,0,87941,,A F,0,87941,88630,1,0
Sprite,Foreground,Centre,"sb\highlight.png",320,240 F,0,88199,88286,0,1 M,0,88286,,540.9317,270.1588 C,0,88286,,255,128,128 P,0,88286,,A F,0,88286,88975,1,0
Sprite,Foreground,Centre,"sb\highlight.png",320,240 F,0,71303,71390,0,1 M,0,71390,,437.8303,419.5506 C,0,71390,,255,128,128 P,0,71390,,A F,0,71390,72079,1,0
Sprite,Foreground,Centre,"sb\highlight.png",320,240 F,0,76820,76907,0,1 M,0,76907,,348.055,279.9779 C,0,76907,,255,128,128 P,0,76907,,A F,0,76907,77596,1,0
Sprite,Foreground,Centre,"sb\highlight.png",320,240 F,0,82337,82424,0,1 M,0,82424,,156.581,395.704 C,0,82424,,255,128,128 P,0,82424,,A F,0,82424,83113,1,0
Sprite,Foreground,Centre,"sb\highlight.png",320,240 F,0,104406,104493,0,1 M,0,104493,,320.0002,185.9945 C,0,104493,,255,128,128 P,0,104493,,A F,0,104493,105182,1,0
Sprite,Foreground,Centre,"sb\highlight.png",320,240 F,0,108544,108631,0,1 M,0,108631,,241.4468,252.6245 C,0,108631,,255,128,128 P,0,108631,,A F,0,108631,109320,1,0
Sprite,Foreground,Centre,"sb\highlight.png",320,240 F,0,109923,110010,0,1 M,0,110010,,84.33993,282.7834 C,0,110010,,255,128,128 P,0,110010,,A F,0,110010,110699,1,0
//Storyboard Sound Samples

[TimingPoints]
10,344.827586206897,4,2,1,60,1,0
354,-100,4,2,2,60,0,0
11044,-100,4,2,1,60,0,0
65527,-100,4,2,1,60,0,0
66216,-100,4,2,1,60,0,1
66303,-100,4,2,1,60,0,0
66906,-100,4,2,1,60,0,1
69665,-100,4,2,1,60,0,0
70354,-100,4,2,1,60,0,1
71734,-100,4,2,1,60,0,0
72423,-100,4,2,1,60,0,1
74492,-100,4,2,1,60,0,0
75872,-100,4,2,1,60,0,1
77251,-100,4,2,1,60,0,0
77941,-100,4,2,1,60,0,1
80010,-100,4,2,1,60,0,0
80699,-100,4,2,1,60,0,1
82768,-100,4,2,1,60,0,0
83458,-100,4,2,1,60,0,1
85527,-100,4,2,1,60,0,0
86216,-100,4,2,1,60,0,1
87596,-100,4,2,1,60,0,0
88285,-100,4,2,10,60,0,0
88630,-100,4,2,1,60,0,0
99320,-100,4,2,1,60,0,1
100354,-100,4,2,10,60,0,1
100699,-100,4,2,1,60,0,1
105872,-100,4,2,10,60,0,1
106216,-100,4,2,1,60,0,1
110354,-100,4,2,1,60,0,0
118630,-100,4,2,1,5,0,0

[Colours]
Combo1 : 231,227,224
Combo2 : 248,133,136
Combo3 : 236,140,207
Combo4 : 226,167,122

[HitObjects]
154,34,10,6,0,B|99:92|149:216|200:133|236:265|186:323,2,320,4|0|0,0:0|0:0|0:0,0:0:0:0:
320,89,3458,1,2,0:0:0:0:
320,89,5527,6,0,B|281:25|161:37|143:120|143:120|114:81|59:88,1,320,0|0,0:0|0:0,0:0:0:0:
52,265,7596,2,0,L|63:185,1,79.9999999999999,2|0,0:0|0:0,0:0:0:0:
152,201,8285,2,0,L|116:425,2,160,0|2|0,0:0|0:0|0:0,0:0:0:0:
152,201,11044,6,0,B|209:177|264:209|264:209|325:242|390:213,1,240,6|0,0:0|0:0,0:0:0:0:
470,211,12423,2,0,L|463:290,2,79.9999999999999,2|0|2,0:0|0:0|0:0,0:0:0:0:
420,137,13458,1,0,0:0:0:0:
496,93,13803,6,0,P|393:54|334:160,1,240,2|0,0:0|0:0,0:0:0:0:
369,227,15182,2,0,P|379:265|369:303,2,79.9999999999999,2|0|2,0:0|0:0|0:0,0:0:0:0:
247,99,16561,6,0,B|147:76|147:76|52:104,1,160,2|2,0:0|0:0,0:0:0:0:
8,122,17596,1,0,0:0:0:0:
71,182,17941,2,0,B|83:216|78:273|58:240|49:291|67:337,1,160,2|2,0:0|0:0,0:0:0:0:
212,237,19320,2,0,B|298:272|357:201|357:201|392:225|434:209|434:209|446:248|495:267,1,320,2|0,0:0|0:0,0:0:0:0:
485,263,22078,6,0,P|501:227|498:188,2,79.9999999999999,6|0|8,0:0|0:0|0:0,0:0:0:0:
328,340,23458,2,0,B|292:326|292:326|253:334|253:334|217:326|217:326|174:344,1,160,2|8,0:0|0:0,0:0:0:0:
88,356,24492,1,2,0:0:0:0:
40,280,24837,6,0,B|29:232|52:199|52:199|19:130|19:130|65:145|122:100,1,240,2|0,0:0|0:0,0:0:0:0:
176,80,26216,2,0,B|213:65|213:65|284:72|284:72|330:59|330:59|285:130,1,240,2|8,0:0|0:0,0:0:0:0:
236,200,27596,6,0,P|272:216|311:213,2,79.9999999999999,2|0|8,0:0|0:0|0:0,0:0:0:0:
412,181,28975,2,0,B|424:215|419:272|399:239|390:290|408:336,1,160,2|8,0:0|0:0,0:0:0:0:
485,294,30010,1,2,0:0:0:0:
509,209,30354,6,0,B|486:53|486:53|455:99|379:104,1,240,2|0,0:0|0:0,0:0:0:0:
340,138,31734,2,0,B|266:170|266:170|193:136|193:136|165:56,1,240,2|8,0:0|0:0,0:3:0:0:
88,96,33113,6,0,L|120:188,2,79.9999999999999,6|0|8,0:0|0:0|0:0,0:0:0:0:
128,268,34492,2,0,B|176:256|196:224|196:224|223:261|293:267,1,160,2|8,0:0|0:0,0:0:0:0:
268,176,35527,1,2,0:0:0:0:
276,87,35872,6,0,B|428:40|428:40|522:74,1,240,2|0,0:0|0:0,0:0:0:0:
444,132,37251,2,0,B|420:189|452:244|452:244|485:305|456:370,1,240,2|8,0:0|0:0,0:0:0:0:
372,344,38630,6,0,P|336:328|297:332,2,79.9999999999999,2|0|8,0:0|0:0|0:0,0:0:0:0:
196,348,40010,2,0,P|119:358|56:273,1,160,2|8,0:0|0:0,0:0:0:0:
144,276,41044,1,2,0:0:0:0:
188,200,41389,2,0,B|229:200|256:169|256:169|287:210|377:258|378:140|490:218,1,320,2|4,0:0|0:1,0:0:0:0:
479,210,44147,6,0,B|464:285|338:338|372:247|244:283|231:362,1,320,6|2,0:0|0:0,0:0:0:0:
144,208,46216,2,0,P|160:243|157:283,2,79.9999999999999,2|2|2,0:0|0:0|0:0,0:0:0:0:
72,156,47251,1,0,0:0:0:0:
112,80,47596,2,0,B|162:50|220:63|250:114|250:114|269:79|269:79|320:122|407:79,1,320,2|2,0:0|0:0,0:0:0:0:
290,237,49665,6,0,B|358:286|349:375|349:375|408:302|507:319,1,320,2|2,0:0|0:0,0:0:0:0:
376,184,51734,2,0,P|380:144|403:112,2,79.9999999999999,2|2|2,0:0|0:0|0:0,0:0:0:0:
408,268,52768,1,0,0:0:0:0:
321,251,53113,2,0,P|281:254|248:276,1,79.9999999999999,2|0,0:0|0:0,0:0:0:0:
310,339,53803,6,0,P|204:354|207:203,1,240,2|0,0:0|0:0,0:0:0:0:
248,276,55182,1,4,0:0:0:0:
256,192,63458,12,6,66216,0:0:0:0:
46,196,67596,6,0,B|80:184|137:189|104:209|155:218|201:200,1,160,2|8,0:0|0:0,0:0:0:0:
284,170,68630,1,0,0:0:0:0:
216,113,68975,2,0,P|199:76|203:37,2,79.9999999999999,2|0|8,0:0|0:0|0:0,0:0:0:0:
387,151,70354,2,0,B|365:228|365:228|401:298|401:298|379:376,1,240,2|8,0:0|0:0,0:0:0:0:
312,319,71734,6,0,P|242:283|142:325,1,160,6|12,0:0|0:1,0:0:0:0:
92,349,72768,1,0,0:0:0:0:
56,268,73113,2,0,B|61:226|100:204|100:204|46:147|46:147|87:139|109:96,1,240,2|0,0:0|0:0,0:0:0:0:
165,32,74492,5,2,0:0:0:0:
250,52,74837,2,0,P|287:35|326:39,2,79.9999999999999,0|8|0,0:0|0:0|0:0,0:0:0:0:
197,122,75872,2,0,B|220:278|220:278|251:232|327:227,1,240,4|8,0:1|0:0,0:0:0:0:
372,214,77251,6,0,P|375:254|359:290,2,79.9999999999999,6|0|12,0:0|0:0|0:1,0:0:0:0:
256,82,78630,2,0,B|208:70|188:38|188:38|161:75|91:81,1,160,2|8,0:0|0:0,0:0:0:0:
185,138,79665,1,0,0:0:0:0:
143,215,80010,6,0,P|180:227|219:219,1,79.9999999999999,2|0,0:0|0:0,0:0:0:0:
306,208,80699,2,0,B|321:245|321:245|314:316|314:316|327:362|327:362|256:317,1,240,8|2,0:0|0:0,0:0:0:0:
171,334,82078,2,0,L|66:360,1,79.9999999999999,8|0,0:0|0:0,0:0:0:0:
43,280,82768,6,0,L|248:232,1,160,6|12,0:0|0:1,0:0:0:0:
223,158,83803,1,0,0:0:0:0:
251,75,84147,2,0,B|316:44|371:57|352:100|440:132|529:49,1,240,2|0,0:0|0:0,0:0:0:0:
424,12,85527,5,2,0:0:0:0:
312,148,86216,2,0,B|304:204|348:234|348:234|298:261|279:318|313:370|359:399|422:393|461:344|442:277,1,399.999999999999,8|0,0:0|0:0,0:0:0:0:
480,224,88285,6,0,B|516:144|468:76|468:76|388:88|388:88|324:20,1,320,14|2,0:1|0:3,0:0:0:0:
156,36,90354,2,0,L|48:48,1,79.9999999999999,0|0,0:0|0:0,0:0:0:0:
84,132,91044,2,0,L|163:123,1,79.9999999999999,2|0,0:3|0:0,0:0:0:0:
231,178,91734,2,0,B|259:137|247:101|247:101|297:103|320:70|320:70|359:88|377:125|377:125|418:99|461:117,1,320,0|0,0:0|0:0,0:0:0:0:
330,243,93803,6,0,P|265:367|163:250,1,320,2|2,0:3|0:3,0:0:0:0:
149,100,95872,2,0,L|229:111,1,79.9999999999999,0|0,0:0|0:0,0:0:0:0:
213,200,96561,2,0,L|-11:164,2,160,2|0|2,0:3|0:0|0:3,0:0:0:0:
213,200,99320,6,0,L|197:80,2,79.9999999999999,6|8|0,0:0|0:0|0:0,0:0:0:0:
269,268,100354,1,12,0:0:0:0:
218,339,100699,2,0,P|182:342|142:327,1,79.9999999999999,2|8,0:0|0:0,0:0:0:0:
59,359,101389,6,0,B|47:325|52:268|72:301|81:250|63:204,1,160,0|2,0:0|0:0,0:0:0:0:
1,140,102423,1,8,0:0:0:0:
84,110,102768,2,0,L|100:-10,1,79.9999999999999,0|8,0:0|0:0,0:0:0:0:
182,24,103458,2,0,B|161:162|161:162|299:134,1,240,4|2,0:1|0:0,0:0:0:0:
330,193,104837,6,0,P|345:156|344:117,1,79.9999999999999,6|8,0:0|0:0,0:0:0:0:
285,50,105527,2,0,P|320:31|359:29,1,79.9999999999999,0|12,0:0|0:0,0:0:0:0:
432,77,106216,2,0,L|551:52,1,79.9999999999999,2|8,0:0|0:0,0:0:0:0:
510,148,106906,2,0,L|431:164,1,79.9999999999999,0|8,0:0|0:0,0:0:0:0:
395,243,107596,6,0,B|365:192|301:179|256:211|256:211|215:192|179:213,1,240,6|2,0:1|0:0,0:0:0:0:
145,294,108975,2,0,B|44:358|44:358|9:175,1,240,2|2,0:0|0:0,0:0:0:0:
0,149,110354,5,6,0:1:0:0:
136,37,111044,2,0,L|128:168,1,79.9999999999999,2|0,0:0|0:0,0:0:0:0:
127,205,111734,1,6,0:1:0:0:
262,93,112423,2,0,L|254:224,1,79.9999999999999,2|2,0:0|0:0,0:0:0:0:
253,261,113113,5,6,0:1:0:0:
404,171,113803,1,6,0:1:0:0:
399,346,114492,2,0,B|352:343|331:302|331:302|296:365|230:358|193:329,1,240,6|0,0:1|0:0,0:0:0:0:
256,192,115872,12,0,118630,0:0:0:0:
