osu file format v14

[General]
AudioFilename: audio.mp3
AudioLeadIn: 0
PreviewTime: 88285
Countdown: 0
SampleSet: Soft
StackLeniency: 0.2
Mode: 0
LetterboxInBreaks: 0
EpilepsyWarning: 1
WidescreenStoryboard: 1

[Editor]
DistanceSpacing: 0.9
BeatDivisor: 4
GridSize: 4
TimelineZoom: 2.6

[Metadata]
Title:YUKARI
TitleUnicode:YUKARI
Artist:Ocelot
ArtistUnicode:Ocelot
Creator:Nhawak
Version:Rohit's Insane
Source:CROSSxBEATS
Tags:oriental drumstep Plaudible SnowNiNo_ Mikii Rohit6 Nerova Riuz GX Kanari
BeatmapID:1164097
BeatmapSetID:497536

[Difficulty]
HPDrainRate:6
CircleSize:3
OverallDifficulty:8
ApproachRate:9
SliderMultiplier:1.7
SliderTickRate:1

[Events]
//Background and Video events
0,0,"BG.jpg",0,0
//Break Periods
//Storyboard Layer 0 (Background)
//Storyboard Layer 1 (Fail)
//Storyboard Layer 2 (Pass)
//Storyboard Layer 3 (Foreground)
Sprite,Foreground,Centre,"sb\highlight.png",320,240 F,0,66130,66216,0,1 P,0,66216,,A M,0,66216,66389,209.1835,65.35892,165.2524,69.15853 F,0,66216,66906,1 M,0,66389,66561,165.2524,69.15853,119.4916,74.68167 M,0,66561,66734,119.4916,74.68167,99.6041,78.49012 M,0,66734,66906,99.6041,78.49012,115.1999,87.80272 F,0,66906,67251,1,0
Sprite,Foreground,Centre,"sb\highlight.png",320,240 F,0,71647,71733,0,1 P,0,71733,,A M,0,71733,71906,110.2904,296.1096,114.7537,252.9174 F,0,71733,72423,1 M,0,71906,72078,114.7537,252.9174,111.7765,209.3447 M,0,72078,72251,111.7765,209.3447,104.5137,200.5285 M,0,72251,72423,104.5137,200.5285,89.24923,213.3479 F,0,72423,72768,1,0
Sprite,Foreground,Centre,"sb\highlight.png",320,240 F,0,77165,77251,0,1 P,0,77251,,A M,0,77251,77424,91.35341,116.5589,63.55376,146.3092 F,0,77251,77941,1 M,0,77424,77596,63.55376,146.3092,106.867,144.1173 M,0,77596,77769,106.867,144.1173,152.2069,143.7175 M,0,77769,77941,152.2069,143.7175,167.1013,143.9123 F,0,77941,78286,1,0
Sprite,Foreground,Centre,"sb\highlight.png",320,240 F,0,82682,82768,0,1 P,0,82768,,A M,0,82768,82941,415.3863,139.7041,414.94,100.0188 F,0,82768,83458,1 M,0,82941,83113,414.94,100.0188,410.5601,51.53646 M,0,83113,83286,410.5601,51.53646,406.8041,35.70659 M,0,83286,83458,406.8041,35.70659,386.63,49.92873 F,0,83458,83803,1,0
Sprite,Foreground,Centre,"sb\highlight.png",320,240 F,0,70268,70355,0,1 M,0,70355,,318.5974,221.7644 C,0,70355,,255,128,128 P,0,70355,,A F,0,70355,71044,1,0
Sprite,Foreground,Centre,"sb\highlight.png",320,240 F,0,70441,70528,0,1 M,0,70528,,484.822,150.926 C,0,70528,,255,128,128 P,0,70528,,A F,0,70528,71217,1,0
Sprite,Foreground,Centre,"sb\highlight.png",320,240 F,0,70613,70700,0,1 M,0,70700,,317.1946,220.3616 C,0,70700,,255,128,128 P,0,70700,,A F,0,70700,71389,1,0
Sprite,Foreground,Centre,"sb\highlight.png",320,240 F,0,70785,70872,0,1 M,0,70872,,419.5947,369.0521 C,0,70872,,255,128,128 P,0,70872,,A F,0,70872,71561,1,0
Sprite,Foreground,Centre,"sb\highlight.png",320,240 F,0,70872,70959,0,1 M,0,70959,,414.685,332.5809 C,0,70959,,255,128,128 P,0,70959,,A F,0,70959,71648,1,0
Sprite,Foreground,Centre,"sb\highlight.png",320,240 F,0,70958,71045,0,1 M,0,71045,,411.8796,288.3945 C,0,71045,,255,128,128 P,0,71045,,A F,0,71045,71734,1,0
Sprite,Foreground,Centre,"sb\highlight.png",320,240 F,0,71130,71217,0,1 M,0,71217,,212.6905,291.9014 C,0,71217,,255,128,128 P,0,71217,,A F,0,71217,71906,1,0
Sprite,Foreground,Centre,"sb\highlight.png",320,240 F,0,71216,71303,0,1 M,0,71303,,210.5864,330.4767 C,0,71303,,255,128,128 P,0,71303,,A F,0,71303,71992,1,0
Sprite,Foreground,Centre,"sb\highlight.png",320,240 F,0,71303,71390,0,1 M,0,71390,,205.6768,368.3507 C,0,71390,,255,128,128 P,0,71390,,A F,0,71390,72079,1,0
Sprite,Foreground,Centre,"sb\highlight.png",320,240 F,0,71475,71562,0,1 M,0,71562,,419.5947,366.2466 C,0,71562,,255,128,128 P,0,71562,,A F,0,71562,72251,1,0
Sprite,Foreground,Centre,"sb\highlight.png",320,240 F,0,75785,75872,0,1 M,0,75872,,121.5125,66.0603 C,0,75872,,255,128,128 P,0,75872,,A F,0,75872,76561,1,0
Sprite,Foreground,Centre,"sb\highlight.png",320,240 F,0,76130,76217,0,1 M,0,76217,,210.5865,117.2603 C,0,76217,,255,128,128 P,0,76217,,A F,0,76217,76906,1,0
Sprite,Foreground,Centre,"sb\highlight.png",320,240 F,0,76389,76476,0,1 M,0,76476,,350.8604,206.3343 C,0,76476,,255,128,128 P,0,76476,,A F,0,76476,77165,1,0
Sprite,Foreground,Centre,"sb\highlight.png",320,240 F,0,76647,76734,0,1 M,0,76734,,485.5235,118.6631 C,0,76734,,255,128,128 P,0,76734,,A F,0,76734,77423,1,0
Sprite,Foreground,Centre,"sb\highlight.png",320,240 F,0,76820,76907,0,1 M,0,76907,,392.2413,305.9288 C,0,76907,,255,128,128 P,0,76907,,A F,0,76907,77596,1,0
Sprite,Foreground,Centre,"sb\highlight.png",320,240 F,0,76992,77079,0,1 M,0,77079,,214.0933,117.9617 C,0,77079,,255,128,128 P,0,77079,,A F,0,77079,77768,1,0
Sprite,Foreground,Centre,"sb\highlight.png",320,240 F,0,77078,77165,0,1 M,0,77165,,154.4769,116.5589 C,0,77165,,255,128,128 P,0,77165,,A F,0,77165,77854,1,0
Sprite,Foreground,Centre,"sb\highlight.png",320,240 F,0,81303,81390,0,1 M,0,81390,,210.5865,378.1699 C,0,81390,,255,128,128 P,0,81390,,A F,0,81390,82079,1,0
Sprite,Foreground,Centre,"sb\highlight.png",320,240 F,0,81647,81734,0,1 M,0,81734,,348.055,331.8795 C,0,81734,,255,128,128 P,0,81734,,A F,0,81734,82423,1,0
Sprite,Foreground,Centre,"sb\highlight.png",320,240 F,0,81992,82079,0,1 M,0,82079,,377.5125,233.6877 C,0,82079,,255,128,128 P,0,82079,,A F,0,82079,82768,1,0
Sprite,Foreground,Centre,"sb\highlight.png",320,240 F,0,82251,82338,0,1 M,0,82338,,94.15907,232.9863 C,0,82338,,255,128,128 P,0,82338,,A F,0,82338,83027,1,0
Sprite,Foreground,Centre,"sb\highlight.png",320,240 F,0,82510,82597,0,1 M,0,82597,,235.1344,77.98355 C,0,82597,,255,128,128 P,0,82597,,A F,0,82597,83286,1,0
Sprite,Foreground,Centre,"sb\highlight.png",320,240 F,0,86820,86907,0,1 M,0,86907,,286.3344,93.4137 C,0,86907,,255,128,128 P,0,86907,,A F,0,86907,87596,1,0
Sprite,Foreground,Centre,"sb\highlight.png",320,240 F,0,86992,87079,0,1 M,0,87079,,137.644,157.2383 C,0,87079,,255,128,128 P,0,87079,,A F,0,87079,87768,1,0
Sprite,Foreground,Centre,"sb\highlight.png",320,240 F,0,87165,87252,0,1 M,0,87252,,252.6687,221.063 C,0,87252,,255,128,128 P,0,87252,,A F,0,87252,87941,1,0
Sprite,Foreground,Centre,"sb\highlight.png",320,240 F,0,87337,87424,0,1 M,0,87424,,165.6988,277.1726 C,0,87424,,255,128,128 P,0,87424,,A F,0,87424,88113,1,0
Sprite,Foreground,Centre,"sb\highlight.png",320,240 F,0,87510,87597,0,1 M,0,87597,,219.0029,349.4137 C,0,87597,,255,128,128 P,0,87597,,A F,0,87597,88286,1,0
Sprite,Foreground,Centre,"sb\highlight.png",320,240 F,0,87682,87769,0,1 M,0,87769,,272.307,352.9206 C,0,87769,,255,128,128 P,0,87769,,A F,0,87769,88458,1,0
Sprite,Foreground,Centre,"sb\highlight.png",320,240 F,0,87854,87941,0,1 M,0,87941,,314.3892,359.9342 C,0,87941,,255,128,128 P,0,87941,,A F,0,87941,88630,1,0
Sprite,Foreground,Centre,"sb\highlight.png",320,240 F,0,88027,88114,0,1 M,0,88114,,336.1317,358.5315 C,0,88114,,255,128,128 P,0,88114,,A F,0,88114,88803,1,0
Sprite,Foreground,Centre,"sb\highlight.png",320,240 F,0,103372,103459,0,1 M,0,103459,,272.3071,251.9233 C,0,103459,,255,128,128 P,0,103459,,A F,0,103459,104148,1,0
Sprite,Foreground,Centre,"sb\highlight.png",320,240 F,0,103544,103631,0,1 M,0,103631,,401.3591,351.5178 C,0,103631,,255,128,128 P,0,103631,,A F,0,103631,104320,1,0
Sprite,Foreground,Centre,"sb\highlight.png",320,240 F,0,103630,103717,0,1 M,0,103717,,365.5893,350.1151 C,0,103717,,255,128,128 P,0,103717,,A F,0,103717,104406,1,0
Sprite,Foreground,Centre,"sb\highlight.png",320,240 F,0,103889,103976,0,1 M,0,103976,,214.7947,152.3287 C,0,103976,,255,128,128 P,0,103976,,A F,0,103976,104665,1,0
Sprite,Foreground,Centre,"sb\highlight.png",320,240 F,0,103716,103803,0,1 M,0,103803,,331.9235,348.011 C,0,103803,,255,128,128 P,0,103803,,A F,0,103803,104492,1,0
Sprite,Foreground,Centre,"sb\highlight.png",320,240 F,0,104061,104148,0,1 M,0,104148,,292.6468,63.95615 C,0,104148,,255,128,128 P,0,104148,,A F,0,104148,104837,1,0
Sprite,Foreground,Centre,"sb\highlight.png",320,240 F,0,104234,104321,0,1 M,0,104320,,355.0687,162.1479 C,0,104321,,255,128,128 P,0,104321,,A F,0,104321,105010,1,0
Sprite,Foreground,Centre,"sb\highlight.png",320,240 F,0,104406,104493,0,1 M,0,104493,,508.6687,119.3644 C,0,104493,,255,128,128 P,0,104493,,A F,0,104493,105182,1,0
Sprite,Foreground,Centre,"sb\highlight.png",320,240 F,0,104492,104579,0,1 M,0,104579,,499.551,115.1561 C,0,104579,,255,128,128 P,0,104579,,A F,0,104579,105268,1,0
Sprite,Foreground,Centre,"sb\highlight.png",320,240 F,0,104578,104665,0,1 M,0,104665,,545.14,164.9534 C,0,104665,,255,128,128 P,0,104665,,A F,0,104665,105354,1,0
Sprite,Foreground,Centre,"sb\highlight.png",320,240 F,0,104665,104752,0,1 M,0,104752,,533.2166,198.6192 C,0,104752,,255,128,128 P,0,104752,,A F,0,104752,105441,1,0
Sprite,Foreground,Centre,"sb\highlight.png",320,240 F,0,104751,104838,0,1 M,0,104838,,500.9536,255.4301 C,0,104838,,255,128,128 P,0,104838,,A F,0,104838,105527,1,0
Sprite,Foreground,Centre,"sb\highlight.png",320,240 F,0,107510,107597,0,1 M,0,107597,,94.15909,42.91504 C,0,107597,,255,128,128 P,0,107597,,A F,0,107597,108286,1,0
Sprite,Foreground,Centre,"sb\highlight.png",320,240 F,0,107854,107941,0,1 M,0,107941,,174.8166,94.11505 C,0,107941,,255,128,128 P,0,107941,,A F,0,107941,108630,1,0
Sprite,Foreground,Centre,"sb\highlight.png",320,240 F,0,108199,108286,0,1 M,0,108286,,482.718,143.2109 C,0,108286,,255,128,128 P,0,108286,,A F,0,108286,108975,1,0
Sprite,Foreground,Centre,"sb\highlight.png",320,240 F,0,108372,108459,0,1 M,0,108459,,395.7481,61.85201 C,0,108459,,255,128,128 P,0,108459,,A F,0,108459,109148,1,0
Sprite,Foreground,Centre,"sb\highlight.png",320,240 F,0,108544,108631,0,1 M,0,108631,,325.6112,227.3753 C,0,108631,,255,128,128 P,0,108631,,A F,0,108631,109320,1,0
Sprite,Foreground,Centre,"sb\highlight.png",320,240 F,0,108716,108803,0,1 M,0,108803,,436.4276,244.2082 C,0,108803,,255,128,128 P,0,108803,,A F,0,108803,109492,1,0
Sprite,Foreground,Centre,"sb\highlight.png",320,240 F,0,108803,108890,0,1 M,0,108890,,414.6852,201.4246 C,0,108890,,255,128,128 P,0,108890,,A F,0,108890,109579,1,0
Sprite,Foreground,Centre,"sb\highlight.png",320,240 F,0,108889,108976,0,1 M,0,108976,,387.3317,160.7452 C,0,108976,,255,128,128 P,0,108976,,A F,0,108976,109665,1,0
Sprite,Foreground,Centre,"sb\highlight.png",320,240 F,0,109234,109321,0,1 M,0,109321,,324.2084,226.674 C,0,109321,,255,128,128 P,0,109321,,A F,0,109321,110010,1,0
Sprite,Foreground,Centre,"sb\highlight.png",320,240 F,0,109578,109665,0,1 M,0,109665,,237.2386,176.1753 C,0,109665,,255,128,128 P,0,109665,,A F,0,109665,110354,1,0
Sprite,Foreground,Centre,"sb\highlight.png",320,240 F,0,109751,109838,0,1 M,0,109838,,160.7892,232.2849 C,0,109838,,255,128,128 P,0,109838,,A F,0,109838,110527,1,0
Sprite,Foreground,Centre,"sb\highlight.png",320,240 F,0,109923,110010,0,1 M,0,110010,,161.4906,324.8657 C,0,110010,,255,128,128 P,0,110010,,A F,0,110010,110699,1,0
Sprite,Foreground,Centre,"sb\highlight.png",320,240 F,0,110096,110183,0,1 M,0,110183,,89.24951,376.7671 C,0,110183,,255,128,128 P,0,110183,,A F,0,110183,110872,1,0
Sprite,Foreground,Centre,"sb\highlight.png",320,240 F,0,110268,110355,0,1 M,0,110355,,317.1947,362.0383 C,0,110355,,255,128,128 P,0,110355,,A F,0,110355,111044,1,0
Sprite,Foreground,Centre,"sb\highlight.png",320,240 F,0,114406,114493,0,1 M,0,114493,,251.2659,271.5616 C,0,114493,,255,128,128 P,0,114493,,A F,0,114493,115182,1,0
Sprite,Foreground,Centre,"sb\highlight.png",320,240 F,0,114751,114838,0,1 M,0,114838,,398.5536,280.6794 C,0,114838,,255,128,128 P,0,114838,,A F,0,114838,115527,1,0
Sprite,Foreground,Centre,"sb\highlight.png",320,240 F,0,114837,114924,0,1 M,0,114924,,391.5399,264.5479 C,0,114924,,255,128,128 P,0,114924,,A F,0,114924,115613,1,0
Sprite,Foreground,Centre,"sb\highlight.png",320,240 F,0,114923,115010,0,1 M,0,115010,,392.2413,243.5068 C,0,115010,,255,128,128 P,0,115010,,A F,0,115010,115699,1,0
Sprite,Foreground,Centre,"sb\highlight.png",320,240 F,0,115010,115097,0,1 M,0,115097,,396.4495,221.7643 C,0,115097,,255,128,128 P,0,115097,,A F,0,115097,115786,1,0
Sprite,Foreground,Centre,"sb\highlight.png",320,240 F,0,115096,115183,0,1 M,0,115183,,411.1783,204.2301 C,0,115183,,255,128,128 P,0,115183,,A F,0,115183,115872,1,0
Sprite,Foreground,Centre,"sb\highlight.png",320,240 F,0,115182,115269,0,1 M,0,115269,,378.2139,197.2164 C,0,115269,,255,128,128 P,0,115269,,A F,0,115269,115958,1,0
Sprite,Foreground,Centre,"sb\highlight.png",320,240 F,0,115268,115355,0,1 M,0,115355,,355.0687,174.0712 C,0,115355,,255,128,128 P,0,115355,,A F,0,115355,116044,1,0
Sprite,Foreground,Centre,"sb\highlight.png",320,240 F,0,115354,115441,0,1 M,0,115441,,340.3399,147.4191 C,0,115441,,255,128,128 P,0,115441,,A F,0,115441,116130,1,0
Sprite,Foreground,Centre,"sb\highlight.png",320,240 F,0,115441,115528,0,1 M,0,115528,,335.4303,115.8575 C,0,115528,,255,128,128 P,0,115528,,A F,0,115528,116217,1,0
Sprite,Foreground,Centre,"sb\highlight.png",320,240 F,0,115527,115614,0,1 M,0,115614,,300.3618,143.2109 C,0,115614,,255,128,128 P,0,115614,,A F,0,115614,116303,1,0
Sprite,Foreground,Centre,"sb\highlight.png",320,240 F,0,115613,115700,0,1 M,0,115700,,265.9947,158.641 C,0,115700,,255,128,128 P,0,115700,,A F,0,115700,116389,1,0
Sprite,Foreground,Centre,"sb\highlight.png",320,240 F,0,115699,115786,0,1 M,0,115786,,228.8221,160.0438 C,0,115786,,255,128,128 P,0,115786,,A F,0,115786,116475,1,0
Sprite,Foreground,Centre,"sb\highlight.png",320,240 F,0,98544,98631,0,1 M,0,98631,,134.8386,110.9479 C,0,98631,,255,128,128 P,0,98631,,A F,0,98631,99320,1,0
Sprite,Foreground,Centre,"sb\highlight.png",320,240 F,0,98630,98717,0,1 M,0,98717,,155.8796,122.1699 C,0,98717,,255,128,128 P,0,98717,,A F,0,98717,99406,1,0
Sprite,Foreground,Centre,"sb\highlight.png",320,240 F,0,98716,98803,0,1 M,0,98803,,168.5043,147.4192 C,0,98803,,255,128,128 P,0,98803,,A F,0,98803,99492,1,0
Sprite,Foreground,Centre,"sb\highlight.png",320,240 F,0,98803,98890,0,1 M,0,98890,,170.6084,179.6822 C,0,98890,,255,128,128 P,0,98890,,A F,0,98890,99579,1,0
Sprite,Foreground,Centre,"sb\highlight.png",320,240 F,0,98889,98976,0,1 M,0,98976,,148.866,216.8548 C,0,98976,,255,128,128 P,0,98976,,A F,0,98976,99665,1,0
Sprite,Foreground,Centre,"sb\highlight.png",320,240 F,0,98975,99062,0,1 M,0,99062,,110.2906,225.2712 C,0,99062,,255,128,128 P,0,99062,,A F,0,99062,99751,1,0
Sprite,Foreground,Centre,"sb\highlight.png",320,240 F,0,99061,99148,0,1 M,0,99148,,71.01389,194.4109 C,0,99148,,255,128,128 P,0,99148,,A F,0,99148,99837,1,0
Sprite,Foreground,Centre,"sb\highlight.png",320,240 F,0,99234,99321,0,1 M,0,99321,,339.6385,177.5781 C,0,99321,,255,128,128 P,0,99321,,A F,0,99321,100010,1,0
//Storyboard Sound Samples

[TimingPoints]
10,344.827586206897,4,2,1,60,1,0
10,-200,4,2,1,60,0,0
96,-200,4,2,3,60,0,0
11044,-100,4,2,1,60,0,0
12423,-100,4,2,1,55,0,0
13803,-100,4,2,1,50,0,0
15182,-100,4,2,1,45,0,0
19320,-100,4,2,1,50,0,0
20010,-100,4,2,1,55,0,0
20699,-100,4,2,1,60,0,0
22078,-80,4,2,1,80,0,1
26216,-57.1428571428571,4,2,1,80,0,1
26906,-80,4,2,1,80,0,1
31734,-57.1428571428571,4,2,1,80,0,1
33113,-80,4,2,1,80,0,1
33975,-57.1428571428571,4,2,1,80,0,1
34492,-80,4,2,1,80,0,1
37251,-57.1428571428571,4,2,1,80,0,1
37941,-80,4,2,1,80,0,1
42078,-57.1428571428571,4,2,1,80,0,1
44147,-133.333333333333,4,2,1,60,0,0
55182,-133.333333333333,4,2,1,30,0,0
56561,-133.333333333333,4,2,10,30,0,0
57596,-133.333333333333,4,2,3,30,0,0
59320,-133.333333333333,4,2,10,30,0,0
60699,-133.333333333333,4,2,1,30,0,0
62078,-133.333333333333,4,2,10,30,0,0
66216,-200,4,2,1,80,0,1
66906,-57.1428571428571,4,2,1,80,0,1
71734,-200,4,2,1,80,0,1
72423,-57.1428571428571,4,2,1,80,0,1
77251,-200,4,2,1,80,0,1
77941,-57.1428571428571,4,2,1,80,0,1
82768,-200,4,2,1,80,0,1
83458,-57.1428571428571,4,2,1,80,0,1
86906,-66.6666666666667,4,2,1,80,0,1
87251,-80,4,2,1,80,0,1
87768,-80,4,2,1,70,0,0
87941,-80,4,2,1,60,0,0
88113,-80,4,2,1,50,0,0
88285,-100,4,2,10,40,0,0
88630,-100,4,2,1,50,0,0
93803,-100,4,2,1,40,0,0
96561,-100,4,2,1,45,0,0
97251,-100,4,2,1,50,0,0
97941,-100,4,2,1,55,0,0
98630,-100,4,2,1,60,0,0
98975,-100,4,2,1,65,0,0
99320,-66.6666666666667,4,2,1,80,0,1
100354,-66.6666666666667,4,2,10,80,0,1
100441,-66.6666666666667,4,2,1,80,0,1
105872,-66.6666666666667,4,2,10,80,0,1
105958,-66.6666666666667,4,2,1,80,0,1
110354,-100,4,2,1,60,0,0

[Colours]
Combo1 : 231,227,224
Combo2 : 248,133,136
Combo3 : 236,140,207
Combo4 : 226,167,122

[HitObjects]
144,264,10,6,0,B|219:272|265:236|265:236|313:201|388:209,1,255,4|0,0:0|0:0,0:0:0:0:
471,216,1216,1,0,0:0:0:0:
423,286,1389,2,0,L|432:99,1,170,0|2,0:0|0:0,0:0:0:0:
335,31,2423,1,0,0:0:0:0:
238,114,2768,6,0,L|153:118,1,85,0|0,0:0|0:0,0:0:0:0:
71,216,3458,2,0,B|77:141|154:118|154:118|173:235|173:235|233:224|233:224|272:244|272:244|346:231,1,425,2|0,0:0|0:0,0:0:0:0:
335,233,5527,6,0,B|310:67|310:67|321:99|350:122|387:121,1,255,0|0,0:0|0:0,0:0:0:0:
455,94,6734,1,0,0:0:0:0:
394,35,6906,2,0,B|344:29|312:53|312:53|282:77|232:71,1,170,0|2,0:0|0:0,0:0:0:0:
163,21,7768,1,0,0:0:0:0:
90,66,7941,1,0,0:0:0:0:
114,147,8113,1,0,0:0:0:0:
198,150,8285,6,0,P|214:175|223:240,2,85,0|0|2,0:0|0:0|0:0,0:0:0:0:
75,113,9320,1,0,0:0:0:0:
99,238,9665,6,0,B|162:273|224:229|224:229|247:258|247:258|291:233|333:255,1,255,0|0,0:0|0:0,0:0:0:0:
328,252,11044,6,0,B|297:173|297:173|340:92,1,170,6|0,0:0|0:0,0:0:0:0:
387,18,11561,1,0,0:0:0:0:
491,186,11734,1,2,0:0:0:0:
397,180,11906,1,0,0:0:0:0:
337,98,12078,2,0,L|295:95,1,42.5,0|0,0:0|0:0,0:0:0:0:
285,248,12251,2,0,L|328:252,1,42.5,0|0,0:0|0:0,0:0:0:0:
206,167,12423,5,2,0:0:0:0:
116,232,12596,2,0,L|73:228,2,42.5,0|0|0,0:0|0:0|0:0,0:0:0:0:
194,310,12941,1,0,0:0:0:0:
193,322,13027,1,0,0:0:0:0:
192,334,13113,2,0,L|149:330,2,42.5,2|0|0,0:0|0:0|0:0,0:0:0:0:
285,248,13458,2,0,L|328:252,1,42.5,0|0,0:0|0:0,0:0:0:0:
337,98,13630,2,0,L|295:95,1,42.5,0|0,0:0|0:0,0:0:0:0:
206,167,13803,5,2,0:0:0:0:
136,81,13975,2,0,L|93:77,2,42.5,0|0|0,0:0|0:0|0:0,0:0:0:0:
221,11,14320,1,0,0:0:0:0:
295,95,14492,2,0,L|338:99,2,42.5,2|0|0,0:0|0:0|0:0,0:0:0:0:
136,81,14837,2,0,L|93:77,1,42.5,0|0,0:0|0:0,0:0:0:0:
73,228,15010,2,0,L|116:232,1,42.5,0|0,0:0|0:0,0:0:0:0:
206,167,15182,6,0,L|326:178,1,85,2|0,0:0|0:0,0:0:0:0:
290,187,15441,1,0,0:0:0:0:
290,199,15527,2,0,L|410:210,1,85,0|0,0:0|0:0,0:0:0:0:
475,84,15872,2,0,L|464:204,1,85,2|0,0:0|0:0,0:0:0:0:
467,181,16130,1,0,0:0:0:0:
466,193,16216,2,0,L|463:223,4,21.25,0|0|0|0|0,0:0|0:0|0:0|0:0|0:0,0:0:0:0:
256,43,16561,6,0,L|171:50,2,85,2|0|0,0:0|0:0|0:0,0:0:0:0:
256,192,17078,1,2,0:0:0:0:
102,125,17251,2,0,L|17:132,2,85,2|0|0,0:0|0:0|0:0,0:0:0:0:
256,192,17768,1,2,0:0:0:0:
256,43,17941,6,0,L|340:50,2,85,2|0|0,0:0|0:0|0:0,0:0:0:0:
256,192,18458,1,2,0:0:0:0:
410,125,18630,2,0,L|494:132,2,85,2|0|0,0:0|0:0|0:0,0:0:0:0:
256,192,19147,1,2,0:0:0:0:
102,125,19320,6,0,L|17:132,1,85,2|0,0:0|0:0,0:0:0:0:
410,125,19665,2,0,L|494:132,1,85,2|0,0:0|0:0,0:0:0:0:
133,249,20010,1,2,0:0:0:0:
256,70,20182,1,2,0:0:0:0:
379,249,20354,1,2,0:0:0:0:
256,192,20527,1,2,0:0:0:0:
256,179,20613,1,2,0:0:0:0:
256,179,20872,6,0,B|234:154|236:122|257:93|257:93|282:121|293:158|280:190|235:237|258:281|258:281|327:270|327:270|361:309|361:309|455:294,1,510,0|0,0:0|0:0,0:0:0:0:
472,54,22078,6,0,P|420:47|358:78,2,106.25,6|0|0,0:0|0:0|0:0,0:0:0:0:
456,294,22596,2,0,L|442:204,1,53.125,2|2,0:0|0:0,0:0:0:0:
433,146,22768,1,8,0:0:0:0:
261,321,22941,2,0,P|313:328|375:297,1,106.25,0|0,0:0|0:0,0:0:0:0:
433,146,23285,2,0,L|343:159,1,53.125,8|0,0:0|0:0,0:0:0:0:
302,230,23458,5,2,0:0:0:0:
207,242,23630,1,8,0:0:0:0:
156,160,23803,1,0,0:0:0:0:
61,172,23975,1,0,0:0:0:0:
261,321,24147,2,0,P|313:328|375:297,1,106.25,8|0,0:0|0:0,0:0:0:0:
116,244,24492,2,0,L|94:290,4,26.5625,2|0|0|0|0,0:0|0:0|0:0|0:0|0:0,0:0:0:0:
156,159,24751,1,0,0:0:0:0:
156,159,24837,6,0,B|199:176|245:150|245:150|271:171|271:171|313:142|358:143|392:172|392:172|358:170|325:198,1,318.75,2|2,0:0|0:0,0:0:0:0:
298,273,25441,1,2,0:0:0:0:
298,273,25527,2,0,B|328:323|397:343|473:306|460:227|460:227|427:264|366:257,1,318.75,8|2,0:0|0:0,0:0:0:0:
298,273,26130,1,2,0:0:0:0:
298,273,26216,6,0,L|221:261,1,74.3750007092953,2|0,0:0|0:0,0:0:0:0:
105,242,26389,2,0,L|32:231,1,74.3750007092953,8|0,0:0|0:0,0:0:0:0:
144,384,26561,2,0,L|155:310,1,74.3750007092953,2|0,0:0|0:0,0:0:0:0:
174,191,26734,2,0,L|186:118,1,74.3750007092953,2|0,0:0|0:0,0:0:0:0:
314,57,26906,6,0,L|418:74,1,106.25,8|0,0:0|0:0,0:0:0:0:
492,137,27165,1,2,0:0:0:0:
404,172,27251,2,0,B|392:120|392:120|419:74,1,106.25,8|2,0:0|0:0,0:0:0:0:
512,239,27596,5,2,0:0:0:0:
422,272,27768,1,0,0:0:0:0:
332,307,27941,1,0,0:0:0:0:
180,189,28113,2,0,L|188:137,1,53.125,2|2,0:0|0:0,0:0:0:0:
254,250,28285,1,8,0:0:0:0:
94,232,28458,1,0,0:0:0:0:
200,49,28630,2,0,L|202:36,8,13.28125,0|0|0|0|0|0|0|0|8,0:0|0:0|0:0|0:0|0:0|0:0|0:0|0:0|0:0,0:0:0:0:
168,289,28975,5,2,0:0:0:0:
94,232,29147,1,8,0:0:0:0:
254,250,29320,1,0,0:0:0:0:
159,381,29492,1,2,0:0:0:0:
184,164,29665,2,0,P|236:143|293:148,1,106.25,8|0,0:0|0:0,0:0:0:0:
495,330,30010,2,0,L|490:358,4,26.5625,2|0|0|0|0,0:0|0:0|0:0|0:0|0:0,0:0:0:0:
512,239,30268,1,0,0:0:0:0:
512,239,30354,6,0,B|436:228|401:293|401:331|401:331|362:300|362:300|335:328|335:328|308:308|267:320,1,318.75,2|2,0:0|0:0,0:0:0:0:
190,354,30958,1,2,0:0:0:0:
190,354,31044,2,0,B|171:289|201:253|234:230|269:232|269:232|232:174|232:174|237:91,1,318.75,8|2,0:0|0:0,0:0:0:0:
323,67,31647,1,2,0:0:0:0:
323,67,31734,6,0,L|317:179,1,74.3750007092953,2|0,0:0|0:0,0:0:0:0:
149,127,31906,2,0,L|155:15,1,74.3750007092953,8|0,0:0|0:0,0:0:0:0:
393,145,32078,2,0,L|281:139,1,74.3750007092953,2|0,0:0|0:0,0:0:0:0:
149,127,32251,2,0,L|37:121,1,74.3750007092953,2|0,0:0|0:0,0:0:0:0:
229,243,32423,5,8,0:0:0:0:
278,30,32596,1,8,0:0:0:0:
240,28,32682,1,8,0:0:0:0:
203,26,32768,1,8,0:0:0:0:
229,243,32941,2,0,L|235:131,1,74.3750007092953,2|0,0:0|0:0,0:0:0:0:
21,124,33113,5,6,0:0:0:0:
103,172,33286,1,0,0:0:0:0:
103,76,33458,1,0,0:0:0:0:
20,222,33630,2,0,L|73:224,1,53.125,2|2,0:0|0:0,0:0:0:0:
178,233,33803,1,8,0:0:0:0:
22,321,33975,6,0,B|55:363|143:380|204:327|204:327|170:337|139:332|108:300,1,297.500002837181,0|8,0:0|0:0,0:0:0:0:
21,124,34492,5,2,0:0:0:0:
103,76,34664,1,8,0:0:0:0:
179,134,34837,1,0,0:0:0:0:
259,82,35010,1,2,0:0:0:0:
436,149,35182,2,0,L|330:144,1,106.25,8|0,0:0|0:0,0:0:0:0:
174,229,35527,2,0,L|172:255,4,26.5625,2|0|0|0|0,0:0|0:0|0:0|0:0|0:0,0:0:0:0:
179,134,35785,1,0,0:0:0:0:
179,134,35872,6,0,B|285:140|285:140|357:61|357:61|463:66,1,318.75,2|2,0:0|0:0,0:0:0:0:
436,149,36475,1,2,0:0:0:0:
436,149,36561,2,0,B|329:144|329:144|261:65|261:65|176:137,1,318.75,8|2,0:0|0:0,0:0:0:0:
253,192,37165,1,2,0:0:0:0:
253,192,37251,6,0,L|259:56,1,74.3750007092953,2|0,0:0|0:0,0:0:0:0:
388,62,37423,2,0,L|463:66,1,74.3750007092953,8|0,0:0|0:0,0:0:0:0:
461,236,37596,2,0,L|325:229,1,74.3750007092953,2|0,0:0|0:0,0:0:0:0:
257,118,37768,2,0,L|260:43,1,74.3750007092953,2|0,0:0|0:0,0:0:0:0:
300,285,37941,6,0,L|193:280,1,106.25,8|0,0:0|0:0,0:0:0:0:
100,274,38199,1,0,0:0:0:0:
146,191,38285,2,0,P|179:223|184:315,1,106.25,8|2,0:0|0:0,0:0:0:0:
14,130,38630,5,2,0:0:0:0:
105,102,38803,1,0,0:0:0:0:
196,74,38975,1,0,0:0:0:0:
193,279,39147,2,0,L|139:276,1,53.125,2|2,0:0|0:0,0:0:0:0:
43,272,39320,1,8,0:0:0:0:
196,74,39492,2,0,L|302:78,1,106.25,0|0,0:0|0:0,0:0:0:0:
43,272,39837,1,8,0:0:0:0:
308,175,40010,5,2,0:0:0:0:
347,263,40182,1,0,0:0:0:0:
275,327,40355,1,2,0:0:0:0:
193,279,40527,1,2,0:0:0:0:
453,268,40699,2,0,L|346:263,1,106.25,8|0,0:0|0:0,0:0:0:0:
105,180,41043,2,0,L|211:184,1,106.25,2|0,0:0|0:0,0:0:0:0:
246,94,41303,1,0,0:0:0:0:
173,33,41389,6,0,P|168:151|335:130,1,318.75,2|2,0:0|0:0,0:0:0:0:
246,94,41992,1,2,0:0:0:0:
246,94,42078,6,0,L|239:236,1,74.3750007092953,8|0,0:0|0:0,0:0:0:0:
232,376,42251,2,0,L|236:302,1,74.3750007092953,2|0,0:0|0:0,0:0:0:0:
98,225,42423,2,0,L|173:229,1,74.3750007092953,8|0,0:0|0:0,0:0:0:0:
381,239,42596,2,0,L|306:235,1,74.3750007092953,2|0,0:0|0:0,0:0:0:0:
145,319,42768,5,4,0:1:0:0:
328,329,42941,1,2,0:0:0:0:
243,168,43113,1,2,0:0:0:0:
218,258,43285,5,2,0:0:0:0:
239,265,43371,1,2,0:0:0:0:
260,259,43457,1,2,0:0:0:0:
149,191,43630,5,2,0:0:0:0:
234,352,43803,1,2,0:0:0:0:
332,201,43975,1,2,0:0:0:0:
40,335,44147,6,0,P|55:273|33:126,1,191.250007295609,6|0,0:0|0:0,0:0:0:0:
14,55,44837,2,0,L|89:51,1,63.7500024318696,2|0,0:0|0:0,0:0:0:0:
156,106,45182,1,0,0:0:0:0:
213,29,45354,1,0,0:0:0:0:
292,83,45527,6,0,P|277:145|299:292,1,191.250007295609,2|0,0:0|0:0,0:0:0:0:
379,305,46216,2,0,P|384:272|369:226,1,63.7500024318696,2|0,0:0|0:0,0:0:0:0:
223,333,46561,2,0,P|249:353|296:363,1,63.7500024318696,2|0,0:0|0:0,0:0:0:0:
309,173,46906,6,0,P|254:186|193:240,2,127.500004863739,2|0|2,0:0|0:0|0:0,0:0:0:0:
309,173,47941,2,0,P|314:140|299:94,1,63.7500024318696,0|0,0:0|0:0,0:0:0:0:
233,50,48285,6,0,B|198:48|198:48|174:60|174:60|126:57,2,95.6250036478044,2|0|0,0:0|0:0|0:0,0:0:0:0:
307,110,48975,2,0,L|338:111,3,31.8750012159348,2|0|0|0,0:0|0:0|0:0|0:0,0:0:0:0:
398,33,49320,2,0,L|429:34,1,31.8750012159348,2|0,0:0|0:0,0:0:0:0:
444,121,49492,2,0,L|475:122,1,31.8750012159348,2|0,0:0|0:0,0:0:0:0:
385,200,49665,6,0,B|311:192|263:227|263:227|217:263|142:255,1,255,2|2,0:0|0:0,0:0:0:0:
143,255,50699,1,0,0:0:0:0:
131,159,50872,1,0,0:0:0:0:
120,64,51044,2,0,P|58:97|63:226,1,191.250007295609,2|0,0:0|0:0,0:0:0:0:
131,159,51734,1,2,0:0:0:0:
207,102,51906,1,0,0:0:0:0:
120,64,52078,1,2,0:0:0:0:
131,159,52251,1,0,0:0:0:0:
217,201,52423,6,0,P|267:175|313:108,2,127.500004863739,2|0|2,0:0|0:0|0:0,0:0:0:0:
217,201,53458,2,0,P|250:196|296:211,1,63.7500024318696,0|0,0:0|0:0,0:0:0:0:
247,293,53803,6,0,B|208:248|127:234|72:268|72:268|85:205|85:205|60:153|60:153|72:70,1,382.500014591218,2|0,0:0|0:0,0:0:0:0:
139,17,55010,1,0,0:0:0:0:
203,87,55182,6,0,B|248:81|289:103|302:147|302:147|316:93|316:93|365:97|406:75|406:75|376:198|376:198|396:159|433:138|482:140,1,510.000019454957,4|4,0:0|0:0,0:0:0:0:
462,140,57596,6,0,L|445:201,1,63.7500024318696,0|0,0:0|0:0,0:0:0:0:
442,297,57941,2,0,P|414:243|332:226,1,127.500004863739,2|0,0:0|0:0,0:0:0:0:
268,265,58458,1,0,0:0:0:0:
350,313,58630,1,0,0:0:0:0:
277,168,58975,1,0,0:0:0:0:
179,299,59320,5,4,0:0:0:0:
179,299,60010,1,0,0:0:0:0:
277,168,60354,1,0,0:0:0:0:
350,313,60699,6,0,B|311:325|265:306|247:260|247:260|221:358|221:358|208:322|182:306|151:302|151:302|169:228|169:228|126:182|126:182|133:251,1,510.000019454957,4|4,0:1|0:0,0:0:0:0:
131,229,63113,6,0,L|147:167,1,63.7500024318696,0|0,0:0|0:0,0:0:0:0:
155,70,63458,2,0,P|183:124|265:141,1,127.500004863739,2|0,0:0|0:0,0:0:0:0:
335,117,63975,1,0,0:0:0:0:
155,70,64147,6,0,L|94:86,1,63.7500024318696
8,197,64492,2,0,L|69:213,1,63.7500024318696,0|0,0:0|0:0,0:0:0:0:
256,329,64837,5,0,0:0:0:0:
258,320,64923,1,0,0:0:0:0:
260,311,65009,1,0,0:0:0:0:
262,302,65096,1,0,0:0:0:0:
256,283,65182,5,0,0:0:0:0:
252,265,65268,1,0,0:0:0:0:
247,247,65354,1,0,0:0:0:0:
243,229,65440,1,0,0:0:0:0:
256,199,65527,5,0,0:0:0:0:
265,168,65613,1,0,0:0:0:0:
273,137,65699,1,0,0:0:0:0:
281,106,65785,1,0,0:0:0:0:
256,72,65872,5,0,0:0:0:0:
253,338,66044,1,0,0:0:0:0:
145,24,66216,6,0,B|29:31|29:31|65:56,1,148.75,6|0,0:0|0:0,0:0:0:0:
56,49,66906,6,0,L|62:142,1,74.3750007092953,12|0,0:1|0:0,0:0:0:0:
72,300,67078,2,0,L|66:207,1,74.3750007092953,0|0,0:0|0:0,0:0:0:0:
156,170,67251,2,0,L|230:165,3,74.3750007092953,0|0|0|0,0:0|0:0|0:0|0:0,0:0:0:0:
293,250,67596,6,0,L|367:245,1,74.3750007092953,2|0,0:0|0:0,0:0:0:0:
499,364,67768,2,0,L|457:302,1,74.3750007092953,0|0,0:0|0:0,0:0:0:0:
460,191,67941,2,0,L|493:125,3,74.3750007092953,0|0|0|0,0:0|0:0|0:0|0:0,0:0:0:0:
432,31,68285,5,8,0:0:0:0:
377,132,68458,1,0,0:0:0:0:
135,132,68630,1,0,0:0:0:0:
80,31,68803,1,0,0:0:0:0:
256,176,68975,6,0,B|292:208|301:258|289:306|245:335|245:335|215:287,1,223.125002127886,2|0,0:0|0:0,0:0:0:0:
224,301,69320,2,0,L|131:307,3,74.3750007092953,0|0|0|0,0:0|0:0|0:0|0:0,0:0:0:0:
37,312,69665,1,8,0:0:0:0:
91,221,69837,2,0,B|110:149|110:149|74:76,1,148.750001418591,0|0,0:0|0:0,0:0:0:0:
77,82,70182,1,0,0:0:0:0:
256,176,70354,5,2,0:0:0:0:
422,106,70527,2,0,L|348:110,1,74.3750007092953,8|0,0:0|0:0,0:0:0:0:
256,176,70699,1,0,0:0:0:0:
357,324,70872,1,2,0:0:0:0:
354,286,70958,1,2,0:0:0:0:
352,249,71044,1,8,0:0:0:0:
152,250,71216,1,2,0:0:0:0:
149,288,71302,1,0,0:0:0:0:
147,325,71389,2,0,L|221:329,1,74.3750007092953,8|0,0:0|0:0,0:0:0:0:
357,324,71561,2,0,L|283:328,1,74.3750007092953,2|0,0:0|0:0,0:0:0:0:
49,252,71734,6,0,B|56:142|56:142|27:168,1,148.75,6|0,0:0|0:0,0:0:0:0:
28,168,72423,6,0,L|102:172,1,74.3750007092953,12|0,0:1|0:0,0:0:0:0:
281,181,72596,2,0,L|207:177,1,74.3750007092953,0|0,0:0|0:0,0:0:0:0:
150,264,72768,2,0,L|146:338,3,74.3750007092953,0|0|0|0,0:0|0:0|0:0|0:0,0:0:0:0:
161,86,73113,6,0,B|195:71|195:71|233:75,1,74.3750007092953,2|0,0:0|0:0,0:0:0:0:
406,107,73285,2,0,B|375:85|375:85|337:81,1,74.3750007092953,0|0,0:0|0:0,0:0:0:0:
151,222,73458,2,0,B|172:192|172:192|207:176,1,74.3750007092953,0|0,0:0|0:0,0:0:0:0:
401,232,73630,2,0,B|379:202|379:202|344:186,1,74.3750007092953,0|0,0:0|0:0,0:0:0:0:
266,339,73803,2,0,L|271:260,1,74.3750007092953,8|0,0:0|0:0,0:0:0:0:
161,86,73975,2,0,L|156:165,1,74.3750007092953,0|0,0:0|0:0,0:0:0:0:
401,181,74147,2,0,L|406:102,1,74.3750007092953,0|0,0:0|0:0,0:0:0:0:
325,38,74320,1,0,0:0:0:0:
288,35,74406,1,0,0:0:0:0:
251,32,74492,6,0,B|264:48|266:76|257:93|257:93|301:68|353:68|407:107,1,223.125002127886,2|0,0:0|0:0,0:0:0:0:
320,180,74837,2,0,L|313:278,2,99.1666676123937,0|0|0,0:0|0:0|0:0,0:0:0:0:
413,286,75182,2,0,B|363:310|314:279|314:279|285:298|285:298|254:282|254:282|182:280,1,223.125002127886,8|0,0:0|0:0,0:0:0:0:
25,276,75527,2,0,L|99:278,1,74.3750007092953,0|0,0:0|0:0,0:0:0:0:
154,190,75699,1,0,0:0:0:0:
59,25,75872,6,0,B|18:55|3:98|11:143|47:176|47:176|50:145|66:115|90:111,1,223.125002127886,4|0,0:1|0:0,0:0:0:0:
152,77,76216,2,0,B|184:73|210:93|210:93|229:68|263:56|287:60,1,148.750001418591,8|0,0:0|0:0,0:0:0:0:
286,165,76475,2,0,B|318:169|344:149|344:149|363:174|397:186|421:181,1,148.750001418591,8|0,0:0|0:0,0:0:0:0:
424,78,76734,2,0,L|498:80,1,74.3750007092953,8|0,0:0|0:0,0:0:0:0:
330,262,76906,1,8,0:0:0:0:
152,77,77078,1,8,0:0:0:0:
91,76,77165,1,8,0:0:0:0:
31,75,77251,6,0,B|0:104|0:104|126:104,1,148.75,6|0,0:0|0:0,0:0:0:0:
106,104,77941,6,0,L|105:178,1,74.3750007092953,12|0,0:1|0:0,0:0:0:0:
103,356,78113,2,0,L|104:282,1,74.3750007092953,0|0,0:0|0:0,0:0:0:0:
194,230,78285,2,0,L|399:232,1,148.750001418591,0|0,0:0|0:0,0:0:0:0:
368,268,78544,1,0,0:0:0:0:
393,304,78630,6,0,L|390:155,1,148.750001418591,2|0,0:0|0:0,0:0:0:0:
240,163,78975,2,0,B|207:230|207:230|240:297,1,148.750001418591,0|0,0:0|0:0,0:0:0:0:
458,228,79320,2,0,B|390:196|390:196|323:229,1,148.750001418591,8|0,0:0|0:0,0:0:0:0:
282,263,79578,1,0,0:0:0:0:
240,297,79665,2,0,L|241:203,1,74.3750007092953,0|0,0:0|0:0,0:0:0:0:
243,107,79837,2,0,L|244:13,1,74.3750007092953,0|0,0:0|0:0,0:0:0:0:
445,61,80010,6,0,B|372:86|319:44|359:24|303:-17|235:7,1,223.125002127886,2|0,0:0|0:0,0:0:0:0:
45,119,80354,2,0,B|-2:154|-2:154|189:156,1,223.125002127886,0|0,0:0|0:0,0:0:0:0:
288,287,80699,2,0,L|305:190,2,99.1666676123937,8|0|0,0:0|0:0|0:0,0:0:0:0:
196,249,81044,2,0,L|162:157,2,99.1666676123937,0|0|0,0:0|0:0|0:0,0:0:0:0:
146,334,81389,2,0,L|70:272,2,99.1666676123937,0|0|0,0:0|0:0|0:0,0:0:0:0:
289,288,81734,6,0,B|328:331|391:334|430:294|430:267|430:267|412:288|390:296|372:292,1,223.125002127886,2|0,0:0|0:0,0:0:0:0:
319,192,82078,6,0,B|266:191|266:191|224:214|224:214|176:213,1,148.750001418591,8|0,0:0|0:0,0:0:0:0:
33,192,82337,2,0,B|86:191|86:191|128:214|128:214|175:213,1,148.750001418591,2|0,0:0|0:0,0:0:0:0:
174,37,82596,2,0,L|175:131,1,74.3750007092953,2|0,0:0|0:0,0:0:0:0:
353,97,82768,6,0,B|352:-18|352:-18|320:16,1,148.75,6|0,0:0|0:0,0:0:0:0:
328,6,83458,5,12,0:1:0:0:
370,7,83544,1,0,0:0:0:0:
405,17,83630,1,0,0:0:0:0:
433,41,83716,1,0,0:0:0:0:
446,75,83802,1,0,0:0:0:0:
319,192,83975,1,0,0:0:0:0:
44,150,84147,6,0,B|59:115|59:115|95:155,1,74.3750007092953,2|0,0:0|0:0,0:0:0:0:
134,221,84320,2,0,B|149:256|149:256|173:229,1,74.3750007092953,0|0,0:0|0:0,0:0:0:0:
232,103,84492,2,0,B|247:68|247:68|283:108,1,74.3750007092953,0|0,0:0|0:0,0:0:0:0:
369,287,84665,2,0,B|384:322|384:322|408:295,1,74.3750007092953,0|0,0:0|0:0,0:0:0:0:
512,112,84837,6,0,L|438:108,1,74.3750007092953,8|0,0:0|0:0,0:0:0:0:
319,192,85010,2,0,L|393:196,1,74.3750007092953,0|0,0:0|0:0,0:0:0:0:
417,6,85182,2,0,P|361:42|347:98,1,74.3750007092953,0|0,0:0|0:0,0:0:0:0:
408,295,85354,1,0,0:0:0:0:
430,264,85441,1,0,0:0:0:0:
422,227,85527,6,0,B|395:197|395:197|318:192|318:192|265:224|265:224|181:219,1,223.125002127886,2|0,0:0|0:0,0:0:0:0:
173,144,85872,2,0,L|163:327,1,148.750001418591,0|0,0:0|0:0,0:0:0:0:
186,40,86216,1,8,0:0:0:0:
149,40,86302,1,0,0:0:0:0:
114,54,86388,1,0,0:0:0:0:
87,79,86474,1,8,0:0:0:0:
74,115,86561,1,0,0:0:0:0:
116,122,86648,1,0,0:0:0:0:
160,112,86734,1,8,0:0:0:0:
198,88,86820,1,8,0:0:0:0:
223,51,86906,5,8,0:0:0:0:
74,115,87078,2,0,L|-17:110,1,63.7500024318696,2|0,0:0|0:0,0:0:0:0:
191,179,87251,1,2,0:0:0:0:
102,233,87423,2,0,L|24:228,1,53.125,2|0,0:0|0:0,0:0:0:0:
158,308,87596,5,8,0:3:0:0:
211,311,87768,1,0,0:0:0:0:
253,314,87941,1,0,0:0:0:0:
274,315,88113,1,0,0:0:0:0:
451,168,88285,6,0,B|396:161|370:187|370:187|341:212|288:206,1,170,14|8,0:1|0:0,0:0:0:0:
267,45,88803,1,2,0:3:0:0:
282,57,88889,1,0,0:0:0:0:
297,74,88975,1,0,0:0:0:0:
307,92,89061,1,0,0:0:0:0:
311,113,89147,1,8,0:0:0:0:
211,130,89320,1,0,0:0:0:0:
146,54,89492,1,0,0:0:0:0:
147,32,89578,1,0,0:0:0:0:
149,10,89665,5,2,0:3:0:0:
64,104,89837,2,0,L|21:101,2,42.5,0|0|8,0:0|0:0|0:0,0:0:0:0:
132,180,90182,1,2,0:3:0:0:
151,172,90268,1,0,0:0:0:0:
170,164,90354,2,0,L|212:166,2,42.5,0|0|8,0:0|0:0|0:0,0:0:0:0:
41,231,90699,2,0,L|-1:228,2,42.5,0|0|0,0:0|0:0|0:0,0:0:0:0:
152,323,91044,6,0,L|242:329,1,85,2|0,0:3|0:0,0:0:0:0:
255,338,91303,1,0,0:0:0:0:
273,347,91389,1,8,0:0:0:0:
365,304,91561,1,2,0:3:0:0:
459,342,91734,1,0,0:0:0:0:
478,350,91820,1,0,0:0:0:0:
497,358,91906,1,8,0:0:0:0:
445,243,92078,1,0,0:0:0:0:
440,221,92165,1,0,0:0:0:0:
441,199,92251,1,0,0:0:0:0:
447,178,92337,1,0,0:0:0:0:
457,159,92423,5,2,0:3:0:0:
509,71,92596,2,0,L|506:29,2,42.5,0|0|8,0:0|0:0|0:0,0:0:0:0:
406,71,92941,1,2,0:3:0:0:
387,63,93027,1,0,0:0:0:0:
367,55,93113,2,0,L|325:58,2,42.5,0|0|8,0:0|0:0|0:0,0:0:0:0:
405,181,93458,2,0,L|447:178,2,42.5,0|0|0,0:0|0:0|0:0,0:0:0:0:
334,287,93803,6,0,B|304:279|276:286|253:303|253:303|164:254|149:178|231:125|298:191|271:263|174:294|174:294|157:271|132:256|89:255,1,510,2|0,0:3|0:0,0:0:0:0:
14,302,95010,1,0,0:0:0:0:
14,208,95182,2,0,B|26:181|56:156|108:161|108:161|128:136|137:54|81:46|60:104|118:122|148:109|148:109|174:88|207:87,1,340,2|0,0:3|0:0,0:0:0:0:
293,99,96044,1,8,0:0:0:0:
354,169,96216,1,0,0:0:0:0:
401,88,96389,1,0,0:0:0:0:
489,59,96561,6,0,P|494:101|479:141,1,85,2|0,0:3|0:0,0:0:0:0:
363,263,96906,2,0,P|403:250|433:220,1,85,8|0,0:0|0:0,0:0:0:0:
401,88,97251,2,0,P|370:59|330:49,1,85,0|8,0:0|0:0,0:0:0:0:
279,136,97596,2,0,P|312:162|354:169,1,85,0|0,0:0|0:0,0:0:0:0:
223,47,97941,6,0,L|180:46,3,42.5,2|0|0|0,0:3|0:0|0:0|0:0,0:0:0:0:
177,143,98285,2,0,L|134:143,3,42.5,0|0|2|0,0:0|0:0|0:3|0:0,0:0:0:0:
73,67,98630,1,2,0:0:0:0:
95,79,98716,1,2,0:0:0:0:
108,105,98803,1,2,0:0:0:0:
110,138,98889,1,2,0:0:0:0:
90,170,98975,1,2,0:0:0:0:
48,179,99061,1,0,0:0:0:0:
11,150,99147,1,2,0:0:0:0:
279,137,99320,6,0,P|341:172|398:342,1,255.000009727478,6|8,0:0|0:0,0:0:0:0:
269,280,99837,1,0,0:0:0:0:
279,137,100010,1,0,0:0:0:0:
279,137,100096,2,0,L|443:128,1,127.500004863739,2|0,0:0|0:0,0:0:0:0:
464,103,100354,2,0,P|456:133|464:182,1,63.7500024318696,12|0,0:0|0:0,0:0:0:0:
399,337,100527,2,0,P|407:307|399:258,1,63.7500024318696,0|0,0:0|0:0,0:0:0:0:
342,28,100699,6,0,P|219:50|141:147,1,255.000009727478,2|8,0:0|0:0,0:0:0:0:
324,237,101216,1,0,0:0:0:0:
332,205,101303,1,0,0:0:0:0:
330,173,101389,2,0,P|308:151|261:133,1,63.7500024318696,0|0,0:0|0:0,0:0:0:0:
89,111,101561,2,0,P|112:134|141:148,1,63.7500024318696,2|0,0:0|0:0,0:0:0:0:
241,23,101734,2,0,P|218:46|204:75,1,63.7500024318696,8|0,0:0|0:0,0:0:0:0:
175,261,101906,2,0,P|198:238|212:209,1,63.7500024318696,0|0,0:0|0:0,0:0:0:0:
127,14,102078,6,0,L|0:20,1,127.500004863739,2|0,0:0|0:0,0:0:0:0:
68,226,102423,2,0,B|101:190|101:190|90:112,1,127.500004863739,8|0,0:0|0:0,0:0:0:0:
10,344,102768,1,0,0:0:0:0:
10,344,102854,2,0,L|137:350,1,127.500004863739,2|0,0:0|0:0,0:0:0:0:
195,380,103113,1,8,0:0:0:0:
172,338,103199,1,0,0:0:0:0:
167,291,103285,1,0,0:0:0:0:
181,245,103371,1,0,0:0:0:0:
212,209,103458,5,4,0:1:0:0:
338,308,103630,1,0,0:0:0:0:
306,306,103716,1,0,0:0:0:0:
274,304,103802,1,8,0:0:0:0:
152,110,103975,1,2,0:0:0:0:
234,19,104147,2,0,L|297:22,1,63.7500024318696,6|0,0:1|0:0,0:0:0:0:
297,121,104320,2,0,L|360:124,1,63.7500024318696,0|0,0:0|0:0,0:0:0:0:
448,38,104492,1,2,0:0:0:0:
446,69,104578,1,0,0:0:0:0:
476,125,104665,1,2,0:0:0:0:
474,156,104751,1,0,0:0:0:0:
443,211,104837,6,0,B|369:203|321:238|321:238|275:274|200:266,1,255,6|8,0:0|0:0,0:0:0:0:
106,161,105354,1,0,0:0:0:0:
222,80,105527,1,0,0:0:0:0:
222,80,105613,2,0,L|228:207,1,127.500004863739,2|0,0:0|0:0,0:0:0:0:
200,266,105872,2,0,P|233:268|278:259,1,63.7500024318696,12|0,0:0|0:0,0:0:0:0:
443,211,106044,2,0,P|410:209|365:218,1,63.7500024318696,0|0,0:0|0:0,0:0:0:0:
119,344,106216,6,0,P|221:364|377:324,1,255.000009727478,2|8,0:0|0:0,0:0:0:0:
443,211,106734,1,0,0:0:0:0:
358,99,106906,2,0,L|294:95,1,63.7500024318696,0|0,0:0|0:0,0:0:0:0:
289,189,107078,2,0,L|225:185,1,63.7500024318696,2|0,0:0|0:0,0:0:0:0:
228,36,107251,2,0,L|164:32,1,63.7500024318696,8|0,0:0|0:0,0:0:0:0:
152,239,107423,2,0,L|88:235,1,63.7500024318696,0|0,0:0|0:0,0:0:0:0:
32,1,107596,6,0,B|63:21|78:54|74:106|42:139|42:139|29:117|42:89,1,191.250007295609,6|0,0:1|0:0,0:0:0:0:
115,55,107941,2,0,B|164:58|164:58|192:72|192:72|240:75,1,127.500004863739,2|0,0:0|0:0,0:0:0:0:
423,97,108285,1,6,0:1:0:0:
337,18,108458,1,0,0:0:0:0:
263,185,108630,1,2,0:0:0:0:
375,197,108802,1,0,0:0:0:0:
351,155,108889,1,0,0:0:0:0:
328,114,108975,6,0,L|333:58,5,42.5000016212464,2|0|0|2|0|0,0:0|0:0|0:0|0:0|0:0|0:0,0:0:0:0:
263,185,109320,2,0,L|268:240,5,42.5000016212464,2|0|0|2|0|0,0:0|0:0|0:0|0:0|0:0|0:0,0:0:0:0:
178,130,109665,1,2,0:0:0:0:
101,186,109837,1,2,0:0:0:0:
104,281,110010,1,2,0:0:0:0:
25,334,110182,1,2,0:0:0:0:
256,321,110354,6,0,B|303:331|334:299|334:299|366:265|415:275,1,170,6|0,0:1|0:0,0:0:0:0:
491,324,110872,1,2,0:0:0:0:
405,362,111044,2,0,L|417:178,1,170,2|0,0:0|0:0,0:0:0:0:
423,98,111561,1,2,0:0:0:0:
269,228,111734,6,0,P|190:216|149:127,1,170,6|0,0:1|0:0,0:0:0:0:
242,138,112251,1,2,0:0:0:0:
269,228,112423,2,0,L|177:234,1,85,2|0,0:0|0:0,0:0:0:0:
55,147,112768,1,2,0:0:0:0:
242,138,112941,1,2,0:0:0:0:
210,325,113113,6,0,P|128:311|89:239,1,170,6|0,0:1|0:0,0:0:0:0:
422,239,113803,2,0,P|383:311|302:325,1,170,6|0,0:1|0:0,0:0:0:0:
194,227,114492,6,0,L|352:227,1,127.5,6|0,0:1|0:0,0:0:0:0:
339,239,114837,1,0,0:0:0:0:
332,218,114923,1,0,0:0:0:0:
331,196,115010,1,0,0:0:0:0:
337,175,115096,1,0,0:0:0:0:
350,158,115182,5,0,0:0:0:0:
321,150,115268,1,0,0:0:0:0:
298,130,115354,1,0,0:0:0:0:
282,104,115441,1,0,0:0:0:0:
273,75,115527,5,0,0:0:0:0:
243,98,115613,1,0,0:0:0:0:
207,111,115699,1,0,0:0:0:0:
169,115,115785,1,0,0:0:0:0:
