osu file format v14

[General]
AudioFilename: audio.mp3
AudioLeadIn: 0
PreviewTime: 88285
Countdown: 0
SampleSet: Soft
StackLeniency: 0.7
Mode: 0
LetterboxInBreaks: 0
EpilepsyWarning: 1
WidescreenStoryboard: 1

[Editor]
Bookmarks: 65527
DistanceSpacing: 1
BeatDivisor: 4
GridSize: 4
TimelineZoom: 1

[Metadata]
Title:YUKARI
TitleUnicode:YUKARI
Artist:Ocelot
ArtistUnicode:Ocelot
Creator:Nhawak
Version:Plaudible's Normal
Source:CROSSxBEATS
Tags:oriental drumstep Plaudible SnowNiNo_ Mikii Rohit6 Nerova Riuz GX Kanari
BeatmapID:1377407
BeatmapSetID:497536

[Difficulty]
HPDrainRate:4
CircleSize:3
OverallDifficulty:5
ApproachRate:6
SliderMultiplier:1.2
SliderTickRate:1

[Events]
//Background and Video events
0,0,"BG.jpg",0,0
//Break Periods
2,55381,59649
//Storyboard Layer 0 (Background)
//Storyboard Layer 1 (Fail)
//Storyboard Layer 2 (Pass)
//Storyboard Layer 3 (Foreground)
Sprite,Foreground,Centre,"sb\highlight.png",320,240 F,0,66130,66216,0,1 P,0,66216,,A M,0,66216,66389,394.3452,163.5507,335.6853,155.4271 F,0,66216,66906,1 M,0,66389,66561,335.6853,155.4271,280.1053,153.9364 M,0,66561,66734,280.1053,153.9364,217.4342,147.9258 M,0,66734,66906,217.4342,147.9258,160.789,146.7178 F,0,66906,67251,1,0
Sprite,Foreground,Centre,"sb\highlight.png",320,240 F,0,71647,71733,0,1 P,0,71733,,A M,0,71733,71906,295.4521,418.1479,357.4278,409.323 F,0,71733,72423,1 M,0,71906,72078,357.4278,409.323,415.4697,405.7282 M,0,72078,72251,415.4697,405.7282,472.7328,399.7176 M,0,72251,72423,472.7328,399.7176,531.8137,399.2109 F,0,72423,72768,1,0
Sprite,Foreground,Centre,"sb\highlight.png",320,240 F,0,77165,77251,0,1 P,0,77251,,A M,0,77251,77424,350.1589,148.8219,411.4333,151.9202 F,0,77251,77941,1 M,0,77424,77596,411.4333,151.9202,470.1765,150.4296 M,0,77596,77769,470.1765,150.4296,527.4397,160.5504 M,0,77769,77941,527.4397,160.5504,573.8959,190.2027 F,0,77941,78286,1,0
Sprite,Foreground,Centre,"sb\highlight.png",320,240 F,0,82682,82768,0,1 P,0,82768,,A M,0,82768,82941,495.3425,153.7315,436.6826,156.8298 F,0,82768,83458,1 M,0,82941,83113,436.6826,156.8298,386.0121,124.4789 M,0,83113,83286,386.0121,124.4789,326.8479,120.5724 M,0,83286,83458,326.8479,120.5724,273.7095,149.5233 F,0,83458,83803,1,0
Sprite,Foreground,Centre,"sb\highlight.png",320,240 F,0,87510,87596,0,1 P,0,87596,,A M,0,87596,87769,219.7041,278.5753,275.3675,283.7778 F,0,87596,88286,1 M,0,87769,87941,275.3675,283.7778,332.708,296.3145 M,0,87941,88114,332.708,296.3145,389.9712,304.3313 M,0,88114,88286,389.9712,304.3313,442.7397,277.874 F,0,88286,88631,1,0
Sprite,Foreground,Centre,"sb\highlight.png",320,240 F,0,70268,70355,0,1 M,0,70355,,251.2659,174.0713 C,0,70355,,255,128,128 P,0,70355,,A F,0,70355,71044,1,0
Sprite,Foreground,Centre,"sb\highlight.png",320,240 F,0,70785,70872,0,1 M,0,70872,,289.8412,217.5562 C,0,70872,,255,128,128 P,0,70872,,A F,0,70872,71561,1,0
Sprite,Foreground,Centre,"sb\highlight.png",320,240 F,0,70958,71045,0,1 M,0,71045,,292.6467,213.348 C,0,71045,,255,128,128 P,0,71045,,A F,0,71045,71734,1,0
Sprite,Foreground,Centre,"sb\highlight.png",320,240 F,0,71303,71390,0,1 M,0,71390,,252.6686,321.359 C,0,71390,,255,128,128 P,0,71390,,A F,0,71390,72079,1,0
Sprite,Foreground,Centre,"sb\highlight.png",320,240 F,0,75785,75872,0,1 M,0,75872,,166.4001,167.759 C,0,75872,,255,128,128 P,0,75872,,A F,0,75872,76561,1,0
Sprite,Foreground,Centre,"sb\highlight.png",320,240 F,0,76130,76217,0,1 M,0,76217,,268.0988,211.2439 C,0,76217,,255,128,128 P,0,76217,,A F,0,76217,76906,1,0
Sprite,Foreground,Centre,"sb\highlight.png",320,240 F,0,76475,76562,0,1 M,0,76562,,381.7206,197.9179 C,0,76562,,255,128,128 P,0,76562,,A F,0,76562,77251,1,0
Sprite,Foreground,Centre,"sb\highlight.png",320,240 F,0,76992,77079,0,1 M,0,77079,,351.5618,144.6138 C,0,77079,,255,128,128 P,0,77079,,A F,0,77079,77768,1,0
Sprite,Foreground,Centre,"sb\highlight.png",320,240 F,0,81303,81390,0,1 M,0,81390,,463.7809,357.8302 C,0,81390,,255,128,128 P,0,81390,,A F,0,81390,82079,1,0
Sprite,Foreground,Centre,"sb\highlight.png",320,240 F,0,81647,81734,0,1 M,0,81734,,524.0987,259.6385 C,0,81734,,255,128,128 P,0,81734,,A F,0,81734,82423,1,0
Sprite,Foreground,Centre,"sb\highlight.png",320,240 F,0,81992,82079,0,1 M,0,82079,,552.8549,143.211 C,0,82079,,255,128,128 P,0,82079,,A F,0,82079,82768,1,0
Sprite,Foreground,Centre,"sb\highlight.png",320,240 F,0,86820,86907,0,1 M,0,86907,,280.7234,129.1836 C,0,86907,,255,128,128 P,0,86907,,A F,0,86907,87596,1,0
Sprite,Foreground,Centre,"sb\highlight.png",320,240 F,0,87165,87252,0,1 M,0,87252,,185.3371,167.7589 C,0,87252,,255,128,128 P,0,87252,,A F,0,87252,87941,1,0
Sprite,Foreground,Centre,"sb\highlight.png",320,240 F,0,103372,103459,0,1 M,0,103459,,493.2385,370.4548 C,0,103459,,255,128,128 P,0,103459,,A F,0,103459,104148,1,0
Sprite,Foreground,Centre,"sb\highlight.png",320,240 F,0,103716,103803,0,1 M,0,103803,,449.7535,273.6658 C,0,103803,,255,128,128 P,0,103803,,A F,0,103803,104492,1,0
Sprite,Foreground,Centre,"sb\highlight.png",320,240 F,0,104061,104148,0,1 M,0,104148,,482.0165,160.7452 C,0,104148,,255,128,128 P,0,104148,,A F,0,104148,104837,1,0
Sprite,Foreground,Centre,"sb\highlight.png",320,240 F,0,104406,104493,0,1 M,0,104493,,400.6577,73.07396 C,0,104493,,255,128,128 P,0,104493,,A F,0,104493,105182,1,0
Sprite,Foreground,Centre,"sb\highlight.png",320,240 F,0,104751,104838,0,1 M,0,104838,,289.8412,101.1288 C,0,104838,,255,128,128 P,0,104838,,A F,0,104838,105527,1,0
Sprite,Foreground,Centre,"sb\highlight.png",320,240 F,0,107510,107597,0,1 M,0,107597,,465.1837,184.5918 C,0,107597,,255,128,128 P,0,107597,,A F,0,107597,108286,1,0
Sprite,Foreground,Centre,"sb\highlight.png",320,240 F,0,108199,108286,0,1 M,0,108286,,348.0549,360.6356 C,0,108286,,255,128,128 P,0,108286,,A F,0,108286,108975,1,0
Sprite,Foreground,Centre,"sb\highlight.png",320,240 F,0,108716,108803,0,1 M,0,108803,,289.8412,196.5151 C,0,108803,,255,128,128 P,0,108803,,A F,0,108803,109492,1,0
Sprite,Foreground,Centre,"sb\highlight.png",320,240 F,0,108889,108976,0,1 M,0,108976,,286.3344,198.6192 C,0,108976,,255,128,128 P,0,108976,,A F,0,108976,109665,1,0
Sprite,Foreground,Centre,"sb\highlight.png",320,240 F,0,109406,109493,0,1 M,0,109493,,237.9398,225.9726 C,0,109493,,255,128,128 P,0,109493,,A F,0,109493,110182,1,0
Sprite,Foreground,Centre,"sb\highlight.png",320,240 F,0,109578,109665,0,1 M,0,109665,,240.0439,227.3753 C,0,109665,,255,128,128 P,0,109665,,A F,0,109665,110354,1,0
Sprite,Foreground,Centre,"sb\highlight.png",320,240 F,0,109923,110010,0,1 M,0,110010,,124.3179,194.4109 C,0,110010,,255,128,128 P,0,110010,,A F,0,110010,110699,1,0
Sprite,Foreground,Centre,"sb\highlight.png",320,240 F,0,110268,110355,0,1 M,0,110355,,141.8522,307.3315 C,0,110355,,255,128,128 P,0,110355,,A F,0,110355,111044,1,0
Sprite,Foreground,Centre,"sb\highlight.png",320,240 F,0,114406,114493,0,1 C,0,114493,,255,128,128 P,0,114493,,A M,0,114493,114665,446.2468,173.3699,399.255,137.6 F,0,114493,115872,1 M,0,114665,114837,399.255,137.6,344.9323,128.6699 M,0,114837,115010,344.9323,128.6699,288.9245,148.7661 M,0,115010,115182,288.9245,148.7661,236.8529,183.8344 M,0,115182,115354,236.8529,183.8344,183.8441,190.3436 M,0,115354,115527,183.8441,190.3436,135.4148,161.5296 M,0,115527,115699,135.4148,161.5296,138.8844,122.5449 M,0,115699,115872,138.8844,122.5449,195.8577,112.3507 F,0,115872,115958,1,0
Sprite,Foreground,Centre,"sb\highlight.png",320,240 F,0,97854,97941,0,1 C,0,97941,,255,128,128 P,0,97941,,A M,0,97941,98113,68.20838,217.5561,95.56181,163.5506 F,0,97941,98975,1 M,0,98113,98285,95.56181,163.5506,143.9563,175.4739 M,0,98285,98458,143.9563,175.4739,157.2823,233.6876 M,0,98458,98630,157.2823,233.6876,130.6303,286.9917 M,0,98630,98803,130.6303,286.9917,113.096,342.3999 M,0,98803,98975,113.096,342.3999,119.4084,401.315 F,0,98975,99320,1,0
Sprite,Foreground,Centre,"sb\highlight.png",320,240 F,0,99234,99321,0,1 M,0,99321,,228.8221,353.6218 C,0,99321,,255,128,128 P,0,99321,,A F,0,99321,100010,1,0
//Storyboard Sound Samples

[TimingPoints]
10,344.827586206897,4,2,1,60,1,0
10,-133.333333333333,4,2,1,60,0,0
182,-133.333333333333,4,2,2,60,0,0
11044,-100,4,2,1,60,0,0
65527,-100,4,2,1,60,0,0
66216,-100,4,2,1,60,0,1
66303,-100,4,2,1,60,0,0
66906,-100,4,2,1,60,0,1
69665,-100,4,2,1,60,0,0
70354,-100,4,2,1,60,0,1
71734,-100,4,2,1,60,0,0
72423,-100,4,2,1,60,0,1
74492,-100,4,2,1,60,0,0
75872,-100,4,2,1,60,0,1
77251,-100,4,2,1,60,0,0
77941,-100,4,2,1,60,0,1
80010,-100,4,2,1,60,0,0
80699,-100,4,2,1,60,0,1
82768,-100,4,2,1,60,0,0
83458,-100,4,2,1,60,0,1
85527,-100,4,2,1,60,0,0
86216,-100,4,2,1,60,0,1
87596,-100,4,2,1,60,0,0
88285,-100,4,2,10,60,0,0
88630,-100,4,2,1,60,0,0
99320,-100,4,2,1,60,0,1
100354,-100,4,2,10,60,0,1
100699,-100,4,2,1,60,0,1
105872,-100,4,2,10,60,0,1
106216,-100,4,2,1,60,0,1
110354,-100,4,2,1,60,0,0
115872,-100,4,2,1,30,0,0
115972,-100,4,2,1,5,0,0

[Colours]
Combo1 : 231,227,224
Combo2 : 248,133,136
Combo3 : 236,140,207
Combo4 : 226,167,122

[HitObjects]
398,175,10,6,0,B|405:123|361:99|361:99|294:121|293:206|334:244|334:244|288:222|231:242,1,360.000013732911,4|0,0:0|0:0,0:0:0:0:
117,115,2078,1,2,0:0:0:0:
60,285,2768,6,4,B|125:329|188:283|188:283|247:236|309:281|309:281|271:307|268:364,1,360.000013732911,0|0,0:0|0:0,0:0:0:0:
486,251,5527,6,0,B|438:184|359:202|359:202|325:232|278:230|278:230|266:372,1,360.000013732911
95,305,7596,2,0,P|83:257|103:211,1,90.0000034332277,2|0,0:0|0:0,0:0:0:0:
175,179,8285,6,0,B|230:189|265:151|265:151|305:131|354:158,2,180.000006866455,0|2|0,0:0|0:0|0:0,0:0:0:0:
175,179,11044,6,0,P|232:196|296:170,1,120,6|0,0:0|0:0,0:0:0:0:
381,102,11734,2,0,L|375:30,2,60,2|0|0,0:0|0:0|0:0,0:0:0:0:
412,153,12251,1,0,0:0:0:0:
412,153,12423,2,0,L|398:290,1,120,2|0,0:0|0:0,0:0:0:0:
304,346,13113,2,0,L|241:340,1,60,2|0,0:0|0:0,0:0:0:0:
193,371,13458,2,0,P|148:371|126:362,1,60,0|0,0:0|0:0,0:0:0:0:
91,324,13803,6,0,P|81:270|115:199,1,120,2|0,0:0|0:0,0:0:0:0:
179,117,14492,2,0,P|139:112|115:118,2,60,2|0|0,0:0|0:0|0:0,0:0:0:0:
222,159,15010,1,0,0:0:0:0:
222,159,15182,2,0,B|281:175|281:175|347:149,1,120,2|0,0:0|0:0,0:0:0:0:
328,33,15872,2,0,B|269:17|269:17|203:43,1,120,2|0,0:0|0:0,0:0:0:0:
115,110,16561,6,0,L|124:230,1,120,2|0,0:0|0:0,0:0:0:0:
158,278,17078,1,2,0:0:0:0:
158,278,17251,2,0,P|203:309|271:302,1,120,2|0,0:0|0:0,0:0:0:0:
318,276,17768,1,2,0:0:0:0:
318,276,17941,2,0,P|375:269|424:302,1,120,2|0,0:0|0:0,0:0:0:0:
448,359,18458,1,2,0:0:0:0:
448,359,18630,1,2,0:0:0:0:
475,193,19147,1,2,0:0:0:0:
475,193,19320,6,0,P|480:154|476:133,1,60,2|0,0:0|0:0,0:0:0:0:
420,110,19665,2,0,P|388:86|368:79,1,60,2|0,0:0|0:0,0:0:0:0:
322,116,20010,2,0,P|285:131|269:145,1,60,2|2,0:0|0:0,0:0:0:0:
282,202,20354,2,0,P|277:241|281:262,2,60,2|2|0,0:0|0:0|0:0,0:0:0:0:
282,202,22078,6,0,P|287:161|282:139,2,60,6|0|0,0:0|0:0|0:0,0:0:0:0:
266,260,22596,1,2,0:0:0:0:
266,260,22768,2,0,L|399:248,1,120,8|0,0:0|0:0,0:0:0:0:
505,240,23458,2,0,L|498:309,2,60,2|8|0,0:0|0:0|0:0,0:0:0:0:
471,189,23975,1,0,0:0:0:0:
471,189,24147,2,0,P|456:132|495:65,1,120,8|2,0:0|0:0,0:0:0:0:
364,44,24837,6,0,B|323:71|277:47|277:47|226:22|173:60,1,180,2|2,0:0|0:0,0:0:0:0:
152,93,25527,1,8,0:0:0:0:
115,269,26044,1,2,0:0:0:0:
115,269,26216,2,0,B|148:279|148:279|182:270,1,60,2|8,0:0|0:0,0:0:0:0:
227,298,26561,2,0,B|257:280|257:280|275:250,1,60,2|2,0:0|0:0,0:0:0:0:
325,236,26906,2,0,L|333:113,1,120,8|8,0:0|0:0,0:0:0:0:
223,66,27596,6,0,P|228:36|222:7,2,60,2|0|0,0:0|0:0|0:0,0:0:0:0:
183,111,28113,1,2,0:0:0:0:
183,111,28285,2,0,B|162:169|162:169|193:241,1,120,8|0,0:0|0:0,0:0:0:0:
261,315,28975,2,0,P|290:320|320:316,2,60,2|8|0,0:0|0:0|0:0,0:0:0:0:
210,348,29492,1,2,0:0:0:0:
210,348,29665,2,0,L|81:342,1,120,8|2,0:0|0:0,0:0:0:0:
18,245,30354,6,0,P|50:195|166:187,1,180,2|2,0:0|0:0,0:0:0:0:
202,229,31044,1,8,0:0:0:0:
325,359,31561,1,2,0:0:0:0:
325,359,31734,2,0,L|394:363,2,60,2|8|2,0:0|0:0|0:0,0:0:0:0:
277,322,32251,2,0,L|203:330,2,60,2|8|8,0:0|0:0|0:0,0:0:0:0:
304,268,32768,1,8,0:0:0:0:
390,184,33113,6,0,P|428:190|456:182,2,60,6|0|0,0:0|0:0|0:0,0:0:0:0:
338,153,33630,1,2,0:0:0:0:
338,153,33803,2,0,P|276:138|208:157,1,120,8|0,0:0|0:0,0:0:0:0:
108,187,34492,2,0,P|103:133|110:113,2,60,2|8|0,0:0|0:0|0:0,0:0:0:0:
142,236,35010,1,2,0:0:0:0:
142,236,35182,2,0,B|165:261|165:261|274:264,1,120,8|2,0:0|0:0,0:0:0:0:
371,266,35872,6,0,B|376:201|376:201|354:161|354:161|360:87,1,180,2|2,0:0|0:0,0:0:0:0:
401,49,36561,1,8,0:0:0:0:
221,43,37078,1,2,0:0:0:0:
221,43,37251,2,0,B|185:47|185:47|148:71,1,60,2|8,0:0|0:0,0:0:0:0:
106,72,37596,2,0,B|91:105|91:105|93:149,1,60,2|2,0:0|0:0,0:0:0:0:
54,175,37941,2,0,L|66:307,1,120,8|8,0:0|0:0,0:0:0:0:
184,298,38630,6,0,P|179:327|166:354,2,60,2|0|0,0:0|0:0|0:0,0:0:0:0:
226,255,39147,1,2,0:0:0:0:
226,255,39320,2,0,L|215:131,1,120,8|0,0:0|0:0,0:0:0:0:
270,28,40010,2,0,P|300:18|348:27,1,60,2|0,0:0|0:0,0:0:0:0:
377,53,40354,2,0,P|386:83|377:131,1,60,2|2,0:0|0:0,0:0:0:0:
352,162,40699,2,0,B|360:255|360:255|400:287,1,120,8|2,0:0|0:0,0:0:0:0:
462,359,41389,6,0,L|266:349,1,180,2|2,0:0|0:0,0:0:0:0:
260,293,42078,2,0,P|232:271|188:267,1,60,8|2,0:0|0:0,0:0:0:0:
148,266,42423,2,0,P|114:279|89:315,1,60,8|2,0:0|0:0,0:0:0:0:
64,345,42768,5,6,0:1:0:0:
180,375,43113,1,2,0:0:0:0:
260,293,43458,2,0,L|256:227,2,60,2|2|2,0:0|0:0|0:0,0:0:0:0:
308,328,43975,1,2,0:0:0:0:
308,328,44147,6,0,B|377:326|377:326|431:287|432:216|377:167,1,240,6|2,0:0|0:0,0:0:0:0:
271,209,45182,2,0,P|262:177|265:148,1,60
298,102,45527,2,0,P|235:102|314:31,1,240,2|2,0:0|0:0,0:0:0:0:
406,69,46561,1,2,0:0:0:0:
507,131,46906,6,0,P|525:74|504:3,2,120,2|0|2,0:0|0:0|0:0,0:0:0:0:
408,200,47941,2,0,L|347:203,1,60
308,247,48285,2,0,B|252:273|252:273|174:254,1,120,2|0,0:0|0:0,0:0:0:0:
75,243,48975,2,0,L|77:175,1,60,2|0,0:0|0:0,0:0:0:0:
103,129,49320,2,0,L|105:61,1,60,2|2,0:0|0:0,0:0:0:0:
136,16,49665,6,0,B|205:4|250:49|250:49|304:98|380:73,1,240,2|2,0:0|0:0,0:0:0:0:
472,42,50699,2,0,P|476:80|470:108,1,60,0|0,0:0|0:0,0:0:0:0:
435,149,51044,2,0,L|443:286,1,120,2|0,0:0|0:0,0:0:0:0:
353,350,51734,2,0,P|309:354|277:346,1,60,2|0,0:0|0:0,0:0:0:0:
247,312,52078,2,0,P|217:308|187:313,1,60,2|0,0:0|0:0,0:0:0:0:
137,345,52423,6,0,B|80:362|80:362|2:333,2,120,2|0|2,0:0|0:0|0:0,0:0:0:0:
180,232,53458,1,0,0:0:0:0:
91,150,53803,2,0,B|53:78|100:23|100:23|161:18,1,180,2|2,0:0|0:0,0:0:0:0:
203,13,54492,1,2,0:0:0:0:
272,111,54837,2,0,L|338:116,2,60,0|0|4,0:0|0:0|0:0,0:0:0:0:
256,192,60699,12,0,64147,0:0:0:0:
351,211,64837,6,0,P|348:243|356:275,2,60
375,160,65354,1,0,0:0:0:0:
375,160,65527,2,0,L|438:155,2,60,0|0|0,0:0|0:0|0:0,0:0:0:0:
336,121,66044,1,0,0:0:0:0:
336,121,66216,6,0,B|284:116|284:116|260:110|260:110|236:116|236:116|216:110|216:110|144:104,1,180,6|0,0:0|0:0,0:0:0:0:
98,101,66906,1,12,0:1:0:0:
47,209,67251,2,0,L|50:271,1,60
104,294,67596,2,0,B|164:320|164:320|230:304,1,120,2|0,0:0|0:0,0:0:0:0:
322,361,68285,2,0,B|359:364|359:364|398:350,1,60,8|0,0:0|0:0,0:0:0:0:
437,376,68630,2,0,B|465:351|465:351|482:314,1,60,0|0,0:0|0:0,0:0:0:0:
508,280,68975,6,0,B|516:161|516:161|468:114,1,180,2|0,0:0|0:0,0:0:0:0:
424,82,69665,1,8,0:0:0:0:
304,92,70010,1,0,0:0:0:0:
190,128,70354,2,0,P|182:85|189:53,2,60,2|8|0,0:0|0:0|0:0,0:0:0:0:
231,172,70872,1,2,0:0:0:0:
231,172,71044,2,0,L|226:235,1,60,8|2,0:0|0:0,0:0:0:0:
192,281,71389,2,0,P|184:316|187:345,1,60,8|2,0:0|0:0,0:0:0:0:
235,373,71734,6,0,B|309:366|309:366|325:356|325:356|345:363|345:363|422:356,1,180,6|0,0:0|0:0,0:0:0:0:
470,354,72423,1,12,0:1:0:0:
416,246,72768,2,0,P|412:195|421:169,1,60,0|0,0:0|0:0,0:0:0:0:
450,137,73113,2,0,L|518:135,2,60,2|0|0,0:0|0:0|0:0,0:0:0:0:
397,107,73630,1,0,0:0:0:0:
397,107,73803,2,0,P|353:103|318:119,1,60,8|0,0:0|0:0,0:0:0:0:
297,151,74147,2,0,P|267:156|238:151,1,60,0|0,0:0|0:0,0:0:0:0:
182,128,74492,6,0,B|178:171|178:171|173:175|173:175|177:179|177:179|174:215|174:215|177:219|177:219|173:223|173:223|171:247,1,120,2|0,0:0|0:0,0:0:0:0:
56,277,75182,2,0,B|59:233|59:233|64:229|64:229|60:225|60:225|63:189|63:189|60:185|60:185|64:181|64:181|66:157,1,120,8|0,0:0|0:0,0:0:0:0:
107,121,75699,1,0,0:0:0:0:
107,121,75872,2,0,P|146:119|177:128,1,60,4|0,0:1|0:0,0:0:0:0:
206,168,76216,2,0,P|235:173|265:170,1,60,8|0,0:0|0:0,0:0:0:0:
323,154,76561,2,0,L|319:224,2,60,0|8|8,0:0|0:0|0:0,0:0:0:0:
290,103,77078,1,8,0:0:0:0:
290,103,77251,6,0,B|347:107|347:107|367:113|367:113|391:107|391:107|415:113|415:113|467:118,1,180,6|0,0:0|0:0,0:0:0:0:
512,159,77941,1,12,0:1:0:0:
448,260,78285,2,0,L|378:253,1,60
331,267,78630,2,0,B|270:281|270:281|205:250,1,120,2|0,0:0|0:0,0:0:0:0:
147,158,79320,2,0,L|152:99,2,60,8|0|0,0:0|0:0|0:0,0:0:0:0:
100,195,79837,1,0,0:0:0:0:
100,195,80010,6,0,B|78:218|78:218|72:285|72:285|93:321,1,120,2|0,0:0|0:0,0:0:0:0:
177,376,80699,2,0,L|245:373,1,60,8|0,0:0|0:0,0:0:0:0:
293,351,81044,2,0,L|361:348,1,60,0|0,0:0|0:0,0:0:0:0:
403,316,81389,1,0,0:0:0:0:
464,213,81734,2,0,P|468:177|463:148,1,60,2|0,0:0|0:0,0:0:0:0:
492,101,82078,2,0,B|508:73|508:73|502:2,2,90,8|2|2,0:0|0:0|0:0,0:0:0:0:
433,113,82768,6,0,B|390:132|349:98|349:98|310:66|248:83,1,180,6|0,0:0|0:0,0:0:0:0:
211,107,83458,1,12,0:1:0:0:
279,205,83803,2,0,P|283:256|274:282,1,60,0|0,0:0|0:0,0:0:0:0:
231,297,84148,2,0,L|163:299,2,60,2|0|0,0:0|0:0|0:0,0:0:0:0:
267,344,84665,1,0,0:0:0:0:
267,344,84838,2,0,P|311:348|346:332,1,60,8|0,0:0|0:0,0:0:0:0:
374,309,85182,2,0,P|404:304|433:309,1,60
471,354,85527,6,0,B|478:283|478:283|506:236|506:236|481:180,1,180,2|2,0:0|0:0,0:0:0:0:
450,136,86216,1,8,0:0:0:0:
330,124,86561,2,0,L|256:117,1,60,0|8,0:0|0:0,0:0:0:0:
219,86,86906,2,0,P|181:78|156:86,1,60,8|2,0:0|0:0,0:0:0:0:
121,128,87251,2,0,P|113:166|121:191,1,60,2|2,0:0|0:0,0:0:0:0:
155,233,87596,2,0,B|200:244|235:236|235:236|267:255|267:255|301:249|351:267,1,180,8|0,0:3|0:0,0:0:0:0:
386,247,88285,6,0,P|413:182|379:119,1,120,14|8,0:1|0:0,0:0:0:0:
324,42,88975,2,0,P|364:23|386:23,2,60,0|8|0,0:0|0:0|0:0,0:0:0:0:
276,78,89492,1,0,0:0:0:0:
276,78,89665,2,0,P|209:99|155:88,1,120,2|8,0:3|0:0,0:0:0:0:
42,106,90354,2,0,P|36:68|45:38,2,60,0|8|0,0:0|0:0|0:0,0:0:0:0:
31,168,90872,1,0,0:0:0:0:
31,168,91044,6,0,L|24:243,1,60,2|0,0:3|0:0,0:0:0:0:
44,285,91389,2,0,P|85:296|121:286,1,60,8|2,0:0|0:3,0:0:0:0:
153,324,91734,2,0,L|279:317,1,120,0|0,0:0|0:0,0:0:0:0:
365,241,92423,2,0,P|361:283|367:304,2,60,2|0|8,0:3|0:0|0:0,0:0:0:0:
401,192,92941,1,2,0:3:0:0:
401,192,93113,2,0,P|407:144|401:120,1,60,0|8,0:0|0:0,0:0:0:0:
364,88,93458,2,0,P|316:82|292:88,1,60,0|0,0:0|0:0,0:0:0:0:
256,119,93803,6,0,L|135:115,1,120,2|8,0:3|0:0,0:0:0:0:
41,188,94492,1,0,0:0:0:0:
85,299,94837,2,0,P|119:303|146:293,1,60,0|0,0:0|0:0,0:0:0:0:
185,251,95182,2,0,P|242:277|323:257,1,120,2|8,0:3|0:0,0:0:0:0:
396,202,95872,2,0,P|403:238|393:272,2,60,0|8|0,0:0|0:0|0:0,0:0:0:0:
374,145,96389,1,0,0:0:0:0:
374,145,96561,6,0,B|314:131|314:131|253:157,1,120,2|8,0:3|0:0,0:0:0:0:
200,258,97251,2,0,B|146:280|146:280|86:266,1,120
6,171,97941,2,0,B|12:120|65:112|65:112|128:169|67:243|67:243|27:298|66:377,1,360,2|2,0:3|0:0,0:0:0:0:
168,309,99320,6,0,L|292:300,1,120,6|8,0:0|0:0,0:0:0:0:
334,262,99837,1,0,0:0:0:0:
334,262,100010,2,0,P|337:222|326:196,1,60,0|0,0:0|0:0,0:0:0:0:
280,170,100354,2,0,L|211:174,1,60,12|0,0:0|0:0,0:0:0:0:
164,149,100699,2,0,P|143:96|169:29,1,120,2|8,0:0|0:0,0:0:0:0:
252,116,101389,2,0,P|259:158|253:183,1,60,0|2,0:0|0:0,0:0:0:0:
232,230,101734,2,0,P|228:259|235:288,1,60,8|0,0:0|0:0,0:0:0:0:
267,339,102078,6,0,B|165:345|165:345|131:323,2,120,2|8|0,0:0|0:0|0:0,0:0:0:0:
323,361,102941,1,0,0:0:0:0:
323,361,103113,2,0,P|363:365|400:348,1,60,8|0,0:0|0:0,0:0:0:0:
432,327,103458,2,0,L|436:266,1,60,4|0,0:1|0:0,0:0:0:0:
390,227,103803,2,0,L|386:166,1,60,8|2,0:0|0:0,0:0:0:0:
420,118,104147,1,6,0:1:0:0:
337,31,104492,2,0,P|296:24|260:35,1,60,2|2,0:0|0:0,0:0:0:0:
227,59,104837,6,0,P|211:123|231:174,1,120,6|8,0:0|0:0,0:0:0:0:
277,207,105354,1,0,0:0:0:0:
277,207,105527,2,0,L|272:280,1,60,0|0,0:0|0:0,0:0:0:0:
222,300,105872,2,0,P|178:293|143:306,1,60,12|0,0:0|0:0,0:0:0:0:
105,279,106216,2,0,P|86:234|109:167,1,120,2|8,0:0|0:0,0:0:0:0:
204,98,106906,2,0,P|241:93|265:101,1,60,0|2,0:0|0:0,0:0:0:0:
312,68,107251,2,0,P|341:91|352:113,1,60,8|0,0:0|0:0,0:0:0:0:
403,141,107596,6,0,L|392:269,1,120,6|2,0:1|0:0,0:0:0:0:
285,315,108285,2,0,L|274:187,1,120,6|2,0:1|0:0,0:0:0:0:
229,155,108803,1,0,0:0:0:0:
229,155,108975,2,0,L|235:74,2,60,2|2|2,0:0|0:0|0:0,0:0:0:0:
176,184,109492,1,2,0:0:0:0:
176,184,109665,2,0,P|126:184|105:175,1,60,2|2,0:0|0:0,0:0:0:0:
62,155,110010,2,0,L|56:231,1,60,2|2,0:0|0:0,0:0:0:0:
80,269,110354,6,0,B|108:296|108:296|253:288,1,180,6|2,0:1|0:0,0:0:0:0:
309,284,111044,1,2,0:0:0:0:
397,127,111561,1,2,0:0:0:0:
397,127,111734,2,0,B|338:132|338:132|299:165|299:165|230:171,1,180,6|2,0:1|0:0,0:0:0:0:
170,178,112423,1,2,0:0:0:0:
63,122,112768,2,0,L|57:181,1,60,2|2,0:0|0:0,0:0:0:0:
50,241,113113,5,6,0:1:0:0:
268,339,113803,1,6,0:1:0:0:
385,130,114492,2,0,B|333:60|235:95|235:95|193:155|102:172|54:111|54:111|85:49|143:69,1,480,4|4,0:1|0:0,0:0:0:0:
256,192,115958,12,0,118630,0:0:0:0:
