osu file format v14

[General]
AudioFilename: audio.mp3
AudioLeadIn: 0
PreviewTime: 88285
Countdown: 0
SampleSet: Soft
StackLeniency: 0.7
Mode: 0
LetterboxInBreaks: 0
EpilepsyWarning: 1
WidescreenStoryboard: 1

[Editor]
DistanceSpacing: 1.2
BeatDivisor: 4
GridSize: 4
TimelineZoom: 1.6

[Metadata]
Title:YUKARI
TitleUnicode:YUKARI
Artist:Ocelot
ArtistUnicode:Ocelot
Creator:Nhawak
Version:Mystic
Source:CROSSxBEATS
Tags:oriental drumstep Plaudible SnowNiNo_ Mikii Rohit6 Nerova Riuz GX Kanari
BeatmapID:1058995
BeatmapSetID:497536

[Difficulty]
HPDrainRate:6.5
CircleSize:4.2
OverallDifficulty:9
ApproachRate:9.5
SliderMultiplier:2
SliderTickRate:1

[Events]
//Background and Video events
0,0,"BG.jpg",0,0
//Break Periods
2,55382,60159
//Storyboard Layer 0 (Background)
//Storyboard Layer 1 (Fail)
//Storyboard Layer 2 (Pass)
//Storyboard Layer 3 (Foreground)
Sprite,Foreground,Centre,"sb\highlight.png",320,240 F,0,66130,66216,0,1 P,0,66216,,A M,0,66216,66389,146.7617,160.0439,99.32369,150.5175 F,0,66216,66906,1 M,0,66389,66561,99.32369,150.5175,172.0943,135.7008 M,0,66561,66734,172.0943,135.7008,237.0726,100.934 M,0,66734,66906,237.0726,100.934,288.4383,127.7808 F,0,66906,67251,1,0
Sprite,Foreground,Centre,"sb\highlight.png",320,240 F,0,71647,71734,0,1 P,0,71734,,A M,0,71734,71907,469.3917,117.2604,403.0168,110.5394 F,0,71734,72424,1 M,0,71907,72079,403.0168,110.5394,374.0889,68.36928 M,0,72079,72252,374.0889,68.36928,314.2233,106.5451 M,0,72252,72424,314.2233,106.5451,253.3698,71.67122 F,0,72424,72769,1,0
Sprite,Foreground,Centre,"sb\highlight.png",320,240 F,0,77165,77251,0,1 P,0,77251,,A M,0,77251,77424,315.7918,181.0849,373.5594,203.8216 F,0,77251,77941,1 M,0,77424,77596,373.5594,203.8216,431.6012,165.8597 M,0,77596,77769,431.6012,165.8597,495.1767,159.8491 M,0,77769,77941,495.1767,159.8491,561.2712,162.1479 F,0,77941,78286,1,0
Sprite,Foreground,Centre,"sb\highlight.png",320,240 F,0,82682,82768,0,1 P,0,82768,,A M,0,82768,82941,150.9699,221.7645,166.6552,299.208 F,0,82768,83458,1 M,0,82941,83113,166.6552,299.208,148.9492,365.0488 M,0,83113,83286,148.9492,365.0488,100.3055,386.3916 M,0,83286,83458,100.3055,386.3916,86.44375,312.9424 F,0,83458,83803,1,0
Sprite,Foreground,Centre,"sb\highlight.png",320,240 P,0,87510,,A F,0,87510,87597,0,1 M,0,87596,88285,552.8551,211.2439,562.6742,271.5616 F,0,87597,88285,1 F,0,88285,88630,1,0
Sprite,Foreground,Centre,"sb\highlight.png",320,240 C,0,70182,,255,128,128 P,0,70182,,A F,0,70268,70355,0,1 M,0,70354,,203.5726,303.8247 F,0,70355,71044,1,0
Sprite,Foreground,Centre,"sb\highlight.png",320,240 F,0,70441,70527,0,1 M,0,70527,,444.8439,243.507 C,0,70527,,255,128,128 P,0,70527,,A F,0,70527,71216,1,0
Sprite,Foreground,Centre,"sb\highlight.png",320,240 F,0,70613,70700,0,1 M,0,70700,,173.4138,281.3809 C,0,70700,,255,128,128 P,0,70700,,A F,0,70700,71389,1,0
Sprite,Foreground,Centre,"sb\highlight.png",320,240 F,0,70785,70872,0,1 M,0,70872,,478.5096,272.9644 C,0,70872,,255,128,128 P,0,70872,,A F,0,70872,71561,1,0
Sprite,Foreground,Centre,"sb\highlight.png",320,240 F,0,70958,71045,0,1 M,0,71045,,302.4659,157.9398 C,0,71045,,255,128,128 P,0,71045,,A F,0,71045,71734,1,0
Sprite,Foreground,Centre,"sb\highlight.png",320,240 F,0,71130,71217,0,1 M,0,71217,,353.6659,395.0028 C,0,71217,,255,128,128 P,0,71217,,A F,0,71217,71906,1,0
Sprite,Foreground,Centre,"sb\highlight.png",320,240 F,0,71303,71390,0,1 M,0,71390,,321.4028,126.3782 C,0,71390,,255,128,128 P,0,71390,,A F,0,71390,72079,1,0
Sprite,Foreground,Centre,"sb\highlight.png",320,240 F,0,71475,71562,0,1 M,0,71562,,330.5206,425.8631 C,0,71562,,255,128,128 P,0,71562,,A F,0,71562,72251,1,0
Sprite,Foreground,Centre,"sb\highlight.png",320,240 C,0,75785,,255,128,128 P,0,75785,,A F,0,75785,75872,0,1 M,0,75871,,106.7836,131.2877 F,0,75872,76561,1,0
Sprite,Foreground,Centre,"sb\highlight.png",320,240 C,0,75958,,255,128,128 P,0,75958,,A F,0,75958,76045,0,1 M,0,76044,,157.9836,365.5452 F,0,76045,76734,1,0
Sprite,Foreground,Centre,"sb\highlight.png",320,240 C,0,76130,,255,128,128 P,0,76130,,A F,0,76130,76217,0,1 M,0,76216,,231.6275,75.87952 F,0,76217,76906,1,0
Sprite,Foreground,Centre,"sb\highlight.png",320,240 C,0,76303,,255,128,128 P,0,76303,,A F,0,76303,76390,0,1 M,0,76389,,260.3835,308.7343 F,0,76390,77079,1,0
Sprite,Foreground,Centre,"sb\highlight.png",320,240 C,0,76475,,255,128,128 P,0,76475,,A F,0,76475,76562,0,1 M,0,76561,,399.2547,75.87953 F,0,76562,77251,1,0
Sprite,Foreground,Centre,"sb\highlight.png",320,240 C,0,76647,,255,128,128 P,0,76647,,A F,0,76647,76734,0,1 M,0,76734,,367.6932,313.6439 F,0,76734,77423,1,0
Sprite,Foreground,Centre,"sb\highlight.png",320,240 C,0,76820,,255,128,128 P,0,76820,,A F,0,76820,76907,0,1 M,0,76906,,524.0988,127.0796 F,0,76907,77596,1,0
Sprite,Foreground,Centre,"sb\highlight.png",320,240 C,0,76992,,255,128,128 P,0,76992,,A F,0,76992,77079,0,1 M,0,77078,,472.8986,358.5316 F,0,77079,77768,1,0
Sprite,Foreground,Centre,"sb\highlight.png",320,240 C,0,81303,,255,128,128 P,0,81303,,A F,0,81303,81390,0,1 M,0,81390,,423.1015,402.0165 F,0,81390,82079,1,0
Sprite,Foreground,Centre,"sb\highlight.png",320,240 C,0,81647,,255,128,128 P,0,81647,,A F,0,81647,81734,0,1 M,0,81733,,336.8329,202.8274 F,0,81734,82423,1,0
Sprite,Foreground,Centre,"sb\highlight.png",320,240 C,0,81820,,255,128,128 P,0,81820,,A F,0,81820,81907,0,1 M,0,81906,,184.6356,103.2329 F,0,81907,82596,1,0
Sprite,Foreground,Centre,"sb\highlight.png",320,240 C,0,81992,,255,128,128 P,0,81992,,A F,0,81992,82079,0,1 M,0,82078,,409.074,160.7452 F,0,82079,82768,1,0
Sprite,Foreground,Centre,"sb\highlight.png",320,240 C,0,82251,,255,128,128 P,0,82251,,A F,0,82251,82338,0,1 M,0,82337,,186.7398,103.9344 F,0,82338,83027,1,0
Sprite,Foreground,Centre,"sb\highlight.png",320,240 C,0,82510,,255,128,128 P,0,82510,,A F,0,82510,82597,0,1 M,0,82596,,381.7207,57.64391 F,0,82597,83286,1,0
Sprite,Foreground,Centre,"sb\highlight.png",320,240 C,0,86820,,255,128,128 P,0,86820,,A F,0,86820,86907,0,1 M,0,86906,,332.6246,375.3644 F,0,86907,87596,1,0
Sprite,Foreground,Centre,"sb\highlight.png",320,240 C,0,86992,,255,128,128 P,0,86992,,A F,0,86992,87079,0,1 M,0,87078,,204.274,250.5206 F,0,87079,87768,1,0
Sprite,Foreground,Centre,"sb\highlight.png",320,240 C,0,87165,,255,128,128 P,0,87165,,A F,0,87165,87252,0,1 M,0,87251,,481.3152,287.6931 F,0,87252,87941,1,0
Sprite,Foreground,Centre,"sb\highlight.png",320,240 C,0,87337,,255,128,128 P,0,87337,,A F,0,87337,87424,0,1 M,0,87423,,136.2413,324.1644 F,0,87424,88113,1,0
Sprite,Foreground,Centre,"sb\highlight.png",320,240 C,0,103372,,255,128,128 P,0,103372,,A F,0,103372,103459,0,1 M,0,103458,,134.1372,74.47672 F,0,103459,104148,1,0
Sprite,Foreground,Centre,"sb\highlight.png",320,240 C,0,103544,,255,128,128 P,0,103544,,A F,0,103544,103631,0,1 M,0,103630,,484.1207,329.7754 F,0,103631,104320,1,0
Sprite,Foreground,Centre,"sb\highlight.png",320,240 C,0,103889,,255,128,128 P,0,103889,,A F,0,103889,103976,0,1 M,0,103975,,310.8824,297.5124 F,0,103976,104665,1,0
Sprite,Foreground,Centre,"sb\highlight.png",320,240 C,0,104061,,255,128,128 P,0,104061,,A F,0,104061,104148,0,1 M,0,104147,,573.1947,340.2959 F,0,104148,104837,1,0
Sprite,Foreground,Centre,"sb\highlight.png",320,240 C,0,104234,,255,128,128 P,0,104234,,A F,0,104234,104321,0,1 M,0,104320,,228.1207,287.6932 F,0,104321,105010,1,0
Sprite,Foreground,Centre,"sb\highlight.png",320,240 C,0,104406,,255,128,128 P,0,104406,,A F,0,104406,104493,0,1 M,0,104492,,446.9481,406.9261 F,0,104493,105182,1,0
Sprite,Foreground,Centre,"sb\highlight.png",320,240 C,0,104492,,255,128,128 P,0,104492,,A F,0,104492,104579,0,1 M,0,104578,,455.3646,391.4959 F,0,104579,105268,1,0
Sprite,Foreground,Centre,"sb\highlight.png",320,240 C,0,104578,,255,128,128 P,0,104578,,A F,0,104578,104665,0,1 M,0,104664,,416.7892,317.1507 F,0,104665,105354,1,0
Sprite,Foreground,Centre,"sb\highlight.png",320,240 C,0,104665,,255,128,128 P,0,104665,,A F,0,104665,104752,0,1 M,0,104751,,409.7755,299.6165 F,0,104752,105441,1,0
Sprite,Foreground,Centre,"sb\highlight.png",320,240 C,0,104751,,255,128,128 P,0,104751,,A F,0,104751,104838,0,1 M,0,104837,,460.9755,237.1945 F,0,104838,105527,1,0
Sprite,Foreground,Centre,"sb\highlight.png",320,240 C,0,107510,,255,128,128 P,0,107510,,A F,0,107510,107597,0,1 M,0,107596,,532.5152,406.926 F,0,107597,108286,1,0
Sprite,Foreground,Centre,"sb\highlight.png",320,240 C,0,107682,,255,128,128 P,0,107682,,A F,0,107682,107769,0,1 M,0,107768,,317.1947,290.4986 F,0,107769,108458,1,0
Sprite,Foreground,Centre,"sb\highlight.png",320,240 C,0,107854,,255,128,128 P,0,107854,,A F,0,107854,107941,0,1 M,0,107940,,543.7371,379.5726 F,0,107941,108630,1,0
Sprite,Foreground,Centre,"sb\highlight.png",320,240 C,0,108027,,255,128,128 P,0,108027,,A F,0,108027,108114,0,1 M,0,108113,,235.1344,329.0739 F,0,108114,108803,1,0
Sprite,Foreground,Centre,"sb\highlight.png",320,240 C,0,108199,,255,128,128 P,0,108199,,A F,0,108199,108286,0,1 M,0,108285,,556.3617,352.9205 F,0,108286,108975,1,0
Sprite,Foreground,Centre,"sb\highlight.png",320,240 C,0,108372,,255,128,128 P,0,108372,,A F,0,108372,108459,0,1 M,0,108458,,153.7755,366.9479 F,0,108459,109148,1,0
Sprite,Foreground,Centre,"sb\highlight.png",320,240 C,0,108544,,255,128,128 P,0,108544,,A F,0,108544,108631,0,1 M,0,108630,,566.181,324.8657 F,0,108631,109320,1,0
Sprite,Foreground,Centre,"sb\highlight.png",320,240 C,0,108716,,255,128,128 P,0,108716,,A F,0,108716,108803,0,1 M,0,108802,,72.41659,409.7315 F,0,108803,109492,1,0
Sprite,Foreground,Centre,"sb\highlight.png",320,240 C,0,108889,,255,128,128 P,0,108889,,A F,0,108889,108976,0,1 M,0,108975,,453.2604,188.0986 F,0,108976,109665,1,0
Sprite,Foreground,Centre,"sb\highlight.png",320,240 C,0,108975,,255,128,128 P,0,108975,,A F,0,108975,109062,0,1 M,0,109061,,430.1152,234.389 F,0,109062,109751,1,0
Sprite,Foreground,Centre,"sb\highlight.png",320,240 C,0,109061,,255,128,128 P,0,109061,,A F,0,109061,109148,0,1 M,0,109147,,391.5399,258.2356 F,0,109148,109837,1,0
Sprite,Foreground,Centre,"sb\highlight.png",320,240 C,0,109147,,255,128,128 P,0,109147,,A F,0,109147,109234,0,1 M,0,109233,,339.6385,256.1315 F,0,109234,109923,1,0
Sprite,Foreground,Centre,"sb\highlight.png",320,240 C,0,109234,,255,128,128 P,0,109234,,A F,0,109234,109321,0,1 M,0,109320,,301.0632,223.1671 F,0,109321,110010,1,0
Sprite,Foreground,Centre,"sb\highlight.png",320,240 C,0,109320,,255,128,128 P,0,109320,,A F,0,109320,109407,0,1 M,0,109406,,262.4879,192.3068 F,0,109407,110096,1,0
Sprite,Foreground,Centre,"sb\highlight.png",320,240 C,0,109406,,255,128,128 P,0,109406,,A F,0,109406,109493,0,1 M,0,109492,,212.6906,189.5013 F,0,109493,110182,1,0
Sprite,Foreground,Centre,"sb\highlight.png",320,240 C,0,109492,,255,128,128 P,0,109492,,A F,0,109492,109579,0,1 M,0,109578,,171.3098,211.2438 F,0,109579,110268,1,0
Sprite,Foreground,Centre,"sb\highlight.png",320,240 C,0,109578,,255,128,128 P,0,109578,,A F,0,109578,109665,0,1 M,0,109664,,150.2686,261.7424 F,0,109665,110354,1,0
Sprite,Foreground,Centre,"sb\highlight.png",320,240 C,0,109923,,255,128,128 P,0,109923,,A F,0,109923,110010,0,1 M,0,110009,,209.8851,70.26847 F,0,110010,110699,1,0
Sprite,Foreground,Centre,"sb\highlight.png",320,240 C,0,110096,,255,128,128 P,0,110096,,A F,0,110096,110183,0,1 M,0,110182,,312.2851,376.0657 F,0,110183,110872,1,0
Sprite,Foreground,Centre,"sb\highlight.png",320,240 C,0,110268,,255,128,128 P,0,110268,,A F,0,110268,110355,0,1 M,0,110354,,408.3728,68.16434 F,0,110355,111044,1,0
Sprite,Foreground,Centre,"sb\highlight.png",320,240 C,0,114406,,255,128,128 P,0,114406,,A F,0,114406,114493,0,1 M,0,114492,,413.2824,251.2219 F,0,114493,115182,1,0
Sprite,Foreground,Centre,"sb\highlight.png",320,240 C,0,114492,,255,128,128 P,0,114492,,A F,0,114492,114579,0,1 M,0,114578,,392.9427,230.8821 F,0,114579,115268,1,0
Sprite,Foreground,Centre,"sb\highlight.png",320,240 C,0,114578,,255,128,128 P,0,114578,,A F,0,114578,114665,0,1 M,0,114664,,366.992,224.5698 F,0,114665,115354,1,0
Sprite,Foreground,Centre,"sb\highlight.png",320,240 C,0,114665,,255,128,128 P,0,114665,,A F,0,114665,114752,0,1 M,0,114751,,343.8468,213.3479 F,0,114752,115441,1,0
Sprite,Foreground,Centre,"sb\highlight.png",320,240 C,0,114751,,255,128,128 P,0,114751,,A F,0,114751,114838,0,1 M,0,114837,,319.2988,213.3479 F,0,114838,115527,1,0
Sprite,Foreground,Centre,"sb\highlight.png",320,240 C,0,114837,,255,128,128 P,0,114837,,A F,0,114837,114924,0,1 M,0,114923,,291.244,217.5561 F,0,114924,115613,1,0
Sprite,Foreground,Centre,"sb\highlight.png",320,240 C,0,114923,,255,128,128 P,0,114923,,A F,0,114923,115010,0,1 M,0,115009,,268.8002,227.3753 F,0,115010,115699,1,0
Sprite,Foreground,Centre,"sb\highlight.png",320,240 C,0,115010,,255,128,128 P,0,115010,,A F,0,115010,115097,0,1 M,0,115096,,249.1619,237.1945 F,0,115097,115786,1,0
Sprite,Foreground,Centre,"sb\highlight.png",320,240 C,0,115096,,255,128,128 P,0,115096,,A F,0,115096,115183,0,1 M,0,115182,,226.0166,255.4301 F,0,115183,115872,1,0
Sprite,Foreground,Centre,"sb\highlight.png",320,240 C,0,115182,,255,128,128 P,0,115182,,A F,0,115182,115269,0,1 M,0,115268,,255.4742,211.9452 F,0,115269,115958,1,0
Sprite,Foreground,Centre,"sb\highlight.png",320,240 C,0,115268,,255,128,128 P,0,115268,,A F,0,115268,115355,0,1 M,0,115354,,296.855,185.2931 F,0,115355,116044,1,0
Sprite,Foreground,Centre,"sb\highlight.png",320,240 C,0,115354,,255,128,128 P,0,115354,,A F,0,115354,115441,0,1 M,0,115440,,345.9509,178.2794 F,0,115441,116130,1,0
Sprite,Foreground,Centre,"sb\highlight.png",320,240 C,0,115441,,255,128,128 P,0,115441,,A F,0,115441,115528,0,1 M,0,115527,,392.9427,192.3068 F,0,115528,116217,1,0
Sprite,Foreground,Centre,"sb\highlight.png",320,240 C,0,115527,,255,128,128 P,0,115527,,A F,0,115527,115614,0,1 M,0,115613,,439.2331,206.3342 F,0,115614,116303,1,0
Sprite,Foreground,Centre,"sb\highlight.png",320,240 C,0,115613,,255,128,128 P,0,115613,,A F,0,115613,115700,0,1 M,0,115699,,489.0303,200.7232 F,0,115700,116389,1,0
Sprite,Foreground,Centre,"sb\highlight.png",320,240 C,0,115699,,255,128,128 P,0,115699,,A F,0,115699,115786,0,1 M,0,115785,,531.814,176.1753 F,0,115786,116475,1,0
Sprite,Foreground,Centre,"sb\highlight.png",320,240 C,0,115785,,255,128,128 P,0,115785,,A F,0,115785,115872,0,1 M,0,115871,,558.4659,132.6904 F,0,115872,116561,1,0
Sprite,Foreground,Centre,"sb\highlight.png",320,240 C,0,98544,,255,128,128 P,0,98544,,A F,0,98544,98631,0,1 M,0,98630,,251.9672,301.7204 F,0,98631,99320,1,0
Sprite,Foreground,Centre,"sb\highlight.png",320,240 C,0,98630,,255,128,128 P,0,98630,,A F,0,98630,98717,0,1 M,0,98716,,202.8714,308.0328 F,0,98717,99406,1,0
Sprite,Foreground,Centre,"sb\highlight.png",320,240 C,0,98716,,255,128,128 P,0,98716,,A F,0,98716,98803,0,1 M,0,98802,,157.2823,313.6439 F,0,98803,99492,1,0
Sprite,Foreground,Centre,"sb\highlight.png",320,240 C,0,98803,,255,128,128 P,0,98803,,A F,0,98803,98890,0,1 M,0,98889,,108.1863,319.2549 F,0,98890,99579,1,0
Sprite,Foreground,Centre,"sb\highlight.png",320,240 C,0,98889,,255,128,128 P,0,98889,,A F,0,98889,98976,0,1 M,0,98975,,62.59733,324.8658 F,0,98976,99665,1,0
Sprite,Foreground,Centre,"sb\highlight.png",320,240 C,0,98975,,255,128,128 P,0,98975,,A F,0,98975,99062,0,1 M,0,99061,,74.52059,258.2355 F,0,99062,99751,1,0
Sprite,Foreground,Centre,"sb\highlight.png",320,240 C,0,99061,,255,128,128 P,0,99061,,A F,0,99061,99148,0,1 M,0,99147,,84.33979,196.5149 F,0,99148,99837,1,0
Sprite,Foreground,Centre,"sb\highlight.png",320,240 C,0,99147,,255,128,128 P,0,99147,,A F,0,99147,99234,0,1 M,0,99233,,92.75623,127.7807 F,0,99234,99923,1,0
Sprite,Foreground,Centre,"sb\highlight.png",320,240 C,0,99234,,255,128,128 P,0,99234,,A F,0,99234,99321,0,1 M,0,99320,,105.3808,66.76152 F,0,99321,100010,1,0
//Storyboard Sound Samples

[TimingPoints]
10,344.827586206897,4,2,1,60,1,0
10,-200,4,2,1,60,0,0
96,-200,4,2,2,60,0,0
11044,-100,4,2,1,60,0,0
22078,-83.3333333333333,4,2,1,60,0,0
24406,-83.3333333333333,4,2,1,5,0,0
24492,-133.333333333333,4,2,1,60,0,0
24751,-133.333333333333,4,2,1,5,0,0
24837,-200,4,2,1,60,0,0
25354,-83.3333333333333,4,2,1,60,0,0
26216,-76.9230769230769,4,2,1,60,0,0
26303,-76.9230769230769,4,2,1,5,0,0
26389,-66.6666666666667,4,2,1,60,0,0
26475,-66.6666666666667,4,2,1,5,0,0
26561,-62.5,4,2,1,60,0,0
26647,-62.5,4,2,1,5,0,0
26734,-55.5555555555556,4,2,1,60,0,0
26820,-55.5555555555556,4,2,1,5,0,0
26906,-50,4,2,1,60,0,0
26992,-50,4,2,1,5,0,0
27078,-50,4,2,1,60,0,0
27165,-50,4,2,1,5,0,0
27251,-50,4,2,1,60,0,0
27337,-50,4,2,1,5,0,0
27423,-50,4,2,1,60,0,0
27510,-50,4,2,1,5,0,0
27596,-83.3333333333333,4,2,1,60,0,0
29923,-83.3333333333333,4,2,1,5,0,0
30010,-133.333333333333,4,2,1,60,0,0
30268,-133.333333333333,4,2,1,5,0,0
30354,-200,4,2,1,60,0,0
30872,-83.3333333333333,4,2,1,60,0,0
35441,-83.3333333333333,4,2,1,5,0,0
35527,-133.333333333333,4,2,1,60,0,0
35785,-133.333333333333,4,2,1,5,0,0
35872,-200,4,2,1,60,0,0
36216,-83.3333333333333,4,2,1,60,0,0
37251,-76.9230769230769,4,2,1,60,0,0
37337,-76.9230769230769,4,2,1,5,0,0
37423,-66.6666666666667,4,2,1,60,0,0
37510,-66.6666666666667,4,2,1,5,0,0
37596,-62.5,4,2,1,60,0,0
37682,-62.5,4,2,1,5,0,0
37768,-55.5555555555556,4,2,1,60,0,0
37854,-55.5555555555556,4,2,1,5,0,0
37941,-50,4,2,1,60,0,0
38027,-50,4,2,1,5,0,0
38113,-50,4,2,1,60,0,0
38199,-50,4,2,1,5,0,0
38285,-50,4,2,1,60,0,0
38372,-50,4,2,1,5,0,0
38458,-50,4,2,1,60,0,0
38544,-50,4,2,1,5,0,0
38630,-83.3333333333333,4,2,1,60,0,0
40958,-83.3333333333333,4,2,1,5,0,0
41044,-133.333333333333,4,2,1,60,0,0
41303,-133.333333333333,4,2,1,5,0,0
41389,-200,4,2,1,60,0,0
41734,-83.3333333333333,4,2,1,60,0,0
44147,-133.333333333333,4,2,1,60,0,0
53803,-133.333333333333,4,2,1,50,0,0
54492,-133.333333333333,4,2,1,30,0,0
55182,-259.259259259259,4,2,1,60,0,0
64837,-133.333333333333,4,2,1,30,0,0
65182,-83.3333333333333,4,2,1,50,0,0
65527,-71.4285714285714,4,2,1,60,0,0
65872,-71.4285714285714,4,2,1,5,0,0
66216,-133.333333333333,4,2,1,60,0,1
66303,-83.3333333333333,4,2,1,60,0,0
66906,-83.3333333333333,4,2,1,60,0,1
67596,-55.5555555555556,4,2,1,60,0,1
68372,-55.5555555555556,4,2,1,5,0,1
68458,-55.5555555555556,4,2,1,60,0,1
68544,-55.5555555555556,4,2,1,5,0,1
68630,-50,4,2,1,60,0,1
68716,-50,4,2,1,5,0,1
68803,-50,4,2,1,60,0,1
68889,-50,4,2,1,5,0,1
68975,-133.333333333333,4,2,1,60,0,1
69665,-83.3333333333333,4,2,1,60,0,0
70354,-83.3333333333333,4,2,1,60,0,1
70441,-83.3333333333333,4,2,1,5,0,1
70527,-83.3333333333333,4,2,1,60,0,1
70613,-83.3333333333333,4,2,1,5,0,1
70699,-83.3333333333333,4,2,1,60,0,1
70785,-83.3333333333333,4,2,1,5,0,1
70872,-83.3333333333333,4,2,1,60,0,1
71044,-83.3333333333333,4,2,1,60,0,1
71130,-83.3333333333333,4,2,1,5,0,1
71216,-83.3333333333333,4,2,1,60,0,1
71389,-83.3333333333333,4,2,1,60,0,1
71475,-83.3333333333333,4,2,1,5,0,1
71561,-83.3333333333333,4,2,1,60,0,1
71647,-83.3333333333333,4,2,1,5,0,1
71734,-133.333333333333,4,2,1,60,0,0
72423,-83.3333333333333,4,2,1,60,0,1
73113,-71.4285714285714,4,2,1,60,0,1
73199,-71.4285714285714,4,2,1,5,0,1
73285,-71.4285714285714,4,2,1,60,0,1
73372,-71.4285714285714,4,2,1,5,0,1
73458,-62.5,4,2,1,60,0,1
73544,-62.5,4,2,1,5,0,1
73630,-62.5,4,2,1,60,0,1
73716,-62.5,4,2,1,5,0,1
73803,-55.5555555555556,4,2,1,60,0,1
73889,-55.5555555555556,4,2,1,5,0,1
73975,-55.5555555555556,4,2,1,60,0,1
74061,-55.5555555555556,4,2,1,5,0,1
74147,-50,4,2,1,60,0,1
74234,-50,4,2,1,5,0,1
74320,-50,4,2,1,60,0,1
74406,-50,4,2,1,5,0,1
74492,-55.5555555555556,4,2,1,60,0,0
75872,-83.3333333333333,4,2,1,60,0,1
77251,-133.333333333333,4,2,1,60,0,0
77941,-83.3333333333333,4,2,1,60,0,1
80010,-133.333333333333,4,2,1,60,0,0
80613,-133.333333333333,4,2,1,5,0,0
80699,-83.3333333333333,4,2,1,60,0,1
82768,-133.333333333333,4,2,1,60,0,0
83458,-83.3333333333333,4,2,1,60,0,1
84147,-71.4285714285714,4,2,1,60,0,1
84234,-71.4285714285714,4,2,1,5,0,1
84320,-71.4285714285714,4,2,1,60,0,1
84406,-71.4285714285714,4,2,1,5,0,1
84492,-62.5,4,2,1,60,0,1
84578,-62.5,4,2,1,5,0,1
84665,-62.5,4,2,1,60,0,1
84751,-62.5,4,2,1,5,0,1
84837,-55.5555555555556,4,2,1,60,0,1
84923,-55.5555555555556,4,2,1,5,0,1
85010,-55.5555555555556,4,2,1,60,0,1
85096,-55.5555555555556,4,2,1,5,0,1
85182,-50,4,2,1,60,0,1
85268,-50,4,2,1,5,0,1
85354,-50,4,2,1,60,0,1
85441,-50,4,2,1,5,0,1
85527,-133.333333333333,4,2,1,60,0,0
86216,-83.3333333333333,4,2,1,60,0,1
87596,-600,4,2,1,60,0,0
88199,-600,4,2,1,5,0,0
88285,-100,4,2,10,60,0,0
88458,-100,4,2,1,60,0,0
96906,-76.9230769230769,4,2,1,60,0,0
97251,-62.5,4,2,1,60,0,0
97596,-52.6315789473684,4,2,1,60,0,0
97941,-100,4,2,1,40,0,0
98285,-100,4,2,1,50,0,0
98630,-100,4,2,1,60,0,0
99320,-83.3333333333333,4,2,1,60,0,1
100354,-83.3333333333333,4,2,10,60,0,1
100527,-83.3333333333333,4,2,1,60,0,1
101475,-83.3333333333333,4,2,1,5,0,1
101561,-83.3333333333333,4,2,1,60,0,1
101647,-83.3333333333333,4,2,1,5,0,1
101734,-83.3333333333333,4,2,1,60,0,1
101820,-83.3333333333333,4,2,1,5,0,1
101906,-83.3333333333333,4,2,1,60,0,1
101992,-83.3333333333333,4,2,1,5,0,1
102078,-83.3333333333333,4,2,1,60,0,1
102337,-83.3333333333333,4,2,1,5,0,1
102423,-83.3333333333333,4,2,1,60,0,1
102682,-83.3333333333333,4,2,1,5,0,1
102768,-83.3333333333333,4,2,1,60,0,1
105872,-83.3333333333333,4,2,10,60,0,1
106044,-83.3333333333333,4,2,1,60,0,1
106992,-83.3333333333333,4,2,1,5,0,1
107078,-83.3333333333333,4,2,1,60,0,1
107165,-83.3333333333333,4,2,1,5,0,1
107251,-83.3333333333333,4,2,1,60,0,1
107337,-83.3333333333333,4,2,1,5,0,1
107423,-83.3333333333333,4,2,1,60,0,1
107510,-83.3333333333333,4,2,1,5,0,1
107596,-83.3333333333333,4,2,1,60,0,1
110354,-100,4,2,1,60,0,0
114578,-100,4,2,1,30,0,0
115872,-350,4,2,1,30,0,0
118630,-350,4,2,1,5,0,0

[Colours]
Combo1 : 231,227,224
Combo2 : 248,133,136
Combo3 : 236,140,207
Combo4 : 226,167,122

[HitObjects]
51,208,10,6,0,B|164:184|123:276|262:228,1,200,4|2,0:0|0:0,0:0:0:0:
213,98,1044,2,0,P|197:136|199:159,1,50
303,302,1389,6,0,B|354:247|310:180|310:180|351:182|384:141,1,200,0|2,0:0|0:0,0:0:0:0:
293,63,2423,1,0,0:0:0:0:
456,197,2768,2,0,L|466:97,1,100
245,282,3458,6,0,B|319:257|345:180|345:180|349:261|429:312,1,300,2|0,0:0|0:0,0:0:0:0:
456,197,4837,1,2,0:0:0:0:
456,197,5527,6,0,B|432:70|432:70|424:106|388:146,1,200,0|2,0:0|0:0,0:0:0:0:
279,86,6561,2,0,P|300:73|325:69,1,50
383,254,6906,6,0,B|327:252|303:205|303:205|271:210|271:210|240:197|240:197|204:215,1,200,0|2,0:0|0:0,0:0:0:0:
284,123,7768,1,0,0:0:0:0:
278,73,7941,2,0,L|284:123,1,50
112,174,8285,5,0,0:0:0:0:
241,299,8630,1,0,0:0:0:0:
284,123,8975,1,2,0:0:0:0:
112,174,9320,1,0,0:0:0:0:
402,172,9665,6,0,B|293:247|227:133|227:133|186:144|186:144|157:120|157:120|121:134|121:134|78:106,1,375
295,30,11044,6,0,P|323:77|320:129,1,100,6|0,0:0|0:0,0:0:0:0:
322,121,11561,1,0,0:0:0:0:
151,209,11734,5,2,0:0:0:0:
177,186,11820,1,0,0:0:0:0:
210,174,11906,1,0,0:0:0:0:
244,176,11992,1,0,0:0:0:0:
276,190,12078,1,0,0:0:0:0:
308,204,12164,1,0,0:0:0:0:
342,206,12250,1,0,0:0:0:0:
375,194,12336,1,0,0:0:0:0:
402,172,12422,1,2,0:0:0:0:
275,101,12596,5,0,0:0:0:0:
298,110,12682,1,0,0:0:0:0:
322,121,12768,1,0,0:0:0:0:
151,209,12941,1,0,0:0:0:0:
397,262,13113,5,2,0:0:0:0:
398,232,13199,1,0,0:0:0:0:
400,202,13285,1,0,0:0:0:0:
402,172,13371,1,0,0:0:0:0:
404,142,13457,1,0,0:0:0:0:
406,112,13544,1,0,0:0:0:0:
408,82,13630,1,0,0:0:0:0:
162,12,13803,6,0,L|175:118,1,100,2|0,0:0|0:0,0:0:0:0:
175,112,14061,1,0,0:0:0:0:
175,112,14147,2,0,L|275:100,1,100
67,79,14492,1,2,0:0:0:0:
42,75,14578,1,0,0:0:0:0:
17,72,14664,1,0,0:0:0:0:
91,242,14837,5,0,0:0:0:0:
118,220,14923,1,0,0:0:0:0:
151,209,15009,1,0,0:0:0:0:
185,210,15095,1,0,0:0:0:0:
217,223,15181,1,2,0:0:0:0:
402,171,15354,6,0,L|398:243,1,50
396,357,15527,1,0,0:0:0:0:
311,172,15699,6,0,L|308:221,1,50
303,343,15872,1,2,0:0:0:0:
220,173,16044,6,0,L|217:222,1,50
211,329,16216,1,0,0:0:0:0:
129,174,16389,6,0,L|126:223,1,50
118,315,16561,5,2,0:0:0:0:
132,149,16734,1,0,0:0:0:0:
211,329,16906,5,0,0:0:0:0:
223,148,17078,1,2,0:0:0:0:
303,343,17251,5,2,0:0:0:0:
314,147,17423,1,0,0:0:0:0:
396,357,17596,5,0,0:0:0:0:
405,146,17768,1,2,0:0:0:0:
156,196,17941,6,0,B|209:248|277:207|277:207|274:248|314:282,1,200,2|0,0:0|0:0,0:0:0:0:
223,148,18458,1,2,0:0:0:0:
195,56,18630,6,0,P|223:103|220:155,1,100,2|0,0:0|0:0,0:0:0:0:
89,244,18975,1,0,0:0:0:0:
105,12,19147,1,2,0:0:0:0:
89,244,19320,5,2,0:0:0:0:
291,111,19492,1,0,0:0:0:0:
97,128,19665,1,2,0:0:0:0:
313,215,19837,1,0,0:0:0:0:
269,7,20010,5,2,0:0:0:0:
97,128,20182,1,2,0:0:0:0:
313,215,20354,1,2,0:0:0:0:
269,7,20527,1,2,0:0:0:0:
269,7,20613,1,2,0:0:0:0:
269,7,20699,5,0,0:0:0:0:
289,20,20785,1,0,0:0:0:0:
306,39,20871,1,0,0:0:0:0:
318,60,20957,1,0,0:0:0:0:
324,84,21043,1,0,0:0:0:0:
325,109,21130,1,0,0:0:0:0:
319,134,21216,1,0,0:0:0:0:
308,156,21302,1,0,0:0:0:0:
291,175,21389,5,0,0:0:0:0:
276,171,21475,1,0,0:0:0:0:
261,168,21561,1,0,0:0:0:0:
247,164,21647,1,0,0:0:0:0:
231,160,21734,5,0,0:0:0:0:
199,198,21820,1,0,0:0:0:0:
185,245,21906,1,0,0:0:0:0:
191,295,21992,1,0,0:0:0:0:
216,337,22078,6,0,B|134:382|134:382|59:344|59:344|135:300,1,239.999992675781,6|0,0:0|0:0,0:0:0:0:
112,312,22596,2,0,L|40:304,1,59.9999981689454,2|2,0:0|0:0,0:0:0:0:
320,384,22768,6,0,B|364:243|248:295|314:139,1,239.999992675781,8|0,0:0|0:0,0:0:0:0:
470,248,23285,2,0,P|426:261|369:242,1,59.9999981689454,8|0,0:0|0:0,0:0:0:0:
307,155,23458,5,2,0:0:0:0:
471,39,23630,1,8,0:0:0:0:
307,155,23803,2,0,L|296:29,1,119.999996337891
52,152,24147,2,0,B|154:106|154:106|261:147,1,179.999994506836,8|0,0:0|0:0,0:0:0:0:
28,71,24492,6,0,L|140:22,1,112.500004291535,2|0,0:0|0:0,0:0:0:0:
168,193,24837,6,0,L|76:233,1,100,2|0,0:0|0:0,0:0:0:0:
131,25,25354,6,0,L|155:133,1,59.9999981689454,2|2,0:0|0:0,0:0:0:0:
76,232,25527,1,8,0:0:0:0:
76,232,26044,2,0,L|62:173,1,59.9999981689454,2|2,0:0|0:0,0:0:0:0:
131,25,26216,6,0,L|46:43,1,64.9999970245363,2|0,0:0|0:0,0:0:0:0:
215,96,26389,6,0,L|141:111,1,75.0000028610231,8|0,0:0|0:0,0:0:0:0:
299,167,26561,6,0,L|158:199,1,80,2|0,0:0|0:0,0:0:0:0:
383,238,26734,6,0,L|294:256,1,89.9999972534181,2|0,0:0|0:0,0:0:0:0:
215,96,26906,6,0,L|316:73,1,100,8|0,0:0|0:0,0:0:0:0:
396,146,27078,2,0,L|299:167,1,100,0|2,0:0|0:0,0:0:0:0:
117,118,27251,2,0,L|218:95,1,100,8|0,0:0|0:0,0:0:0:0:
493,124,27423,2,0,L|396:145,1,100,2|0,0:0|0:0,0:0:0:0:
3,226,27596,6,0,B|25:207|25:207|62:224|88:202|88:202|163:243|230:175,1,239.999992675781,2|0,0:0|0:0,0:0:0:0:
220,184,28113,2,0,P|225:214|242:239,1,59.9999981689454,2|2,0:0|0:0,0:0:0:0:
481,24,28285,6,0,B|425:23|425:23|384:53|384:53|333:29|333:29|299:48|299:48|229:45,1,239.999992675781,8|0,0:0|0:0,0:0:0:0:
66,19,28803,2,0,P|110:6|167:25,1,59.9999981689454,8|0,0:0|0:0,0:0:0:0:
261,46,28975,5,2,0:0:0:0:
109,201,29147,1,8,0:0:0:0:
260,45,29320,2,0,L|265:165,1,119.999996337891,0|2,0:0|0:0,0:0:0:0:
279,334,29665,2,0,B|282:295|282:295|268:271|268:271|280:236|280:236|264:209|264:209|264:153,1,179.999994506836,8|0,0:0|0:0,0:0:0:0:
390,319,30010,6,0,L|279:333,1,112.500004291535,2|0,0:0|0:0,0:0:0:0:
165,175,30354,6,0,L|273:162,1,100,2|0,0:0|0:0,0:0:0:0:
450,311,30872,6,0,L|391:319,1,59.9999981689454,2|2,0:0|0:0,0:0:0:0:
219,341,31044,1,8,0:0:0:0:
219,341,31561,2,0,L|278:333,1,59.9999981689454,2|2,0:0|0:0,0:0:0:0:
375,184,31733,5,2,0:0:0:0:
219,341,31906,1,8,0:0:0:0:
407,172,32078,5,2,0:0:0:0:
167,225,32251,1,2,0:0:0:0:
431,160,32423,5,8,0:0:0:0:
115,109,32596,1,8,0:0:0:0:
115,109,32682,1,8,0:0:0:0:
115,109,32768,5,8,0:0:0:0:
219,341,32941,1,2,0:0:0:0:
297,76,33113,6,0,B|325:48|329:20|329:20|341:56|372:73|372:73|393:60|421:48|457:56|484:73,1,239.999992675781,6|0,0:0|0:0,0:0:0:0:
471,66,33630,2,0,P|457:23|401:-13,1,59.9999981689454,2|2,0:0|0:0,0:0:0:0:
203,39,33803,6,0,B|183:135|271:170|271:170|235:188|227:240,1,239.999992675781,8|0,0:0|0:0,0:0:0:0:
74,366,34320,2,0,P|104:365|132:354,1,59.9999981689454,8|0,0:0|0:0,0:0:0:0:
229,230,34492,5,2,0:0:0:0:
13,285,34665,1,8,0:0:0:0:
229,230,34837,2,0,P|172:214|116:233,1,119.999996337891,0|2,0:0|0:0,0:0:0:0:
343,269,35182,2,0,B|374:292|374:292|350:248|367:185|367:185|339:211,1,179.999994506836,8|0,0:0|0:0,0:0:0:0:
317,101,35527,6,0,P|318:158|346:209,1,112.500004291535,2|0,0:0|0:0,0:0:0:0:
297,6,35872,6,0,P|317:51|316:100,1,100,2|0,0:0|0:0,0:0:0:0:
216,286,36389,6,0,P|217:256|228:228,1,59.9999981689454,2|2,0:0|0:0,0:0:0:0:
315,100,36561,1,8,0:0:0:0:
315,100,37078,2,0,P|314:130|303:158,1,59.9999981689454,2|2,0:0|0:0,0:0:0:0:
216,286,37251,6,0,P|201:298|204:268,1,64.9999970245363,2|0,0:0|0:0,0:0:0:0:
308,369,37423,6,0,P|289:375|307:351,1,75.0000028610231,8|0,0:0|0:0,0:0:0:0:
403,286,37596,6,0,P|383:285|410:271,1,80,2|0,0:0|0:0,0:0:0:0:
493,369,37768,6,0,P|475:362|506:360,1,89.9999972534181,2|0,0:0|0:0,0:0:0:0:
461,169,37941,6,0,P|477:136|473:172,1,100,8|0,0:0|0:0,0:0:0:0:
326,48,38113,2,0,P|331:68|314:44,1,100
476,184,38285,2,0,P|504:162|483:190,1,100,8|0,0:0|0:0,0:0:0:0:
308,32,38458,2,0,P|297:49|300:20,1,100,2|0,0:0|0:0,0:0:0:0:
282,231,38630,6,0,B|294:297|231:332|231:332|184:277|222:211,1,239.999992675781,2|0,0:0|0:0,0:0:0:0:
216,222,39147,2,0,P|178:234|106:208,1,59.9999981689454,2|2,0:0|0:0,0:0:0:0:
377,368,39320,6,0,B|419:217|419:217|351:142,1,239.999992675781,8|0,0:0|0:0,0:0:0:0:
362,154,39837,2,0,L|384:99,1,59.9999981689454,2|0,0:0|0:0,0:0:0:0:
249,41,40010,5,2,0:0:0:0:
325,228,40182,1,0,0:0:0:0:
226,16,40354,1,2,0:0:0:0:
456,156,40527,1,2,0:0:0:0:
221,306,40699,6,0,P|304:281|406:373,1,179.999994506836,8|0,0:0|0:0,0:0:0:0:
116,293,41044,6,0,P|165:316|220:305,1,112.500004291535,2|0,0:0|0:0,0:0:0:0:
22,280,41389,6,0,P|74:273|122:299,1,100,2|0,0:0|0:0,0:0:0:0:
370,380,41906,2,0,P|381:352|382:322,1,59.9999981689454,2|2,0:0|0:0,0:0:0:0:
177,245,42078,5,8,0:0:0:0:
404,192,42251,2,0,L|318:174,1,59.9999981689454,2|2,0:0|0:0,0:0:0:0:
140,139,42423,5,8,0:0:0:0:
214,351,42596,1,2,0:0:0:0:
258,130,42768,5,4,0:1:0:0:
47,267,42941,1,2,0:0:0:0:
262,105,43113,5,2,0:0:0:0:
68,355,43285,1,2,0:0:0:0:
68,355,43372,1,2,0:0:0:0:
68,355,43458,5,2,0:0:0:0:
266,80,43630,5,2,0:0:0:0:
26,179,43803,1,2,0:0:0:0:
253,321,43975,1,2,0:0:0:0:
270,55,44147,6,0,B|227:-1|155:32|155:32|143:68|112:85|112:85|91:72|63:60|27:68|12:78,1,300.000011444092,6|2,0:0|0:0,0:0:0:0:
15,76,45182,1,0,0:0:0:0:
15,76,45354,1,0,0:0:0:0:
208,198,45527,6,0,B|282:173|308:96|308:96|312:177|392:228,1,300,2|2,0:0|0:0,0:0:0:0:
407,116,46389,1,0,0:0:0:0:
288,267,46561,1,2,0:0:0:0:
207,95,46734,1,0,0:0:0:0:
378,358,46906,6,0,B|410:276|410:276|368:195,1,150.000005722046,2|0,0:0|0:0,0:0:0:0:
102,267,47596,2,0,B|176:297|232:243|232:243|240:244|240:244|297:187|394:225,1,300.000011444092,2|2,0:0|0:0,0:0:0:0:
482,372,48458,6,0,L|474:319,1,37.5000014305115
467,261,48630,2,0,L|481:368,1,75.0000028610231
223,335,48975,1,2,0:0:0:0:
241,340,49061,1,0,0:0:0:0:
259,346,49147,1,0,0:0:0:0:
277,352,49233,1,0,0:0:0:0:
295,358,49320,1,2,0:0:0:0:
301,340,49406,1,0,0:0:0:0:
307,322,49492,1,2,0:0:0:0:
313,304,49578,1,0,0:0:0:0:
318,285,49665,6,0,B|371:295|371:295|412:276|412:276|461:288|461:288|494:231|494:231|458:202|465:144,1,300.000011444092,2|2,0:0|0:0,0:0:0:0:
512,372,50699,1,0,0:0:0:0:
512,372,50872,1,0,0:0:0:0:
408,169,51044,6,0,B|303:143|303:143|220:169|220:169|110:135,1,300.000011444092,2|2,0:0|0:0,0:0:0:0:
225,78,51906,1,0,0:0:0:0:
18,194,52078,1,2,0:0:0:0:
255,67,52251,1,0,0:0:0:0:
0,60,52423,5,2,0:0:0:0:
36,327,52768,1,0,0:0:0:0:
274,161,53113,1,2,0:0:0:0:
0,61,53458,1,0,0:0:0:0:
218,229,53803,5,2,0:0:0:0:
250,246,53889,1,0,0:0:0:0:
287,249,53975,1,0,0:0:0:0:
322,236,54061,1,0,0:0:0:0:
349,209,54148,1,0,0:0:0:0:
376,182,54234,1,0,0:0:0:0:
411,169,54320,1,2,0:0:0:0:
448,172,54406,1,0,0:0:0:0:
481,190,54492,5,2,0:0:0:0:
468,176,54578,1,0,0:0:0:0:
458,160,54664,1,0,0:0:0:0:
452,142,54750,1,0,0:0:0:0:
451,123,54836,1,0,0:0:0:0:
453,296,55010,1,0,0:0:0:0:
489,24,55182,5,4,0:0:0:0:
256,192,60699,12,0,64492,0:0:0:0:
455,186,64837,5,0,0:0:0:0:
434,177,64923,1,0,0:0:0:0:
412,174,65009,1,0,0:0:0:0:
389,178,65095,1,0,0:0:0:0:
349,251,65182,5,0,0:0:0:0:
326,255,65268,1,0,0:0:0:0:
304,252,65354,1,0,0:0:0:0:
283,243,65440,1,0,0:0:0:0:
251,167,65527,5,0,0:0:0:0:
230,158,65613,1,0,0:0:0:0:
208,155,65699,1,0,0:0:0:0:
185,159,65785,1,0,0:0:0:0:
135,234,65872,6,0,L|113:188,6,34.9999989318848
86,120,66216,6,0,B|23:112|23:112|124:84|124:84|143:62|143:62|200:48|200:48|212:80|246:92,1,300.000011444092,6|12,0:0|0:1,0:0:0:0:
62,18,67078,1,0,0:0:0:0:
227,184,67251,5,0,0:0:0:0:
238,168,67337,1,0,0:0:0:0:
303,132,67423,1,0,0:0:0:0:
314,148,67509,1,0,0:0:0:0:
380,184,67596,6,0,B|397:214|421:222|448:221|448:221|455:224|455:224|459:219|459:219|482:209|503:189|508:154,1,179.999994506836,2|0,3:1|0:0,0:0:0:0:
328,293,67941,5,0,0:0:0:0:
317,309,68027,1,0,0:0:0:0:
252,345,68113,1,0,0:0:0:0:
241,329,68199,1,0,0:0:0:0:
175,293,68285,6,0,B|132:278|132:278|67:324,1,89.9999972534181,8|0,0:0|0:0,0:0:0:0:
16,314,68458,2,0,B|59:329|59:329|124:283,1,89.9999972534181
237,45,68630,6,0,B|220:91|220:91|270:162,1,100
262,220,68803,2,0,B|278:173|278:173|228:102,1,100
28,224,68975,6,0,B|8:177|42:141|42:141|7:134|2:103|2:103|55:113|84:79|84:79|115:122|162:113,1,300.000011444092,2|8,0:0|0:0,0:0:0:0:
159,24,69837,1,0,0:0:0:0:
159,24,70182,1,0,0:0:0:0:
142,260,70354,6,0,P|173:245|230:252,1,59.9999981689454,2|0,0:0|0:0,0:0:0:0:
386,206,70527,2,0,P|355:221|298:214,1,59.9999981689454,8|0,0:0|0:0,0:0:0:0:
112,238,70699,2,0,P|143:223|200:230,1,59.9999981689454
418,230,70872,2,0,P|387:245|330:238,1,59.9999981689454,2|2,0:0|0:0,0:0:0:0:
239,114,71044,5,8,0:0:0:0:
293,352,71217,2,0,P|278:321|285:264,1,59.9999981689454,2|2,0:0|0:0,0:0:0:0:
261,84,71389,5,8,0:0:0:0:
269,384,71561,1,2,0:0:0:0:
406,74,71734,6,0,B|369:60|341:74|341:74|319:55|313:14|313:14|304:65|256:84|199:75|181:7,1,300.000011444092,6|12,0:0|0:1,0:0:0:0:
298,153,72596,5,0,0:0:0:0:
38,111,72769,1,0,0:0:0:0:
68,119,72855,1,0,0:0:0:0:
97,126,72941,1,0,0:0:0:0:
301,218,73113,6,0,B|287:186|287:186|297:153,1,69.9999978637696,2|0,0:0|0:0,0:0:0:0:
294,87,73285,2,0,B|308:119|308:119|298:152,1,69.9999978637696
357,298,73458,6,0,P|318:316|250:305,1,80
121,346,73630,2,0,P|156:364|195:367,1,80
190,176,73803,6,0,L|202:311,1,89.9999972534181,8|0,0:0|0:0,0:0:0:0:
17,384,73975,2,0,L|25:295,1,89.9999972534181
221,36,74147,6,0,L|79:23,1,100
0,192,74320,2,0,L|142:179,1,100
377,172,74492,6,0,B|416:226|394:282|394:282|368:324|402:396|442:311|359:242,1,269.999991760254,2|0,0:0|0:3,0:3:0:0:
379,262,74837,6,0,B|327:232|327:232|268:262,2,119.999996337891
485,85,75182,6,0,B|469:116|480:151|480:151|443:123|443:123|413:111|413:111|404:96|404:96|386:100|386:100|357:88|357:88|330:134|274:142|231:106,1,359.999989013672,8|0,0:0|0:0,0:0:0:0:
394,18,75699,1,2,0:0:0:0:
45,90,75872,5,6,0:1:0:0:
97,322,76044,1,0,0:0:0:0:
172,32,76216,5,8,0:0:0:0:
202,267,76389,2,0,L|226:332,1,59.9999981689454,0|8,0:0|0:0,0:0:0:0:
337,32,76561,5,0,0:0:0:0:
307,267,76733,1,8,0:0:0:0:
464,85,76906,5,8,0:0:0:0:
412,317,77078,2,0,L|388:382,1,59.9999981689454,8|8,0:0|0:0,0:0:0:0:
256,139,77251,6,0,B|277:148|286:172|286:172|313:152|344:163|344:163|374:113|374:113|416:132|451:103|451:103|480:128|520:114,1,300.000011444092,6|12,0:0|0:1,0:0:0:0:
403,39,78113,5,0,0:0:0:0:
432,197,78285,1,0,0:0:0:0:
499,118,78458,1,0,0:0:0:0:
365,276,78630,5,2,0:0:0:0:
416,120,78803,2,0,L|431:187,1,59.9999981689454
463,329,78975,1,0,0:0:0:0:
267,223,79147,1,0,0:0:0:0:
499,118,79320,5,8,0:0:0:0:
463,329,79492,1,0,0:0:0:0:
463,329,79578,1,0,0:0:0:0:
463,329,79665,1,0,0:0:0:0:
169,170,79837,1,0,0:0:0:0:
429,178,80010,6,0,B|462:219|462:220|462:220|308:184|308:184|356:159,1,262.500010013581,2|0,0:0|0:0,0:0:0:0:
403,103,80699,6,0,L|420:25,2,79.9999975585938,8|0|0,0:0|0:0|0:0,0:0:0:0:
186,248,81044,2,0,L|169:170,2,79.9999975585938
361,359,81389,2,0,L|378:280,2,79.9999975585938
275,160,81734,5,2,0:0:0:0:
124,60,81906,1,0,0:0:0:0:
350,115,82078,6,0,P|299:89|204:100,1,119.999996337891,8|0,0:0|0:0,0:0:0:0:
124,60,82337,2,0,P|175:86|270:75,1,119.999996337891,2|0,0:0|0:0,0:0:0:0:
321,13,82596,1,2,0:0:0:0:
91,182,82768,6,0,B|108:302|108:302|42:361|42:361|22:254,1,300.000011444092,6|12,0:0|0:1,0:0:0:0:
183,206,83630,5,0,0:0:0:0:
190,235,83716,1,0,0:0:0:0:
198,265,83802,1,0,0:0:0:0:
25,272,83975,1,0,0:0:0:0:
254,124,84147,6,0,L|271:191,1,69.9999978637696,2|0,0:0|0:0,0:0:0:0:
288,259,84320,2,0,L|271:192,1,69.9999978637696
369,97,84492,6,0,L|348:181,1,80
172,287,84665,2,0,L|193:207,1,80
231,36,84837,6,0,L|262:155,1,89.9999972534181,8|0,0:0|0:0,0:0:0:0:
310,346,85010,2,0,L|288:259,1,89.9999972534181
393,0,85182,6,0,L|367:103,1,100
148,384,85354,2,0,L|174:281,1,100
479,218,85527,6,0,B|421:289|458:315|458:315|484:277|385:219,1,225.000008583069,2|0,0:0|0:0,0:0:0:0:
176,112,86216,5,8,0:0:0:0:
205,107,86302,1,0,0:0:0:0:
235,102,86388,1,0,0:0:0:0:
264,97,86474,1,8,0:0:0:0:
294,92,86561,5,0,0:0:0:0:
289,152,86647,1,0,0:0:0:0:
284,212,86733,1,8,0:0:0:0:
278,272,86819,1,8,0:0:0:0:
273,331,86905,5,8,0:0:0:0:
144,208,87078,1,2,0:0:0:0:
420,244,87251,5,2,0:0:0:0:
72,280,87423,1,2,0:0:0:0:
492,172,87596,6,0,P|500:224|500:232,1,58.3333333333333,8|0,0:3|0:0,0:0:0:0:
480,312,88285,5,14,0:1:0:0:
505,91,88458,1,0,0:0:0:0:
303,178,88630,1,8,0:0:0:0:
480,312,88803,1,2,0:3:0:0:
505,91,88975,1,0,0:0:0:0:
505,91,89061,1,0,0:0:0:0:
505,91,89147,1,8,0:0:0:0:
236,108,89320,6,0,P|212:168|224:228,1,100
296,32,89665,2,0,L|168:16,1,100,2|0,0:3|0:0,0:0:0:0:
196,19,89923,1,0,0:0:0:0:
196,19,90010,1,8,0:0:0:0:
149,259,90182,5,2,0:3:0:0:
173,275,90268,1,0,0:0:0:0:
202,283,90354,1,0,0:0:0:0:
232,280,90440,1,0,0:0:0:0:
259,267,90526,1,8,0:0:0:0:
279,245,90613,1,0,0:0:0:0:
299,223,90700,1,0,0:0:0:0:
326,210,90786,1,0,0:0:0:0:
356,207,90872,1,0,0:0:0:0:
385,215,90958,1,0,0:0:0:0:
409,232,91045,6,0,L|393:360,1,100,2|0,0:3|0:0,0:0:0:0:
397,332,91303,1,0,0:0:0:0:
397,332,91390,1,8,0:0:0:0:
422,132,91561,1,2,0:3:0:0:
512,358,91734,1,0,0:0:0:0:
512,358,91820,1,0,0:0:0:0:
512,358,91906,1,8,0:0:0:0:
283,149,92078,1,0,0:0:0:0:
317,144,92164,1,0,0:0:0:0:
352,140,92250,1,0,0:0:0:0:
387,136,92337,1,0,0:0:0:0:
422,132,92423,6,0,L|406:260,1,100,2|0,0:3|0:0,0:0:0:0:
409,231,92682,1,0,0:0:0:0:
409,231,92768,1,8,0:0:0:0:
220,68,92941,5,2,0:3:0:0:
197,94,93027,1,0,0:0:0:0:
185,127,93113,1,0,0:0:0:0:
188,161,93199,1,0,0:0:0:0:
204,192,93285,5,8,0:0:0:0:
219,212,93371,1,0,0:0:0:0:
227,235,93457,1,0,0:0:0:0:
228,260,93543,1,0,0:0:0:0:
221,284,93629,1,0,0:0:0:0:
50,369,93803,5,2,0:3:0:0:
25,148,93976,1,0,0:0:0:0:
25,148,94061,1,0,0:0:0:0:
25,148,94147,1,8,0:0:0:0:
227,235,94320,1,2,0:3:0:0:
50,369,94493,1,0,0:0:0:0:
50,369,94578,1,0,0:0:0:0:
50,369,94664,1,8,0:0:0:0:
300,168,94837,6,0,P|324:228|312:288,1,100
231,109,95182,2,0,P|288:79|349:86,1,100,2|0,0:3|0:0,0:0:0:0:
322,78,95440,1,0,0:0:0:0:
322,78,95527,1,8,0:0:0:0:
321,262,95699,1,2,0:3:0:0:
162,50,95872,5,0,0:0:0:0:
404,173,96044,1,8,0:0:0:0:
232,352,96216,1,0,0:0:0:0:
322,78,96389,1,0,0:0:0:0:
512,293,96561,6,0,P|462:297|420:323,1,100,2|0,0:3|0:0,0:0:0:0:
479,213,96820,5,0,0:0:0:0:
479,213,96906,2,0,P|431:268|421:336,1,129.999994049073,8|2,0:0|0:3,0:0:0:0:
404,173,97165,5,0,0:0:0:0:
404,173,97251,2,0,P|392:272|424:326,1,160,0|8,0:0|0:0,0:0:0:0:
316,181,97510,5,0,0:0:0:0:
316,181,97596,2,0,P|346:276|435:325,1,189.999994926453
252,128,97941,5,0,0:3:0:0:
227,127,98027,1,0,0:0:0:0:
202,126,98113,1,0,0:0:0:0:
177,124,98199,1,0,0:0:0:0:
149,124,98285,5,0,0:0:0:0:
160,157,98371,1,0,0:0:0:0:
170,191,98457,1,0,0:3:0:0:
181,224,98543,1,0,0:0:0:0:
191,257,98630,5,2,0:0:0:0:
143,263,98716,1,2,0:0:0:0:
96,270,98802,1,2,0:0:0:0:
49,276,98888,1,2,0:0:0:0:
2,283,98975,5,2,0:0:0:0:
12,217,99061,1,0,0:0:0:0:
22,151,99147,1,2,0:0:0:0:
32,85,99233,1,0,0:0:0:0:
43,23,99320,6,0,B|110:6|144:69|144:69|182:58|182:58|211:82|211:82|262:64|262:64,1,239.999992675781,6|8,0:0|0:0,0:0:0:0:
160,157,99837,1,0,0:0:0:0:
385,109,100010,1,0,0:0:0:0:
356,113,100096,1,2,0:0:0:0:
325,115,100182,1,0,0:0:0:0:
377,0,100354,5,12,0:0:0:0:
237,193,100527,1,0,0:0:0:0:
456,79,100699,6,0,B|473:121|454:152|454:152|517:183|517:183|464:219|494:298,1,239.999992675781,2|8,0:0|0:0,0:0:0:0:
512,363,101216,1,0,0:0:0:0:
306,251,101389,6,0,L|389:232,1,59.9999981689454
128,231,101561,2,0,L|45:250,1,59.9999981689454,2|0,0:0|0:0,0:0:0:0:
328,336,101734,2,0,L|387:323,1,59.9999981689454,8|0,0:0|0:0,0:0:0:0:
104,148,101906,2,0,L|21:167,1,59.9999981689454
284,166,102078,6,0,B|260:98|260:98|304:38|304:38|328:99,1,179.999994506836,2|0,0:0|0:0,0:0:0:0:
128,231,102423,2,0,B|152:299|152:299|108:359|108:359|84:298,1,179.999994506836,8|0,0:0|0:0,0:0:0:0:
382,135,102768,5,0,0:0:0:0:
390,162,102854,1,2,0:0:0:0:
398,193,102940,1,0,0:0:0:0:
104,148,103113,1,8,0:0:0:0:
96,121,103199,1,0,0:0:0:0:
88,90,103285,1,0,0:0:0:0:
80,63,103372,1,0,0:0:0:0:
72,32,103458,5,4,0:1:0:0:
421,285,103630,2,0,L|372:275,4,29.9999990844727,0|0|0|0|8,0:0|0:0|0:0|0:0|0:0,0:0:0:0:
249,256,103975,1,2,0:0:0:0:
512,297,104147,5,6,0:1:0:0:
166,243,104320,1,0,0:0:0:0:
387,361,104492,5,2,0:0:0:0:
393,344,104578,1,0,0:0:0:0:
357,274,104665,1,2,0:0:0:0:
350,257,104751,1,0,0:0:0:0:
398,192,104837,6,0,B|413:164|405:130|405:130|363:131|337:175|289:130|289:130|346:84,1,239.999992675781,6|8,0:0|0:0,0:0:0:0:
493,163,105354,1,0,0:0:0:0:
269,104,105527,2,0,L|356:94,1,59.9999981689454,0|2,0:0|0:0,0:0:0:0:
507,142,105699,1,0,0:0:0:0:
218,190,105872,5,12,0:0:0:0:
399,11,106044,1,0,0:0:0:0:
272,304,106216,6,0,B|315:266|315:266|441:281|441:281|476:337,1,239.999992675781,2|8,0:0|0:0,0:0:0:0:
394,175,106734,1,0,0:0:0:0:
356,383,106906,6,0,L|372:314,1,59.9999981689454
413,91,107078,2,0,L|397:160,1,59.9999981689454,2|0,0:0|0:0,0:0:0:0:
272,303,107251,2,0,P|258:276|254:246,1,59.9999981689454,8|0,0:0|0:0,0:0:0:0:
482,35,107423,2,0,P|497:66|490:123,1,59.9999981689454
473,364,107596,5,6,0:1:0:0:
255,247,107768,1,0,0:0:0:0:
484,337,107941,5,2,0:0:0:0:
173,286,108113,1,0,0:0:0:0:
495,310,108286,5,6,0:1:0:0:
92,326,108459,1,0,0:0:0:0:
506,283,108631,5,2,0:0:0:0:
11,366,108803,1,0,0:0:0:0:
392,146,108975,5,2,0:0:0:0:
370,190,109061,1,2,0:0:0:0:
328,215,109147,1,2,0:0:0:0:
279,212,109233,1,2,0:0:0:0:
240,181,109321,1,2,0:0:0:0:
201,150,109407,1,2,0:0:0:0:
152,147,109493,1,2,0:0:0:0:
110,172,109579,1,2,0:0:0:0:
89,217,109665,5,2,0:0:0:0:
412,217,109837,1,2,0:0:0:0:
150,26,110010,1,2,0:0:0:0:
250,334,110182,1,2,0:0:0:0:
349,26,110354,6,0,B|359:64|380:85|380:85|338:150|338:150|295:126|280:78|280:78|246:107|188:77,1,300,6|2,0:1|0:0,0:0:0:0:
452,124,111044,2,0,B|506:107|507:107|507:107|412:263|412:263|406:205,1,300,2|2,0:0|0:0,0:0:0:0:
446,31,111734,1,6,0:1:0:0:
446,31,112251,1,2,0:0:0:0:
325,163,112423,5,2,0:0:0:0:
484,113,112596,1,0,0:0:0:0:
305,181,112768,1,2,0:0:0:0:
460,13,112941,1,2,0:0:0:0:
462,292,113113,6,0,B|442:324|403:300|403:300|427:266|430:233|430:233|455:191|455:191|394:167|404:82,1,300,6|0,0:1|0:0,0:0:0:0:
324,300,113803,2,0,B|294:283|290:256|290:256|234:259|234:259|214:309|214:309|170:301|137:319|137:319|188:350,1,300,6|0,0:1|0:0,0:0:0:0:
350,205,114492,5,6,0:1:0:0:
330,189,114578,1,0,0:0:0:0:
307,178,114664,1,0,0:0:0:0:
283,172,114750,1,0,0:0:0:0:
258,171,114836,1,0,0:0:0:0:
233,174,114923,1,0,0:0:0:0:
210,182,115009,1,0,0:0:0:0:
188,194,115095,1,0,0:0:0:0:
167,211,115182,5,0,0:0:0:0:
194,169,115268,1,0,0:0:0:0:
235,142,115354,1,0,0:0:0:0:
285,136,115440,1,0,0:0:0:0:
332,150,115527,1,0,0:0:0:0:
379,164,115613,1,0,0:0:0:0:
429,158,115699,1,0,0:0:0:0:
470,131,115785,1,0,0:0:0:0:
498,90,115872,6,0,B|456:67|419:88|419:88|340:1|298:115|217:27|217:27|252:112|198:166,1,457.142857142857,4|0,0:0|0:0,0:0:0:0:
