osu file format v14

[General]
AudioFilename: audio.mp3
AudioLeadIn: 0
PreviewTime: 88285
Countdown: 0
SampleSet: Soft
StackLeniency: 0.7
Mode: 0
LetterboxInBreaks: 0
EpilepsyWarning: 1
WidescreenStoryboard: 1

[Editor]
DistanceSpacing: 0.8
BeatDivisor: 4
GridSize: 4
TimelineZoom: 1.7

[Metadata]
Title:YUKARI
TitleUnicode:YUKARI
Artist:Ocelot
ArtistUnicode:Ocelot
Creator:Nhawak
Version:Mikiwak's Insane
Source:CROSSxBEATS
Tags:oriental drumstep Plaudible SnowNiNo_ Mikii Rohit6 Nerova Riuz GX Kanari
BeatmapID:1429835
BeatmapSetID:497536

[Difficulty]
HPDrainRate:6
CircleSize:4
OverallDifficulty:8
ApproachRate:9
SliderMultiplier:1.6
SliderTickRate:1

[Events]
//Background and Video events
0,0,"BG.jpg",0,0
//Break Periods
2,55382,60099
//Storyboard Layer 0 (Background)
//Storyboard Layer 1 (Fail)
//Storyboard Layer 2 (Pass)
//Storyboard Layer 3 (Foreground)
Sprite,Foreground,Centre,"sb/highlight.png",320,240 F,0,66130,66216,0,1 M,0,66216,66389,221,94,274,79 F,0,66216,66906,1 P,0,66302,,A M,0,66389,66561,274,79,333,94 M,0,66561,66734,333,94,385,82 M,0,66734,66906,385,82,347,66 F,0,66906,67251,1,0
Sprite,Foreground,Centre,"sb/highlight.png",320,240 F,0,71647,71733,0,1 P,0,71733,,A F,0,71733,72423,1 M,0,71734,71907,128,295,177,278 M,0,71907,72079,177,278,225,308 M,0,72079,72252,225,308,275,300 M,0,72252,72424,275,300,226,338 F,0,72423,72768,1,0
Sprite,Foreground,Centre,"sb/highlight.png",320,240 F,0,77165,77251,0,1 P,0,77251,,A F,0,77251,77941,1 M,0,77252,77425,218,80,232,137 M,0,77425,77597,232,137,225,191 M,0,77597,77770,225,191,216,249 M,0,77770,77942,216,249,227,307 F,0,77941,78286,1,0
Sprite,Foreground,Centre,"sb/highlight.png",320,240 F,0,82682,82768,0,1 P,0,82768,,A F,0,82768,83458,1 M,0,82769,82942,405,176,357,211 M,0,82942,83114,357,211,331,260 M,0,83114,83287,331,260,310,205 M,0,83287,83459,310,205,268,164 F,0,83458,83803,1,0
Sprite,Foreground,Centre,"sb/highlight.png",320,240 F,0,87510,87596,0,1 P,0,87596,,A F,0,87596,88286,1 M,0,87597,88199,202,366,133,360 F,0,88286,88631,1,0
Sprite,Foreground,Centre,"sb/highlight.png",320,240 F,0,70268,70355,0,1 M,0,70355,,379,261 C,0,70355,,255,128,128 P,0,70355,,A F,0,70355,71044,1,0
Sprite,Foreground,Centre,"sb/highlight.png",320,240 F,0,70613,70700,0,1 M,0,70700,,375,358 C,0,70700,,255,128,128 P,0,70700,,A F,0,70700,71389,1,0
Sprite,Foreground,Centre,"sb/highlight.png",320,240 F,0,70785,70872,0,1 M,0,70872,,272,216 C,0,70872,,255,128,128 P,0,70872,,A F,0,70872,71561,1,0
Sprite,Foreground,Centre,"sb/highlight.png",320,240 F,0,70958,71045,0,1 M,0,71045,,489,309 C,0,71045,,255,128,128 P,0,71045,,A F,0,71045,71734,1,0
Sprite,Foreground,Centre,"sb/highlight.png",320,240 F,0,71130,71217,0,1 M,0,71217,,260,407 C,0,71217,,255,128,128 P,0,71217,,A F,0,71217,71906,1,0
Sprite,Foreground,Centre,"sb/highlight.png",320,240 F,0,71475,71562,0,1 M,0,71562,,379,260 C,0,71562,,255,128,128 P,0,71562,,A F,0,71562,72251,1,0
Sprite,Foreground,Centre,"sb/highlight.png",320,240 F,0,71303,71390,0,1 M,0,71390,,260,407 C,0,71390,,255,128,128 P,0,71390,,A F,0,71390,72079,1,0
Sprite,Foreground,Centre,"sb/highlight.png",320,240 F,0,71389,71476,0,1 M,0,71476,,260,407 C,0,71476,,255,128,128 P,0,71476,,A F,0,71476,72165,1,0
Sprite,Foreground,Centre,"sb/highlight.png",320,240 F,0,75785,75872,0,1 M,0,75872,,383,332 C,0,75872,,255,128,128 P,0,75872,,A F,0,75872,76561,1,0
Sprite,Foreground,Centre,"sb/highlight.png",320,240 F,0,75958,76045,0,1 M,0,76045,,233,364 C,0,76045,,255,128,128 P,0,76045,,A F,0,76045,76734,1,0
Sprite,Foreground,Centre,"sb/highlight.png",320,240 F,0,76130,76217,0,1 M,0,76217,,307,277 C,0,76217,,255,128,128 P,0,76217,,A F,0,76217,76906,1,0
Sprite,Foreground,Centre,"sb/highlight.png",320,240 F,0,76303,76390,0,1 M,0,76390,,154,286 C,0,76390,,255,128,128 P,0,76390,,A F,0,76390,77079,1,0
Sprite,Foreground,Centre,"sb/highlight.png",320,240 F,0,76475,76562,0,1 M,0,76562,,298,187 C,0,76562,,255,128,128 P,0,76562,,A F,0,76562,77251,1,0
Sprite,Foreground,Centre,"sb/highlight.png",320,240 F,0,76647,76734,0,1 M,0,76734,,148,167 C,0,76734,,255,128,128 P,0,76734,,A F,0,76734,77423,1,0
Sprite,Foreground,Centre,"sb/highlight.png",320,240 F,0,76820,76907,0,1 M,0,76907,,364,124 C,0,76907,,255,128,128 P,0,76907,,A F,0,76907,77596,1,0
Sprite,Foreground,Centre,"sb/highlight.png",320,240 F,0,76992,77079,0,1 M,0,77079,,217,77 C,0,77079,,255,128,128 P,0,77079,,A F,0,77079,77768,1,0
Sprite,Foreground,Centre,"sb/highlight.png",320,240 F,0,77078,77165,0,1 M,0,77165,,217,77 C,0,77165,,255,128,128 P,0,77165,,A F,0,77165,77854,1,0
Sprite,Foreground,Centre,"sb/highlight.png",320,240 F,0,81647,81734,0,1 M,0,81734,,229,305 C,0,81734,,255,128,128 P,0,81734,,A F,0,81734,82423,1,0
Sprite,Foreground,Centre,"sb/highlight.png",320,240 F,0,81820,81907,0,1 M,0,81907,,404,197 C,0,81907,,255,128,128 P,0,81907,,A F,0,81907,82596,1,0
Sprite,Foreground,Centre,"sb/highlight.png",320,240 F,0,81992,82079,0,1 M,0,82079,,189,223 C,0,82079,,255,128,128 P,0,82079,,A F,0,82079,82768,1,0
Sprite,Foreground,Centre,"sb/highlight.png",320,240 F,0,82251,82338,0,1 M,0,82338,,103,213 C,0,82338,,255,128,128 P,0,82338,,A F,0,82338,83027,1,0
Sprite,Foreground,Centre,"sb/highlight.png",320,240 F,0,82510,82597,0,1 M,0,82597,,120,95 C,0,82597,,255,128,128 P,0,82597,,A F,0,82597,83286,1,0
Sprite,Foreground,Centre,"sb/highlight.png",320,240 F,0,86820,86907,0,1 M,0,86907,,94,155 C,0,86907,,255,128,128 P,0,86907,,A F,0,86907,87596,1,0
Sprite,Foreground,Centre,"sb/highlight.png",320,240 F,0,86992,87079,0,1 M,0,87079,,311,102 C,0,87079,,255,128,128 P,0,87079,,A F,0,87079,87768,1,0
Sprite,Foreground,Centre,"sb/highlight.png",320,240 F,0,87165,87252,0,1 M,0,87252,,173,235 C,0,87252,,255,128,128 P,0,87252,,A F,0,87252,87941,1,0
Sprite,Foreground,Centre,"sb/highlight.png",320,240 F,0,87337,87424,0,1 M,0,87424,,303,275 C,0,87424,,255,128,128 P,0,87424,,A F,0,87424,88113,1,0
Sprite,Foreground,Centre,"sb/highlight.png",320,240 F,0,98544,98631,0,1 M,0,98631,,315,296 C,0,98631,,255,128,128 P,0,98631,,A F,0,98631,99320,1,0
Sprite,Foreground,Centre,"sb/highlight.png",320,240 F,0,98889,98976,0,1 M,0,98976,,404,357 C,0,98976,,255,128,128 P,0,98976,,A F,0,98976,99665,1,0
Sprite,Foreground,Centre,"sb/highlight.png",320,240 F,0,103372,103459,0,1 M,0,103459,,261,341 C,0,103459,,255,128,128 P,0,103459,,A F,0,103459,104148,1,0
Sprite,Foreground,Centre,"sb/highlight.png",320,240 F,0,103630,103717,0,1 M,0,103717,,114,310 C,0,103717,,255,128,128 P,0,103717,,A F,0,103717,104406,1,0
Sprite,Foreground,Centre,"sb/highlight.png",320,240 F,0,103889,103976,0,1 M,0,103976,,244,221 C,0,103976,,255,128,128 P,0,103976,,A F,0,103976,104665,1,0
Sprite,Foreground,Centre,"sb/highlight.png",320,240 F,0,104061,104148,0,1 M,0,104148,,149,139 C,0,104148,,255,128,128 P,0,104148,,A F,0,104148,104837,1,0
Sprite,Foreground,Centre,"sb/highlight.png",320,240 F,0,104320,104407,0,1 M,0,104407,,147,272 C,0,104407,,255,128,128 P,0,104407,,A F,0,104407,105096,1,0
Sprite,Foreground,Centre,"sb/highlight.png",320,240 F,0,104578,104665,0,1 M,0,104665,,258,340 C,0,104665,,255,128,128 P,0,104665,,A F,0,104665,105354,1,0
Sprite,Foreground,Centre,"sb/highlight.png",320,240 F,0,104751,104838,0,1 M,0,104838,,139,383 C,0,104838,,255,128,128 P,0,104838,,A F,0,104838,105527,1,0
Sprite,Foreground,Centre,"sb/highlight.png",320,240 F,0,107510,107597,0,1 M,0,107597,,339,135 C,0,107597,,255,128,128 P,0,107597,,A F,0,107597,108286,1,0
Sprite,Foreground,Centre,"sb/highlight.png",320,240 F,0,107854,107941,0,1 M,0,107941,,342,304 C,0,107941,,255,128,128 P,0,107941,,A F,0,107941,108630,1,0
Sprite,Foreground,Centre,"sb/highlight.png",320,240 F,0,108027,108114,0,1 M,0,108114,,261,215 C,0,108114,,255,128,128 P,0,108114,,A F,0,108114,108803,1,0
Sprite,Foreground,Centre,"sb/highlight.png",320,240 F,0,108199,108286,0,1 M,0,108286,,445,258 C,0,108286,,255,128,128 P,0,108286,,A F,0,108286,108975,1,0
Sprite,Foreground,Centre,"sb/highlight.png",320,240 F,0,108544,108631,0,1 M,0,108631,,352,214 C,0,108631,,255,128,128 P,0,108631,,A F,0,108631,109320,1,0
Sprite,Foreground,Centre,"sb/highlight.png",320,240 F,0,108716,108803,0,1 M,0,108803,,505,164 C,0,108803,,255,128,128 P,0,108803,,A F,0,108803,109492,1,0
Sprite,Foreground,Centre,"sb/highlight.png",320,240 F,0,108889,108976,0,1 M,0,108976,,323,94 C,0,108976,,255,128,128 P,0,108976,,A F,0,108976,109665,1,0
Sprite,Foreground,Centre,"sb/highlight.png",320,240 F,0,108975,109062,0,1 M,0,109062,,286,101 C,0,109062,,255,128,128 P,0,109062,,A F,0,109062,109751,1,0
Sprite,Foreground,Centre,"sb/highlight.png",320,240 F,0,109061,109148,0,1 M,0,109148,,255,106 C,0,109148,,255,128,128 P,0,109148,,A F,0,109148,109837,1,0
Sprite,Foreground,Centre,"sb/highlight.png",320,240 F,0,109234,109321,0,1 M,0,109321,,108,232 C,0,109321,,255,128,128 P,0,109321,,A F,0,109321,110010,1,0
Sprite,Foreground,Centre,"sb/highlight.png",320,240 F,0,109320,109407,0,1 M,0,109407,,143,247 C,0,109407,,255,128,128 P,0,109407,,A F,0,109407,110096,1,0
Sprite,Foreground,Centre,"sb/highlight.png",320,240 F,0,109406,109493,0,1 M,0,109493,,175,263 C,0,109493,,255,128,128 P,0,109493,,A F,0,109493,110182,1,0
Sprite,Foreground,Centre,"sb/highlight.png",320,240 F,0,109492,109579,0,1 M,0,109579,,201,238 C,0,109579,,255,128,128 P,0,109579,,A F,0,109579,110268,1,0
Sprite,Foreground,Centre,"sb/highlight.png",320,240 F,0,109578,109665,0,1 M,0,109665,,242,225 C,0,109665,,255,128,128 P,0,109665,,A F,0,109665,110354,1,0
Sprite,Foreground,Centre,"sb/highlight.png",320,240 F,0,109751,109838,0,1 M,0,109838,,271,385 C,0,109838,,255,128,128 P,0,109838,,A F,0,109838,110527,1,0
Sprite,Foreground,Centre,"sb/highlight.png",320,240 F,0,109923,110010,0,1 M,0,110010,,345,240 C,0,110010,,255,128,128 P,0,110010,,A F,0,110010,110699,1,0
Sprite,Foreground,Centre,"sb/highlight.png",320,240 F,0,110096,110183,0,1 M,0,110183,,199,319 C,0,110183,,255,128,128 P,0,110183,,A F,0,110183,110872,1,0
Sprite,Foreground,Centre,"sb/highlight.png",320,240 F,0,110268,110355,0,1 M,0,110355,,360,339 C,0,110355,,255,128,128 P,0,110355,,A F,0,110355,111044,1,0
Sprite,Foreground,Centre,"sb/highlight.png",320,240 F,0,114406,114493,0,1 M,0,114492,,491,151 C,0,114493,,255,128,128 P,0,114493,,A F,0,114493,115182,1,0
//Storyboard Sound Samples

[TimingPoints]
10,344.827586206897,4,2,1,60,1,0
10,-125,4,2,1,60,0,0
96,-125,4,2,3,60,0,0
11044,-100,4,2,1,60,0,0
22078,-111.111111111111,4,2,1,60,0,0
24406,-111.111111111111,4,2,1,5,0,0
24492,-111.111111111111,4,2,1,60,0,0
24751,-111.111111111111,4,2,1,5,0,0
24837,-111.111111111111,4,2,1,60,0,0
25354,-111.111111111111,4,2,1,60,0,0
26216,-100,4,2,1,60,0,0
26389,-100,4,2,1,60,0,0
26561,-100,4,2,1,60,0,0
26734,-100,4,2,1,60,0,0
26906,-111.111111111111,4,2,1,60,0,0
27596,-111.111111111111,4,2,1,60,0,0
29923,-111.111111111111,4,2,1,5,0,0
30010,-111.111111111111,4,2,1,60,0,0
30354,-111.111111111111,4,2,1,60,0,0
30872,-111.111111111111,4,2,1,60,0,0
31734,-100,4,2,1,60,0,0
33113,-111.111111111111,4,2,1,60,0,0
35441,-111.111111111111,4,2,1,5,0,0
35527,-111.111111111111,4,2,1,60,0,0
35872,-111.111111111111,4,2,1,60,0,0
36216,-111.111111111111,4,2,1,60,0,0
37251,-111.111111111111,4,2,1,60,0,0
37337,-111.111111111111,4,2,1,5,0,0
37423,-100,4,2,1,60,0,0
37510,-100,4,2,1,5,0,0
37596,-100,4,2,1,60,0,0
37682,-100,4,2,1,5,0,0
37768,-100,4,2,1,60,0,0
37854,-100,4,2,1,5,0,0
37941,-100,4,2,1,60,0,0
38630,-111.111111111111,4,2,1,60,0,0
40958,-111.111111111111,4,2,1,5,0,0
41044,-111.111111111111,4,2,1,60,0,0
41303,-111.111111111111,4,2,1,5,0,0
41389,-111.111111111111,4,2,1,60,0,0
41734,-111.111111111111,4,2,1,60,0,0
44147,-111.111111111111,4,2,1,60,0,0
47596,-111.111111111111,4,2,1,60,0,0
48285,-100,4,2,1,60,0,0
53803,-100,4,2,1,50,0,0
54492,-100,4,2,1,30,0,0
55182,-100,4,2,1,60,0,0
64837,-100,4,2,1,30,0,0
65182,-100,4,2,1,50,0,0
65527,-100,4,2,1,60,0,0
65872,-100,4,2,1,5,0,0
66216,-133.333333333333,4,2,1,60,0,1
66303,-133.333333333333,4,2,1,60,0,0
66906,-83.3333333333333,4,2,1,60,0,1
68975,-133.333333333333,4,2,1,60,0,1
69665,-83.3333333333333,4,2,1,60,0,0
70354,-83.3333333333333,4,2,1,60,0,1
71734,-133.333333333333,4,2,1,60,0,0
72423,-83.3333333333333,4,2,1,60,0,1
74492,-133.333333333333,4,2,1,60,0,0
74837,-100,4,2,1,60,0,0
75872,-83.3333333333333,4,2,1,60,0,1
77251,-133.333333333333,4,2,1,60,0,0
77941,-83.3333333333333,4,2,1,60,0,1
80010,-133.333333333333,4,2,1,60,0,0
80699,-83.3333333333333,4,2,1,60,0,1
82768,-133.333333333333,4,2,1,60,0,0
83458,-83.3333333333333,4,2,1,60,0,1
85527,-133.333333333333,4,2,1,60,0,0
86216,-83.3333333333333,4,2,1,60,0,1
87596,-400,4,2,1,60,0,0
88199,-100,4,2,1,5,0,0
88285,-100,4,2,10,60,0,0
88458,-100,4,2,1,60,0,0
90958,-100,4,2,1,5,0,0
91044,-100,4,2,1,60,0,0
91303,-100,4,2,1,5,0,0
91389,-100,4,2,1,60,0,0
91647,-100,4,2,1,5,0,0
91734,-100,4,2,1,60,0,0
98285,-95.2380952380952,4,2,1,60,0,0
98630,-90.9090909090909,4,2,1,60,0,0
98975,-86.9565217391304,4,2,1,60,0,0
99320,-83.3333333333333,4,2,1,60,0,1
100354,-83.3333333333333,4,2,10,60,0,1
100527,-83.3333333333333,4,2,1,60,0,1
105872,-83.3333333333333,4,2,10,60,0,1
106044,-83.3333333333333,4,2,1,60,0,1
110354,-100,4,2,1,60,0,0
111734,-111.111111111111,4,2,1,60,0,0
113113,-125,4,2,1,60,0,0
113803,-142.857142857143,4,2,1,60,0,0
114578,-100,4,2,1,30,0,0
115872,-100,4,2,1,30,0,0
118630,-100,4,2,1,5,0,0

[Colours]
Combo1 : 231,227,224
Combo2 : 248,133,136
Combo3 : 236,140,207
Combo4 : 226,167,122

[HitObjects]
122,185,10,6,0,B|210:167|210:167|281:193|281:193|379:179,1,256,4|2,0:0|0:0,0:0:0:0:
370,180,1044,2,0,P|372:220|379:247,1,64,0|0,0:0|0:0,0:0:0:0:
299,355,1389,6,0,P|299:290|281:223,1,128,0|0,0:0|0:0,0:0:0:0:
165,335,1906,1,0,0:0:0:0:
157,254,2078,6,0,P|150:281|149:317,1,64,2|0,0:0|0:0,0:0:0:0:
132,161,2423,2,0,P|101:176|80:200,1,64,0|0,0:0|0:0,0:0:0:0:
265,85,2768,6,0,B|200:92|200:92|134:59,2,128,0|0|2,0:0|0:0|0:0,0:0:0:0:
256,192,3544,12,2,4837,0:0:0:0:
70,143,5527,6,0,B|202:90|176:203|333:156,1,256,0|2,0:0|0:0,0:0:0:0:
315,160,6561,2,0,P|316:201|329:244,1,64,0|0,0:0|0:0,0:0:0:0:
437,343,6906,6,0,P|424:299|424:212,1,128,0|0,0:0|0:0,0:0:0:0:
315,160,7423,1,0,0:0:0:0:
241,281,7596,2,0,P|276:292|311:296,1,64,2|0,0:0|0:0,0:0:0:0:
184,192,7941,2,0,P|154:197|112:217,1,64
87,284,8285,5,0,0:0:0:0:
54,148,8630,1,0,0:0:0:0:
201,97,8975,5,2,0:0:0:0:
187,243,9320,1,0,0:0:0:0:
256,192,9665,12,0,10699,0:0:0:0:
247,292,11044,6,0,P|322:264|419:264,1,160,6|0,0:0|0:0,0:0:0:0:
473,329,11561,1,0,0:0:0:0:
457,192,11734,2,0,P|476:203|505:213,2,40,2|0|0,0:0|0:0|0:0,0:0:0:0:
367,149,12078,2,0,P|368:107|402:82,1,80,0|0,0:0|0:0,0:0:0:0:
244,119,12337,1,0,0:0:0:0:
262,141,12423,6,0,P|283:197|234:272,1,120,2|0,0:0|0:0,0:0:0:0:
197,307,12768,1,0,0:0:0:0:
94,220,12941,1,0,0:0:0:0:
94,220,13027,1,0,0:0:0:0:
94,220,13113,2,0,P|123:182|172:182,1,80,2|0,0:0|0:0,0:0:0:0:
312,259,13458,2,0,L|320:360,1,80,0|0,0:0|0:0,0:0:0:0:
139,372,13803,6,0,P|107:303|174:228,1,160,2|0,0:0|0:0,0:0:0:0:
251,178,14320,1,0,0:0:0:0:
160,98,14492,2,0,P|139:102|116:109,2,40,2|0|0,0:0|0:0|0:0,0:0:0:0:
266,33,14837,1,0,0:0:0:0:
368,117,15010,1,0,0:0:0:0:
368,117,15096,1,0,0:0:0:0:
368,117,15182,6,0,P|352:156|349:239,1,120,2|0,0:0|0:0,0:0:0:0:
406,300,15527,2,0,P|373:282|328:282,1,80,0|0,0:0|0:0,0:0:0:0:
229,214,15872,2,0,P|195:252|216:303,1,80,2|0,0:0|0:0,0:0:0:0:
306,166,16216,1,0,0:0:0:0:
203,53,16389,1,0,0:0:0:0:
197,68,16475,1,0,0:0:0:0:
192,83,16561,6,0,P|152:70|108:92,1,80,2|0,0:0|0:0,0:0:0:0:
306,166,16906,2,0,P|345:175|386:156,1,80,0|2,0:0|0:0,0:0:0:0:
480,15,17251,2,0,L|397:24,1,80,2|0,0:0|0:0,0:0:0:0:
400,23,17510,1,0,0:0:0:0:
400,23,17596,2,0,P|390:64|409:106,1,80,0|2,0:0|0:0,0:0:0:0:
472,264,17941,6,0,P|436:240|382:252,1,80,2|0,0:0|0:0,0:0:0:0:
285,178,18285,2,0,L|273:83,1,80,0|2,0:0|0:0,0:0:0:0:
274,98,18544,1,0,0:0:0:0:
274,98,18630,2,0,P|238:118|173:91,1,80,2|0,0:0|0:0,0:0:0:0:
64,192,18975,2,0,P|102:186|146:206,1,80,0|2,0:0|0:0,0:0:0:0:
139,200,19234,1,0,0:0:0:0:
139,200,19320,6,0,L|149:290,1,80,2|0,0:0|0:0,0:0:0:0:
324,351,19665,2,0,L|314:261,1,80,2|0,0:0|0:0,0:0:0:0:
236,165,20010,6,0,L|246:75,1,80,2|2,0:0|0:0,0:0:0:0:
445,37,20355,2,0,L|435:127,1,80,2|2,0:0|0:0,0:0:0:0:
436,116,20613,1,2,0:0:0:0:
391,188,22078,6,0,B|306:165|320:216|244:192,1,143.999995605469,6|0,0:0|0:0,0:0:0:0:
103,251,22596,2,0,L|93:216,1,35.9999989013672,2|2,0:0|0:0,0:0:0:0:
64,128,22768,6,0,B|133:105|119:156|204:133,1,143.999995605469,8|0,0:0|0:0,0:0:0:0:
301,267,23285,1,8,0:0:0:0:
301,267,23372,1,0,0:0:0:0:
301,267,23458,6,0,P|312:307|303:348,2,71.9999978027344,2|8|0,0:0|0:0|0:0,0:0:0:0:
220,306,23975,1,0,0:0:0:0:
416,357,24147,2,0,P|406:316|418:236,1,107.999996704102,8|0,0:0|0:0,0:0:0:0:
422,230,24492,1,2,0:0:0:0:
325,82,24665,1,0,0:0:0:0:
333,70,24751,1,0,0:0:0:0:
340,57,24837,6,0,P|382:122|342:196,1,143.999995605469,2|0,0:0|0:0,0:0:0:0:
251,199,25354,2,0,L|239:244,2,35.9999989013672,2|2|8,0:0|0:0|0:0,0:0:0:0:
186,119,25699,2,0,P|152:130|96:126,1,71.9999978027344,0|0,0:0|0:0,0:0:0:0:
21,87,26044,1,2,0:0:0:0:
24,100,26130,1,2,0:0:0:0:
26,116,26216,6,0,L|34:169,1,40,2|0,0:0|0:0,0:0:0:0:
49,255,26389,1,8,0:0:0:0:
132,148,26561,6,0,L|140:201,1,40,2|0,0:0|0:0,0:0:0:0:
155,287,26734,1,2,0:0:0:0:
235,188,26906,5,8,0:0:0:0:
235,188,27078,2,0,L|243:241,2,35.9999989013672,0|0|8,1:0|1:0|0:0,0:0:0:0:
258,325,27423,1,2,0:0:0:0:
163,143,27596,6,0,P|212:103|295:126,1,143.999995605469,2|0,0:0|0:0,0:0:0:0:
372,212,28113,2,0,L|425:200,1,35.9999989013672,2|2,0:0|0:0,0:0:0:0:
468,154,28285,2,0,L|449:312,1,143.999995605469,8|0,0:0|0:0,0:0:0:0:
274,296,28803,1,8,0:0:0:0:
274,296,28889,1,0,0:0:0:0:
274,296,28976,6,0,P|261:260|296:213,1,71.9999978027344,2|0,0:0|0:0,0:0:0:0:
363,107,29320,2,0,P|377:142|360:183,1,71.9999978027344,0|2,0:0|0:0,0:0:0:0:
157,94,29665,2,0,P|223:108|265:79,1,107.999996704102,8|0,0:0|0:0,0:0:0:0:
289,11,30010,2,0,P|328:28|380:10,1,71.9999978027344,2|8,0:0|1:0,0:0:0:0:
463,60,30268,1,8,0:0:0:0:
446,78,30354,6,0,P|426:156|439:247,1,143.999995605469,2|0,0:0|0:0,0:0:0:0:
308,310,30872,1,2,0:0:0:0:
312,324,30958,1,2,0:0:0:0:
316,338,31044,2,0,B|341:268|309:266|283:255|316:181,1,143.999995605469,8|0,0:0|0:0,0:0:0:0:
107,342,31561,1,2,0:0:0:0:
93,337,31647,1,2,0:0:0:0:
79,331,31734,6,0,P|71:290|81:245,1,80,2|8,0:0|0:0,0:0:0:0:
219,109,32078,2,0,P|227:150|217:191,1,80,2|2,0:0|0:0,0:0:0:0:
78,229,32423,1,8,0:0:0:0:
200,265,32596,1,8,0:0:0:0:
215,269,32682,1,8,0:0:0:0:
230,273,32768,1,8,0:0:0:0:
137,141,32941,1,2,0:0:0:0:
303,54,33113,6,0,B|354:45|354:45|406:61|406:61|465:51,1,143.999995605469,6|0,0:0|0:0,0:0:0:0:
465,189,33630,1,2,0:0:0:0:
465,189,33716,1,2,0:0:0:0:
465,189,33803,6,0,B|414:198|414:198|362:182|362:182|303:192,1,143.999995605469,8|0,0:0|0:0,0:0:0:0:
230,269,34320,1,8,0:0:0:0:
230,269,34406,1,0,0:0:0:0:
230,269,34492,6,0,P|205:301|216:356,1,71.9999978027344,2|8,0:0|0:0,0:0:0:0:
340,284,34837,1,0,0:0:0:0:
206,349,35010,1,2,0:0:0:0:
168,191,35182,2,0,P|179:155|155:81,1,107.999996704102,8|0,0:0|0:0,0:0:0:0:
143,59,35527,1,2,0:0:0:0:
288,22,35699,2,0,P|294:48|284:82,1,35.9999989013672,8|8,0:0|0:0,0:0:0:0:
267,164,35872,6,0,P|302:144|419:136,1,143.999995605469,2|0,0:0|0:0,0:0:0:0:
483,270,36389,1,2,0:0:0:0:
483,270,36475,1,2,0:0:0:0:
483,270,36561,2,0,P|413:251|341:262,1,143.999995605469,8|0,0:0|0:0,0:0:0:0:
193,298,37078,1,2,0:0:0:0:
196,312,37165,1,2,0:0:0:0:
199,325,37251,5,2,0:0:0:0:
270,199,37423,2,0,P|225:199|179:185,1,80,8|2,0:0|0:0,0:0:0:0:
157,68,37768,1,2,0:0:0:0:
239,121,37941,1,8,0:0:0:0:
108,161,38113,2,0,L|61:172,2,40,0|2|8,0:0|0:0|0:0,0:0:0:0:
239,121,38458,1,2,0:0:0:0:
73,75,38630,6,0,P|76:30|97:-1,1,71.9999978027344,2|0,0:0|0:0,0:0:0:0:
260,32,38975,1,0,0:0:0:0:
178,155,39147,1,2,0:0:0:0:
178,155,39234,1,2,0:0:0:0:
178,155,39320,1,8,0:0:0:0:
304,202,39492,2,0,B|379:181|364:232|458:210,1,143.999995605469,0|8,0:0|0:0,0:0:0:0:
490,283,39923,1,0,0:0:0:0:
500,291,40010,6,0,P|511:333|490:370,1,71.9999978027344,2|0,0:0|0:0,0:0:0:0:
384,298,40354,1,2,0:0:0:0:
281,358,40527,1,2,0:0:0:0:
187,280,40699,2,0,P|132:255|83:268,1,107.999996704102,8|0,0:0|0:0,0:0:0:0:
57,284,41044,1,8,0:0:0:0:
126,357,41216,1,0,0:0:0:0:
165,163,41389,6,0,B|243:184|236:125|311:146,1,143.999995605469,2|0,0:0|0:0,0:0:0:0:
451,73,41906,1,2,0:0:0:0:
451,73,41992,1,2,0:0:0:0:
451,73,42078,2,0,P|475:105|468:155,1,71.9999978027344,8|2,0:0|0:0,0:0:0:0:
406,227,42337,1,2,0:0:0:0:
390,239,42423,2,0,L|338:230,1,35.9999989013672,8|0,0:0|0:0,0:0:0:0:
276,148,42596,2,0,L|283:113,1,35.9999989013672,2|0,0:0|0:0,0:0:0:0:
376,47,42768,5,4,0:1:0:0:
425,140,42941,1,2,0:0:0:0:
311,193,43113,1,2,0:0:0:0:
275,94,43285,1,2,0:0:0:0:
275,94,43372,1,2,0:0:0:0:
275,94,43458,5,2,0:0:0:0:
182,155,43630,1,2,0:0:0:0:
137,95,43803,1,2,0:0:0:0:
79,134,43975,1,2,0:0:0:0:
67,166,44147,6,0,P|200:169|301:294,1,287.999991210938,6|2,0:0|0:0,0:0:0:0:
297,279,45182,1,0,0:0:0:0:
223,241,45354,1,0,0:0:0:0:
361,161,45527,6,0,B|348:240|411:217|382:320,1,143.999995605469,2|0,0:0|0:0,0:0:0:0:
481,269,46044,1,0,0:0:0:0:
470,171,46216,2,0,P|453:140|455:91,1,71.9999978027344,2|0,0:0|0:0,0:0:0:0:
356,42,46561,2,0,P|318:34|261:54,1,71.9999978027344,2|0,0:0|0:0,0:0:0:0:
160,92,46906,6,0,P|117:71|20:57,2,143.999995605469,2|0|2,0:0|0:0|0:0,0:0:0:0:
205,167,47768,1,0,0:0:0:0:
302,168,47941,2,0,P|266:189|217:188,1,71.9999978027344,0|0,0:0|0:0,0:0:0:0:
94,143,48285,6,0,P|60:199|87:278,1,120,2|0,0:0|0:0,0:0:0:0:
93,327,48630,2,0,P|138:328|189:336,1,80,0|0,0:0|0:0,0:0:0:0:
265,275,48975,2,0,P|302:273|360:263,1,80,2|0,0:0|0:0,0:0:0:0:
344,266,49234,1,0,0:0:0:0:
344,266,49320,2,0,P|379:298|371:357,1,80,2|2,0:0|0:0,0:0:0:0:
231,220,49665,6,0,P|247:117|446:128,1,320,2|2,0:0|0:0,0:0:0:0:
432,107,50699,1,0,0:0:0:0:
382,33,50872,1,0,0:0:0:0:
481,192,51044,6,0,B|373:218|424:163|309:196,1,160,2|0,0:0|0:0,0:0:0:0:
240,301,51561,1,0,0:0:0:0:
251,143,51734,2,0,P|280:172|294:236,1,80,2|0,0:0|0:0,0:0:0:0:
389,213,52078,2,0,P|387:260|348:311,1,80,2|0,0:0|0:0,0:0:0:0:
226,281,52423,6,0,P|162:285|48:326,2,160,2|0|2,0:0|0:0|0:0,0:0:0:0:
342,101,53458,1,0,0:0:0:0:
445,209,53803,6,0,P|397:212|317:226,1,120,2|0,0:0|0:0,0:0:0:0:
278,155,54147,2,0,P|253:175|253:243,1,80,0|2,0:0|0:0,0:0:0:0:
121,315,54492,5,2,0:0:0:0:
219,243,54665,1,0,0:0:0:0:
102,215,54837,5,0,0:0:0:0:
154,146,55010,1,0,0:0:0:0:
20,173,55182,5,4,0:0:0:0:
256,192,60699,12,0,64492,0:0:0:0:
140,366,64837,6,0,L|160:310,3,40,0|0|0|0,0:0|0:0|0:0|0:0,0:0:0:0:
64,290,65182,2,0,L|44:234,3,40,0|0|0|0,0:0|0:0|0:0|0:0,0:0:0:0:
149,208,65527,2,0,L|169:152,3,40,0|0|0|0,0:0|0:0|0:0|0:0,0:0:0:0:
73,132,65872,2,0,L|62:100,6,20,0|0|0|0|0|0|0,0:0|0:0|0:0|0:0|0:0|0:0|0:0,0:0:0:0:
158,50,66216,6,0,B|254:-2|254:94|334:82|362:34|314:-15|282:28,1,240.000009155274,6|12,0:0|0:1,0:0:0:0:
411,73,67078,1,0,0:0:0:0:
259,184,67251,5,0,0:0:0:0:
278,178,67337,1,0,0:0:0:0:
298,172,67423,1,0,0:0:0:0:
317,165,67509,1,0,0:0:0:0:
336,159,67596,5,2,0:0:0:0:
175,210,67768,1,0,0:0:0:0:
407,290,67941,1,0,0:0:0:0:
388,284,68027,1,0,0:0:0:0:
368,278,68113,1,0,0:0:0:0:
349,271,68199,1,0,0:0:0:0:
330,265,68285,6,0,B|315:313|315:313|339:376,1,95.9999970703126,8|0,0:0|0:0,0:0:0:0:
488,251,68630,2,0,B|503:203|503:203|479:140,1,95.9999970703126,0|0,0:0|0:0,0:0:0:0:
254,179,68975,6,0,B|307:160|329:93|329:93|339:164|392:191,1,240.000009155274,2|8,0:0|0:0,0:0:0:0:
334,13,69837,1,0,0:0:0:0:
334,13,70182,1,0,0:0:0:0:
320,219,70354,6,0,L|329:110,1,95.9999970703126,2|8,0:0|0:0,0:0:0:0:
314,315,70699,1,0,0:0:0:0:
212,172,70872,1,2,0:0:0:0:
428,266,71044,5,8,0:0:0:0:
200,364,71216,1,2,0:0:0:0:
200,364,71303,1,2,0:0:0:0:
200,364,71389,1,8,0:0:0:0:
320,219,71561,1,2,0:0:0:0:
65,253,71734,6,0,B|93:253|116:231|116:231|135:259|170:273|219:256|219:256|165:269|155:317,1,240.000009155274,6|12,0:0|0:1,0:0:0:0:
320,219,72596,1,0,0:0:0:0:
213,56,72768,5,0,0:0:0:0:
219,75,72854,1,0,0:0:0:0:
225,95,72940,1,0,0:0:0:0:
232,114,73026,1,0,0:0:0:0:
238,133,73113,5,2,0:0:0:0:
119,114,73285,1,0,0:0:0:0:
50,211,73458,5,0,0:0:0:0:
169,192,73630,1,0,0:0:0:0:
238,288,73803,5,8,0:0:0:0:
119,269,73975,1,0,0:0:0:0:
50,366,74148,5,0,0:0:0:0:
169,347,74320,1,0,0:0:0:0:
286,209,74492,6,0,P|312:244|323:288,1,90.0000034332277,2|0,0:0|0:0,0:0:0:0:
323,288,74837,6,0,B|344:272|381:269,2,53.3333333333333,0|0|0,0:0|0:0|0:0,0:0:0:0:
328,138,75182,6,0,P|349:214|323:287,1,160,8|0,0:0|0:0,0:0:0:0:
245,234,75699,1,0,0:0:0:0:
323,288,75872,5,4,0:1:0:0:
175,322,76044,1,0,0:0:0:0:
245,234,76216,5,8,0:0:0:0:
93,243,76388,1,0,0:0:0:0:
237,142,76561,5,0,0:0:0:0:
85,124,76733,1,8,0:0:0:0:
303,79,76906,5,8,0:0:0:0:
156,34,77078,1,8,0:0:0:0:
156,34,77165,1,8,0:0:0:0:
156,34,77251,6,0,B|176:113|176:113|150:184|150:184|168:269,1,240.000009155274,6|12,0:0|0:1,0:0:0:0:
256,210,78113,5,0,0:0:0:0:
185,359,78285,2,0,L|167:265,1,95.9999970703126,0|0,0:0|0:0,0:0:0:0:
345,155,78630,5,2,0:0:0:0:
311,299,78803,1,0,0:0:0:0:
311,299,78889,1,0,0:0:0:0:
311,299,78975,1,0,0:0:0:0:
202,120,79147,1,0,0:0:0:0:
166,264,79320,5,8,0:0:0:0:
345,155,79492,1,0,0:0:0:0:
345,155,79578,1,0,0:0:0:0:
345,155,79665,1,0,0:0:0:0:
311,299,79837,1,0,0:0:0:0:
80,203,80010,6,0,B|120:190|185:195|147:218|206:229|259:208,1,180.000006866455,2|0,0:0|0:0,0:0:0:0:
202,120,80699,6,0,P|187:74|193:30,2,63.9999980468751,8|0|0,0:0|0:0|0:0,0:0:0:0:
345,155,81044,2,0,P|391:140|435:146,2,63.9999980468751,0|0|0,0:0|0:0|0:0,0:0:0:0:
311,299,81389,2,0,P|326:345|320:389,2,63.9999980468751,0|0|0,0:0|0:0|0:0,0:0:0:0:
166,264,81734,5,2,0:0:0:0:
345,155,81906,1,0,0:0:0:0:
128,180,82078,6,0,P|77:202|9:173,1,95.9999970703126,8|0,0:0|0:0,0:0:0:0:
41,172,82337,2,0,L|56:49,1,95.9999970703126
57,52,82596,1,0,0:0:0:0:
344,134,82768,6,0,B|291:153|269:220|269:220|259:149|206:122,1,240.000009155274,6|12,0:0|0:1,0:0:0:0:
287,18,83630,5,0,0:0:0:0:
284,38,83716,1,0,0:0:0:0:
282,59,83802,1,0,0:0:0:0:
270,221,83975,1,0,0:0:0:0:
156,61,84147,5,2,0:0:0:0:
344,134,84320,1,0,0:0:0:0:
158,143,84492,5,0,0:0:0:0:
341,157,84665,1,0,0:0:0:0:
160,225,84837,5,10,0:0:0:0:
338,180,85010,1,0,0:0:0:0:
162,307,85182,5,0,0:0:0:0:
335,203,85354,1,0,0:0:0:0:
248,60,85527,6,0,B|261:100|256:165|233:127|222:186|243:239,1,180.000006866455,2|0,0:0|0:0,0:0:0:0:
36,112,86216,6,0,P|108:84|172:100,2,143.999995605469,8|8|8,0:0|0:0|0:0,0:0:0:0:
36,112,86820,1,8,0:0:0:0:
36,112,86906,5,8,0:0:0:0:
248,60,87078,1,2,0:0:0:0:
112,192,87251,5,2,0:0:0:0:
241,235,87423,1,2,0:0:0:0:
141,322,87596,6,0,P|101:314|69:318,1,70,8|0,0:3|0:0,0:0:0:0:
3,354,88285,5,14,0:1:0:0:
165,243,88458,1,0,0:0:0:0:
13,151,88630,2,0,L|33:260,1,80,8|2,0:0|0:3,0:0:0:0:
197,83,88975,2,0,L|177:192,1,80,0|8,0:0|0:0,0:0:0:0:
0,70,89320,1,0,0:0:0:0:
0,70,89492,1,0,0:0:0:0:
261,147,89665,6,0,L|182:161,1,80,2|0,0:3|0:0,0:0:0:0:
182,160,89923,1,0,0:0:0:0:
182,160,90010,2,0,L|196:239,1,80,8|2,0:0|0:3,0:0:0:0:
195,238,90268,1,0,0:0:0:0:
195,238,90354,5,0,0:0:0:0:
345,127,90527,1,8,0:0:0:0:
190,367,90699,2,0,P|240:335|330:350,1,120,0|0,0:0|0:0,0:0:0:0:
299,335,91044,6,0,L|318:216,1,120,2|0,0:3|0:0,0:0:0:0:
408,211,91389,2,0,L|386:347,1,120,8|0,0:0|0:0,0:0:0:0:
477,323,91734,6,0,L|487:268,1,40,0|0,0:0|0:0,0:0:0:0:
497,205,91906,1,8,0:0:0:0:
299,335,92078,1,0,0:0:0:0:
325,177,92251,2,0,L|317:216,1,40,0|0,0:0|0:0,0:0:0:0:
299,335,92423,5,2,0:3:0:0:
408,211,92596,2,0,L|398:266,1,40,0|0,0:0|0:0,0:0:0:0:
390,330,92768,5,8,0:0:0:0:
491,245,92941,2,0,L|481:300,1,40,2|0,0:3|0:0,0:0:0:0:
477,323,93113,5,0,0:0:0:0:
299,335,93285,1,8,0:0:0:0:
325,177,93458,1,0,0:0:0:0:
325,177,93544,1,0,0:0:0:0:
325,177,93630,1,0,0:0:0:0:
503,165,93803,5,2,0:3:0:0:
503,165,93975,1,0,0:0:0:0:
338,99,94147,2,0,P|323:145|332:203,1,80,8|2,0:0|0:3,0:0:0:0:
503,165,94492,2,0,L|423:157,1,80,0|8,0:0|0:0,0:0:0:0:
240,132,94837,1,0,0:0:0:0:
240,132,95010,1,0,0:0:0:0:
272,348,95182,6,0,L|351:334,1,80,2|0,0:3|0:0,0:0:0:0:
351,335,95440,1,0,0:0:0:0:
351,335,95527,2,0,L|337:256,1,80,8|2,0:0|0:3,0:0:0:0:
338,257,95785,1,0,0:0:0:0:
338,257,95871,5,0,0:0:0:0:
192,364,96044,1,8,0:0:0:0:
350,334,96216,1,0,0:0:0:0:
224,224,96389,1,0,0:0:0:0:
332,101,96561,6,0,B|347:136|347:197|323:163|318:219|341:266,2,160,2|8|0,0:3|0:0|0:0,0:0:0:0:
248,48,97423,1,8,0:0:0:0:
447,86,97596,2,0,B|404:77|404:77|332:101,1,120,0|0,0:0|0:0,0:0:0:0:
255,139,97941,6,0,P|236:132|216:130,3,40,0|0|0|0,0:3|0:0|0:0|0:0,0:0:0:0:
343,200,98285,6,0,P|362:192|383:190,3,41.9999987182618,0|0|0|0,0:0|0:0|0:3|0:0,0:0:0:0:
255,254,98630,6,0,P|236:247|213:245,3,44.0000013427735,2|2|2|2,0:0|0:0|0:0|0:0,0:0:0:0:
343,315,98975,6,0,P|362:307|387:305,3,46.0000008773804,2|0|2|0,0:0|0:0|0:0|0:0,0:0:0:0:
255,369,99320,6,0,B|199:354|199:354|158:361|158:361|106:343,1,143.999995605469,6|0,0:0|0:0,0:0:0:0:
95,339,99665,1,8,0:0:0:0:
217,232,99837,1,0,0:0:0:0:
24,149,100010,2,0,P|24:127|34:96,2,47.9999985351563,0|2|0,0:0|0:0|0:0,0:0:0:0:
147,262,100354,2,0,P|142:216|135:160,1,95.9999970703126,12|0,0:0|0:0,0:0:0:0:
126,156,100613,1,0,0:0:0:0:
112,146,100699,5,2,0:0:0:0:
220,69,100872,1,0,0:0:0:0:
323,216,101044,1,8,0:0:0:0:
433,84,101216,1,0,0:0:0:0:
405,64,101303,1,0,0:0:0:0:
372,55,101389,1,0,0:0:0:0:
340,66,101475,1,0,0:0:0:0:
320,92,101561,2,0,L|337:198,1,95.9999970703126,2|8,0:0|0:0,0:0:0:0:
425,161,101906,1,0,0:0:0:0:
434,342,102078,6,0,P|391:292|286:315,1,143.999995605469,2|0,0:0|0:0,0:0:0:0:
291,326,102423,1,8,0:0:0:0:
425,161,102596,1,0,0:0:0:0:
263,217,102768,2,0,L|196:206,2,47.9999985351563,0|2|0,0:0|0:0|0:0,0:0:0:0:
370,282,103113,1,8,0:0:0:0:
308,141,103285,1,0,0:0:0:0:
200,299,103458,6,0,B|160:329|160:329|101:318,1,95.9999970703126,4|0,0:1|0:0,0:0:0:0:
54,272,103688,2,0,L|67:221,2,31.9999990234375,0|0|8,0:0|0:0|0:0,0:0:0:0:
184,177,103975,1,2,0:0:0:0:
87,96,104147,6,0,B|55:134|55:134|59:206,1,95.9999970703126,6|8,0:1|0:0,0:0:0:0:
87,227,104377,2,0,L|80:259,2,31.9999990234375,0|0|2,0:0|0:0|0:0,0:0:0:0:
200,299,104665,1,2,0:0:0:0:
76,342,104837,5,6,0:0:0:0:
225,369,105010,2,0,L|240:255,1,95.9999970703126,0|8,0:0|0:0,0:0:0:0:
178,130,105354,1,0,0:0:0:0:
167,167,105441,1,0,0:0:0:0:
137,191,105527,2,0,L|80:198,2,47.9999985351563,0|2|0,0:0|0:0|0:0,0:0:0:0:
280,76,105872,2,0,L|375:66,1,95.9999970703126,12|0,0:0|0:0,0:0:0:0:
497,255,106216,6,0,B|475:262|448:253|448:253|406:274|406:274|369:263|340:275,1,143.999995605469,2|0,0:0|0:0,0:0:0:0:
304,363,106561,1,8,0:0:0:0:
354,191,106734,1,0,0:0:0:0:
187,274,106906,2,0,L|195:222,2,47.9999985351563,0|0|2,0:0|0:0|0:0,0:0:0:0:
282,260,107251,1,8,0:0:0:0:
118,168,107423,1,0,0:0:0:0:
278,91,107596,6,0,P|325:85|361:132,1,95.9999970703126,6|0,0:1|0:0,0:0:0:0:
282,260,107941,1,2,0:0:0:0:
198,172,108113,1,0,0:0:0:0:
384,214,108285,6,0,L|374:318,1,95.9999970703126,6|0,0:1|0:0,0:0:0:0:
291,170,108630,1,2,0:0:0:0:
444,121,108803,1,0,0:0:0:0:
260,50,108975,5,2,0:0:0:0:
227,57,109061,1,2,0:0:0:0:
194,64,109147,2,0,L|129:78,1,47.9999985351563,2|2,0:0|0:0,0:0:0:0:
47,191,109320,1,2,0:0:0:0:
82,204,109406,1,2,0:0:0:0:
115,221,109492,1,2,0:0:0:0:
144,197,109578,1,2,0:0:0:0:
179,179,109665,5,2,0:0:0:0:
211,343,109837,1,2,0:0:0:0:
283,198,110010,5,2,0:0:0:0:
138,274,110182,1,2,0:0:0:0:
300,295,110354,6,0,L|385:287,1,80,6|0,0:1|0:0,0:0:0:0:
503,198,110699,1,0,0:0:0:0:
367,252,110872,1,2,0:0:0:0:
413,119,111044,6,0,L|318:109,1,80,2|0,0:0|0:0,0:0:0:0:
179,170,111389,1,0,0:0:0:0:
302,210,111561,1,2,0:0:0:0:
121,288,111734,6,0,L|214:273,1,71.9999978027344,6|0,0:1|0:0,0:0:0:0:
202,103,112078,1,0,0:0:0:0:
182,254,112251,1,2,0:0:0:0:
371,242,112423,6,0,L|288:234,1,71.9999978027344,2|0,0:0|0:0,0:0:0:0:
158,219,112768,1,2,0:0:0:0:
237,337,112941,1,2,0:0:0:0:
144,356,113113,6,0,L|224:341,1,64,6|0,0:1|0:0,0:0:0:0:
305,285,113458,1,0,0:0:0:0:
182,254,113630,1,0,0:0:0:0:
273,179,113803,6,0,L|334:168,1,55.9999982910157,6|0,0:1|0:0,0:0:0:0:
433,230,114147,5,0,0:0:0:0:
409,149,114320,5,0,0:0:0:0:
432,108,114492,5,6,0:1:0:0:
256,192,114578,12,4,115872,0:0:0:0:
