osu file format v12

[General]
AudioFilename: 09 - TSUBAKI.mp3
AudioLeadIn: 0
PreviewTime: 112453
Countdown: 0
SampleSet: None
StackLeniency: 0.7
Mode: 1
LetterboxInBreaks: 0
WidescreenStoryboard: 0

[Editor]
DistanceSpacing: 0.6
BeatDivisor: 4
GridSize: 32
TimelineZoom: 3.899998

[Metadata]
Title:TSUBAKI
TitleUnicode:TSUBAKI
Artist:Ocelot
ArtistUnicode:Ocelot
Creator:TKS
Version:Oni
Source:
Tags:dubstep drumstep Rin ginsuke ぎんすけ Diverse System
BeatmapID:427931
BeatmapSetID:177838

[Difficulty]
HPDrainRate:6
CircleSize:5
OverallDifficulty:6
ApproachRate:5
SliderMultiplier:1.4
SliderTickRate:1

[Events]
//Background and Video events
0,0,"wa.png",0,0
//Break Periods
//Storyboard Layer 0 (Background)
//Storyboard Layer 1 (Fail)
//Storyboard Layer 2 (Pass)
//Storyboard Layer 3 (Foreground)
//Storyboard Sound Samples
//Background Colour Transformations
3,100,163,162,255

[TimingPoints]
34793,301.507537688442,4,1,0,60,1,0
35396,-125,4,1,0,60,0,0
45044,-111.111111111111,4,1,0,70,0,0
45345,-105.263157894737,4,1,0,70,0,0
45647,-100,4,1,0,80,0,0
84240,-100,4,1,0,80,0,1
103536,-125,4,1,0,80,0,0
113184,-100,4,1,0,80,0,1
122833,-100,4,1,0,80,0,0
132481,-111.111111111111,4,1,0,80,0,0
151777,-100,4,1,0,80,0,0
180220,-50,4,1,0,40,0,0

[HitObjects]
256,192,35396,5,0,0:0:0:0:
256,192,35697,1,8,0:0:0:0:
256,192,35999,1,4,0:0:0:0:
256,192,36451,1,8,0:0:0:0:
256,192,36602,1,8,0:0:0:0:
256,192,36903,1,8,0:0:0:0:
256,192,37205,1,0,0:0:0:0:
256,192,37506,1,8,0:0:0:0:
256,192,37808,1,0,0:0:0:0:
256,192,37958,1,0,0:0:0:0:
256,192,38109,1,8,0:0:0:0:
256,192,38411,1,0,0:0:0:0:
256,192,38712,1,0,0:0:0:0:
256,192,39014,1,8,0:0:0:0:
256,192,39315,1,0,0:0:0:0:
256,192,39466,1,0,0:0:0:0:
256,192,39617,1,8,0:0:0:0:
256,192,40220,1,0,0:0:0:0:
256,192,40521,1,8,0:0:0:0:
256,192,40823,1,0,0:0:0:0:
256,192,41275,1,8,0:0:0:0:
256,192,41426,1,8,0:0:0:0:
256,192,41727,1,8,0:0:0:0:
256,192,42029,1,0,0:0:0:0:
256,192,42330,1,8,0:0:0:0:
256,192,42481,1,8,0:0:0:0:
256,192,42632,1,0,0:0:0:0:
256,192,42933,1,8,0:0:0:0:
256,192,43235,1,0,0:0:0:0:
256,192,43536,1,8,0:0:0:0:
256,192,43838,1,0,0:0:0:0:
256,192,44139,1,0,0:0:0:0:
256,192,44290,1,0,0:0:0:0:
256,192,44441,1,8,0:0:0:0:
256,192,45044,1,0,0:0:0:0:
256,192,45345,1,8,0:0:0:0:
256,192,45647,1,4,0:0:0:0:
256,192,45948,1,0,0:0:0:0:
256,192,46099,1,8,0:0:0:0:
256,192,46250,1,8,0:0:0:0:
256,192,46551,1,8,0:0:0:0:
256,192,46853,1,0,0:0:0:0:
256,192,47004,1,0,0:0:0:0:
256,192,47154,1,8,0:0:0:0:
256,192,47305,1,8,0:0:0:0:
256,192,47456,1,0,0:0:0:0:
256,192,47607,1,8,0:0:0:0:
256,192,47757,1,0,0:0:0:0:
256,192,48059,1,0,0:0:0:0:
256,192,48360,1,0,0:0:0:0:
256,192,48511,1,0,0:0:0:0:
256,192,48662,1,8,0:0:0:0:
256,192,48813,1,0,0:0:0:0:
256,192,48963,1,8,0:0:0:0:
256,192,49114,1,8,0:0:0:0:
256,192,49265,1,0,0:0:0:0:
256,192,49566,1,0,0:0:0:0:
256,192,49717,1,0,0:0:0:0:
256,192,49868,1,8,0:0:0:0:
256,192,50019,1,0,0:0:0:0:
256,192,50094,1,0,0:0:0:0:
256,192,50169,1,8,0:0:0:0:
256,192,50471,1,0,0:0:0:0:
256,192,50772,1,0,0:0:0:0:
256,192,50923,1,8,0:0:0:0:
256,192,51074,1,8,0:0:0:0:
256,192,51375,1,8,0:0:0:0:
256,192,51677,1,0,0:0:0:0:
256,192,51828,1,0,0:0:0:0:
256,192,51978,1,8,0:0:0:0:
256,192,52129,1,8,0:0:0:0:
256,192,52280,1,0,0:0:0:0:
256,192,52431,1,8,0:0:0:0:
256,192,52581,1,0,0:0:0:0:
256,192,52883,1,0,0:0:0:0:
256,192,53184,1,0,0:0:0:0:
256,192,53335,1,0,0:0:0:0:
256,192,53486,1,8,0:0:0:0:
256,192,53637,1,0,0:0:0:0:
256,192,53787,1,8,0:0:0:0:
256,192,53938,1,8,0:0:0:0:
256,192,54089,1,0,0:0:0:0:
256,192,54390,1,0,0:0:0:0:
256,192,54541,1,0,0:0:0:0:
256,192,54692,1,8,0:0:0:0:
256,192,54994,1,8,0:0:0:0:
256,192,55144,1,0,0:0:0:0:
256,192,55295,1,8,0:0:0:0:
256,192,55747,1,8,0:0:0:0:
256,192,55898,1,8,0:0:0:0:
256,192,56200,1,8,0:0:0:0:
256,192,56501,1,8,0:0:0:0:
256,192,56652,1,0,0:0:0:0:
256,192,56803,1,0,0:0:0:0:
256,192,56953,1,8,0:0:0:0:
256,192,57255,1,0,0:0:0:0:
256,192,57406,1,8,0:0:0:0:
256,192,57707,1,8,0:0:0:0:
256,192,58159,1,8,0:0:0:0:
256,192,58310,1,8,0:0:0:0:
256,192,58612,1,8,0:0:0:0:
256,192,58913,1,8,0:0:0:0:
256,192,59064,1,0,0:0:0:0:
256,192,59215,1,0,0:0:0:0:
256,192,59365,1,8,0:0:0:0:
256,192,59667,1,0,0:0:0:0:
256,192,59818,1,8,0:0:0:0:
256,192,60119,1,4,0:0:0:0:
256,192,60421,1,8,0:0:0:0:
256,192,60722,1,0,0:0:0:0:
256,192,60873,1,0,0:0:0:0:
256,192,61024,1,8,0:0:0:0:
256,192,61325,1,8,0:0:0:0:
256,192,61476,1,0,0:0:0:0:
256,192,61627,1,0,0:0:0:0:
256,192,61777,1,8,0:0:0:0:
256,192,61928,1,0,0:0:0:0:
256,192,62079,1,0,0:0:0:0:
256,192,62230,1,8,0:0:0:0:
256,192,62531,1,0,0:0:0:0:
256,192,62682,1,0,0:0:0:0:
256,192,62833,1,8,0:0:0:0:
256,192,62983,1,0,0:0:0:0:
256,192,63059,1,0,0:0:0:0:
256,192,63134,1,8,0:0:0:0:
256,192,63285,1,0,0:0:0:0:
256,192,63360,1,0,0:0:0:0:
256,192,63436,1,8,0:0:0:0:
256,192,63586,1,8,0:0:0:0:
256,192,63737,1,4,0:0:0:0:
256,192,64943,1,0,0:0:0:0:
256,192,65094,1,8,0:0:0:0:
256,192,65396,1,8,0:0:0:0:
256,192,65546,1,8,0:0:0:0:
256,192,65622,1,8,0:0:0:0:
256,192,65697,1,0,0:0:0:0:
256,192,65848,1,0,0:0:0:0:
256,192,65999,1,0,0:0:0:0:
256,192,66149,1,0,0:0:0:0:
256,192,66451,1,8,0:0:0:0:
256,192,66602,1,0,0:0:0:0:
256,192,66752,1,8,0:0:0:0:
256,192,66903,1,0,0:0:0:0:
256,192,67054,1,8,0:0:0:0:
256,192,67355,1,0,0:0:0:0:
256,192,67506,1,8,0:0:0:0:
256,192,67808,1,0,0:0:0:0:
256,192,67883,1,0,0:0:0:0:
256,192,67958,1,8,0:0:0:0:
256,192,68109,1,8,0:0:0:0:
256,192,68260,1,8,0:0:0:0:
256,192,68335,1,8,0:0:0:0:
256,192,68411,1,0,0:0:0:0:
256,192,68561,1,4,0:0:0:0:
256,192,68787,1,4,0:0:0:0:
256,192,69014,1,0,0:0:0:0:
256,192,69164,1,12,0:0:0:0:
256,192,69466,1,8,0:0:0:0:
256,192,69541,1,8,0:0:0:0:
256,192,69617,1,8,0:0:0:0:
256,192,69692,1,8,0:0:0:0:
256,192,69767,1,0,0:0:0:0:
256,192,69918,1,0,0:0:0:0:
256,192,70069,1,8,0:0:0:0:
256,192,70220,1,8,0:0:0:0:
256,192,70370,1,8,0:0:0:0:
256,192,70446,1,8,0:0:0:0:
256,192,70521,1,0,0:0:0:0:
256,192,70597,1,0,0:0:0:0:
256,192,70672,1,8,0:0:0:0:
256,192,70747,1,8,0:0:0:0:
256,192,70823,1,0,0:0:0:0:
256,192,70898,1,0,0:0:0:0:
256,192,70973,1,8,0:0:0:0:
256,192,71275,1,0,0:0:0:0:
256,192,71426,1,0,0:0:0:0:
256,192,71576,1,8,0:0:0:0:
256,192,71727,1,8,0:0:0:0:
256,192,71878,1,0,0:0:0:0:
256,192,72029,1,8,0:0:0:0:
256,192,72179,1,0,0:0:0:0:
256,192,72255,1,0,0:0:0:0:
256,192,72330,1,8,0:0:0:0:
256,192,72481,1,8,0:0:0:0:
256,192,72782,1,8,0:0:0:0:
256,192,72933,1,8,0:0:0:0:
256,192,73084,1,8,0:0:0:0:
256,192,73235,1,8,0:0:0:0:
256,192,73385,1,4,0:0:0:0:
256,192,73536,1,0,0:0:0:0:
256,192,73687,1,8,0:0:0:0:
256,192,73838,1,0,0:0:0:0:
256,192,73988,1,0,0:0:0:0:
256,192,74139,1,8,0:0:0:0:
256,192,74290,1,8,0:0:0:0:
256,192,74441,1,8,0:0:0:0:
256,192,74591,1,0,0:0:0:0:
256,192,74742,1,8,0:0:0:0:
256,192,75044,1,8,0:0:0:0:
256,192,75195,1,0,0:0:0:0:
256,192,75270,1,0,0:0:0:0:
256,192,75345,1,8,0:0:0:0:
256,192,75421,1,8,0:0:0:0:
256,192,75496,1,0,0:0:0:0:
256,192,75647,1,8,0:0:0:0:
256,192,75798,1,0,0:0:0:0:
256,192,76099,1,8,0:0:0:0:
256,192,76250,1,0,0:0:0:0:
256,192,76401,1,8,0:0:0:0:
256,192,76551,1,0,0:0:0:0:
256,192,76702,1,8,0:0:0:0:
256,192,77004,1,0,0:0:0:0:
256,192,77154,1,8,0:0:0:0:
256,192,77305,1,8,0:0:0:0:
256,192,77380,1,8,0:0:0:0:
256,192,77456,1,0,0:0:0:0:
256,192,77607,1,8,0:0:0:0:
256,192,77757,1,8,0:0:0:0:
256,192,77908,1,8,0:0:0:0:
256,192,78059,1,0,0:0:0:0:
256,192,78210,1,0,0:0:0:0:
256,192,78285,1,0,0:0:0:0:
256,192,78360,1,8,0:0:0:0:
256,192,78436,1,0,0:0:0:0:
256,192,78511,1,8,0:0:0:0:
256,192,78662,1,0,0:0:0:0:
256,192,78813,1,8,0:0:0:0:
256,192,78963,1,0,0:0:0:0:
256,192,79039,1,0,0:0:0:0:
256,192,79114,1,8,0:0:0:0:
256,192,79416,1,4,0:0:0:0:
256,192,79717,1,4,0:0:0:0:
256,192,79868,1,8,0:0:0:0:
256,192,80019,1,8,0:0:0:0:
256,192,80169,1,0,0:0:0:0:
256,192,80320,1,8,0:0:0:0:
256,192,80396,1,8,0:0:0:0:
256,192,80471,1,0,0:0:0:0:
256,192,80622,1,0,0:0:0:0:
256,192,80772,1,8,0:0:0:0:
256,192,80923,1,8,0:0:0:0:
256,192,80999,1,8,0:0:0:0:
256,192,81074,1,0,0:0:0:0:
256,192,81225,1,8,0:0:0:0:
256,192,81375,1,0,0:0:0:0:
256,192,81526,1,8,0:0:0:0:
256,192,81828,1,12,0:0:0:0:
256,192,82280,1,0,0:0:0:0:
256,192,82431,1,8,0:0:0:0:
256,192,82581,1,8,0:0:0:0:
256,192,82732,1,0,0:0:0:0:
256,192,82883,1,0,0:0:0:0:
256,192,83034,1,12,0:0:0:0:
256,192,83184,1,0,0:0:0:0:
256,192,83260,1,0,0:0:0:0:
256,192,83335,1,8,0:0:0:0:
256,192,83486,1,8,0:0:0:0:
256,192,83637,1,0,0:0:0:0:
256,192,83712,1,0,0:0:0:0:
256,192,83787,1,0,0:0:0:0:
256,192,83863,1,0,0:0:0:0:
256,192,83938,1,8,0:0:0:0:
256,192,84240,1,4,0:0:0:0:
256,192,84541,1,8,0:0:0:0:
256,192,84692,1,8,0:0:0:0:
256,192,84843,1,0,0:0:0:0:
256,192,84994,1,8,0:0:0:0:
256,192,85069,1,8,0:0:0:0:
256,192,85144,1,0,0:0:0:0:
256,192,85295,1,8,0:0:0:0:
256,192,85446,1,0,0:0:0:0:
256,192,85521,1,0,0:0:0:0:
256,192,85597,1,0,0:0:0:0:
256,192,85747,1,8,0:0:0:0:
256,192,85898,1,0,0:0:0:0:
256,192,86049,1,8,0:0:0:0:
256,192,86200,1,0,0:0:0:0:
256,192,86350,1,8,0:0:0:0:
256,192,86652,1,0,0:0:0:0:
256,192,86953,1,8,0:0:0:0:
256,192,87104,1,0,0:0:0:0:
256,192,87255,1,8,0:0:0:0:
256,192,87406,1,0,0:0:0:0:
256,192,87556,1,8,0:0:0:0:
256,192,87632,1,8,0:0:0:0:
256,192,87707,1,8,0:0:0:0:
256,192,87858,1,4,0:0:0:0:
256,192,88084,1,4,0:0:0:0:
256,192,88310,1,4,0:0:0:0:
256,192,88461,1,8,0:0:0:0:
256,192,88536,1,8,0:0:0:0:
256,192,88612,1,0,0:0:0:0:
256,192,88762,1,8,0:0:0:0:
256,192,88913,1,8,0:0:0:0:
256,192,89064,1,0,0:0:0:0:
256,192,89365,1,8,0:0:0:0:
256,192,89516,1,0,0:0:0:0:
256,192,89591,1,0,0:0:0:0:
256,192,89667,1,8,0:0:0:0:
256,192,89818,1,8,0:0:0:0:
256,192,89968,1,8,0:0:0:0:
256,192,90044,1,8,0:0:0:0:
256,192,90119,1,8,0:0:0:0:
256,192,90195,1,8,0:0:0:0:
256,192,90270,1,0,0:0:0:0:
256,192,90345,1,0,0:0:0:0:
256,192,90421,1,0,0:0:0:0:
256,192,90571,1,8,0:0:0:0:
256,192,90722,1,0,0:0:0:0:
256,192,90873,1,0,0:0:0:0:
256,192,90948,1,0,0:0:0:0:
256,192,91024,1,0,0:0:0:0:
256,192,91174,1,8,0:0:0:0:
256,192,91325,1,8,0:0:0:0:
256,192,91476,1,0,0:0:0:0:
256,192,91627,1,8,0:0:0:0:
256,192,91777,1,8,0:0:0:0:
256,192,91928,1,0,0:0:0:0:
256,192,92079,1,8,0:0:0:0:
256,192,92230,1,8,0:0:0:0:
256,192,92380,1,8,0:0:0:0:
256,192,92456,1,0,0:0:0:0:
256,192,92531,1,8,0:0:0:0:
256,192,92682,1,12,0:0:0:0:
256,192,92833,1,0,0:0:0:0:
256,192,92983,1,8,0:0:0:0:
256,192,93134,1,0,0:0:0:0:
256,192,93210,1,0,0:0:0:0:
256,192,93285,1,8,0:0:0:0:
256,192,93511,1,8,0:0:0:0:
256,192,93737,1,8,0:0:0:0:
256,192,93888,1,4,0:0:0:0:
256,192,94189,1,8,0:0:0:0:
256,192,94340,1,8,0:0:0:0:
256,192,94416,1,8,0:0:0:0:
256,192,94491,1,0,0:0:0:0:
256,192,94642,1,8,0:0:0:0:
256,192,94792,1,8,0:0:0:0:
256,192,94868,1,0,0:0:0:0:
256,192,94943,1,8,0:0:0:0:
256,192,95019,1,0,0:0:0:0:
256,192,95094,1,8,0:0:0:0:
256,192,95245,1,0,0:0:0:0:
256,192,95396,1,8,0:0:0:0:
256,192,95546,1,0,0:0:0:0:
256,192,95697,1,8,0:0:0:0:
256,192,95848,1,0,0:0:0:0:
256,192,95923,1,0,0:0:0:0:
256,192,95999,1,8,0:0:0:0:
256,192,96149,1,8,0:0:0:0:
256,192,96300,1,0,0:0:0:0:
256,192,96602,1,0,0:0:0:0:
256,192,96677,1,0,0:0:0:0:
256,192,96752,1,8,0:0:0:0:
256,192,96903,1,8,0:0:0:0:
256,192,97054,1,8,0:0:0:0:
256,192,97205,1,8,0:0:0:0:
256,192,97280,1,8,0:0:0:0:
256,192,97355,1,0,0:0:0:0:
256,192,97506,1,8,0:0:0:0:
256,192,97581,1,8,0:0:0:0:
256,192,97657,1,0,0:0:0:0:
256,192,97732,1,0,0:0:0:0:
256,192,97808,1,8,0:0:0:0:
256,192,97958,1,0,0:0:0:0:
256,192,98109,1,8,0:0:0:0:
256,192,98260,1,0,0:0:0:0:
256,192,98335,1,0,0:0:0:0:
256,192,98411,1,8,0:0:0:0:
256,192,98561,1,8,0:0:0:0:
256,192,98712,1,4,0:0:0:0:
256,192,99014,1,4,0:0:0:0:
256,192,99164,1,8,0:0:0:0:
256,192,99315,1,8,0:0:0:0:
256,192,99466,1,0,0:0:0:0:
256,192,99617,1,8,0:0:0:0:
256,192,99692,1,8,0:0:0:0:
256,192,99767,1,0,0:0:0:0:
256,192,99918,1,0,0:0:0:0:
256,192,100069,1,8,0:0:0:0:
256,192,100220,1,8,0:0:0:0:
256,192,100295,1,8,0:0:0:0:
256,192,100370,1,0,0:0:0:0:
256,192,100521,1,8,0:0:0:0:
256,192,100672,1,0,0:0:0:0:
256,192,100823,1,8,0:0:0:0:
256,192,100973,1,0,0:0:0:0:
256,192,101124,1,12,0:0:0:0:
256,192,101576,1,0,0:0:0:0:
256,192,101727,1,8,0:0:0:0:
256,192,101878,1,8,0:0:0:0:
256,192,102029,1,0,0:0:0:0:
256,192,102179,1,0,0:0:0:0:
256,192,102330,1,12,0:0:0:0:
256,192,102481,1,0,0:0:0:0:
256,192,102556,1,0,0:0:0:0:
256,192,102632,1,8,0:0:0:0:
256,192,102782,1,8,0:0:0:0:
256,192,102933,1,0,0:0:0:0:
256,192,103009,1,0,0:0:0:0:
256,192,103084,1,0,0:0:0:0:
256,192,103159,1,0,0:0:0:0:
256,192,103235,1,8,0:0:0:0:
256,192,103536,1,4,0:0:0:0:
256,192,103838,1,0,0:0:0:0:
256,192,103988,1,8,0:0:0:0:
256,192,104139,1,8,0:0:0:0:
256,192,104441,1,8,0:0:0:0:
256,192,104742,1,0,0:0:0:0:
256,192,104893,1,0,0:0:0:0:
256,192,105044,1,8,0:0:0:0:
256,192,105195,1,8,0:0:0:0:
256,192,105345,1,0,0:0:0:0:
256,192,105496,1,8,0:0:0:0:
256,192,105647,1,0,0:0:0:0:
256,192,105948,1,0,0:0:0:0:
256,192,106250,1,0,0:0:0:0:
256,192,106401,1,0,0:0:0:0:
256,192,106551,1,8,0:0:0:0:
256,192,106702,1,0,0:0:0:0:
256,192,106853,1,8,0:0:0:0:
256,192,107004,1,8,0:0:0:0:
256,192,107154,1,0,0:0:0:0:
256,192,107456,1,0,0:0:0:0:
256,192,107607,1,0,0:0:0:0:
256,192,107757,1,8,0:0:0:0:
224,192,107833,1,8,0:0:0:0:
256,192,107908,1,0,0:0:0:0:
256,192,108059,1,8,0:0:0:0:
256,192,108210,1,8,0:0:0:0:
256,192,108360,1,0,0:0:0:0:
256,192,108662,1,0,0:0:0:0:
256,192,108813,1,8,0:0:0:0:
256,192,108963,1,8,0:0:0:0:
256,192,109265,1,8,0:0:0:0:
256,192,109566,1,0,0:0:0:0:
256,192,109717,1,0,0:0:0:0:
256,192,109868,1,8,0:0:0:0:
256,192,110019,1,8,0:0:0:0:
256,192,110169,1,0,0:0:0:0:
256,192,110320,1,8,0:0:0:0:
256,192,110471,1,0,0:0:0:0:
256,192,110772,1,0,0:0:0:0:
256,192,111074,1,0,0:0:0:0:
256,192,111225,1,0,0:0:0:0:
256,192,111375,1,8,0:0:0:0:
256,192,111526,1,0,0:0:0:0:
256,192,111677,1,8,0:0:0:0:
256,192,111828,1,8,0:0:0:0:
256,192,111978,1,4,0:0:0:0:
256,192,112581,1,12,0:0:0:0:
256,192,113184,1,4,0:0:0:0:
256,192,113335,1,8,0:0:0:0:
256,192,113486,1,0,0:0:0:0:
256,192,113561,1,0,0:0:0:0:
256,192,113637,1,0,0:0:0:0:
256,192,113712,1,0,0:0:0:0:
256,192,113787,1,8,0:0:0:0:
256,192,113938,1,0,0:0:0:0:
256,192,114014,1,0,0:0:0:0:
256,192,114089,1,8,0:0:0:0:
256,192,114240,1,8,0:0:0:0:
256,192,114390,1,0,0:0:0:0:
256,192,114541,1,8,0:0:0:0:
256,192,114617,1,8,0:0:0:0:
256,192,114692,1,0,0:0:0:0:
256,192,114843,1,8,0:0:0:0:
256,192,114918,1,0,0:0:0:0:
256,192,114994,1,8,0:0:0:0:
256,192,115144,1,0,0:0:0:0:
256,192,115295,1,8,0:0:0:0:
256,192,115446,1,0,0:0:0:0:
256,192,115521,1,8,0:0:0:0:
256,192,115597,1,0,0:0:0:0:
256,192,115747,1,0,0:0:0:0:
256,192,115898,1,8,0:0:0:0:
256,192,115973,1,8,0:0:0:0:
256,192,116049,1,8,0:0:0:0:
256,192,116200,1,8,0:0:0:0:
256,192,116350,1,0,0:0:0:0:
256,192,116426,1,0,0:0:0:0:
256,192,116501,1,8,0:0:0:0:
256,192,116652,1,0,0:0:0:0:
256,192,116803,1,8,0:0:0:0:
256,192,116953,1,0,0:0:0:0:
256,192,117029,1,8,0:0:0:0:
256,192,117104,1,0,0:0:0:0:
256,192,117255,1,8,0:0:0:0:
256,192,117406,1,8,0:0:0:0:
256,192,117481,1,8,0:0:0:0:
256,192,117556,1,0,0:0:0:0:
256,192,117632,1,0,0:0:0:0:
256,192,117707,1,8,0:0:0:0:
256,192,118009,1,4,0:0:0:0:
256,192,118159,1,0,0:0:0:0:
256,192,118235,1,0,0:0:0:0:
256,192,118310,1,8,0:0:0:0:
256,192,118385,1,8,0:0:0:0:
256,192,118461,1,0,0:0:0:0:
256,192,118612,1,0,0:0:0:0:
256,192,118762,1,0,0:0:0:0:
256,192,118838,1,0,0:0:0:0:
256,192,118913,1,8,0:0:0:0:
256,192,119064,1,8,0:0:0:0:
256,192,119215,1,8,0:0:0:0:
256,192,119365,1,0,0:0:0:0:
256,192,119441,1,0,0:0:0:0:
256,192,119516,1,8,0:0:0:0:
256,192,119667,1,8,0:0:0:0:
256,192,119742,1,8,0:0:0:0:
256,192,119818,1,0,0:0:0:0:
256,192,119968,1,0,0:0:0:0:
256,192,120119,1,8,0:0:0:0:
256,192,120270,1,0,0:0:0:0:
256,192,120345,1,0,0:0:0:0:
256,192,120421,1,8,0:0:0:0:
256,192,120571,1,0,0:0:0:0:
256,192,120722,1,8,0:0:0:0:
256,192,120873,1,0,0:0:0:0:
256,192,120948,1,0,0:0:0:0:
256,192,121024,1,8,0:0:0:0:
256,192,121174,1,0,0:0:0:0:
256,192,121325,1,8,0:0:0:0:
256,192,121401,1,0,0:0:0:0:
256,192,121476,1,0,0:0:0:0:
256,192,121627,1,0,0:0:0:0:
256,192,121702,1,0,0:0:0:0:
256,192,121777,1,0,0:0:0:0:
256,192,121853,1,0,0:0:0:0:
256,192,121928,1,0,0:0:0:0:
256,192,122079,1,0,0:0:0:0:
256,192,122230,1,8,0:0:0:0:
256,192,122380,1,0,0:0:0:0:
256,192,122456,1,8,0:0:0:0:
256,192,122607,1,0,0:0:0:0:
256,192,122682,1,8,0:0:0:0:
256,192,122833,1,4,0:0:0:0:
256,192,122983,1,8,0:0:0:0:
256,192,123285,1,8,0:0:0:0:
256,192,123436,1,8,0:0:0:0:
256,192,123737,1,8,0:0:0:0:
256,192,124039,1,8,0:0:0:0:
256,192,124189,1,0,0:0:0:0:
256,192,124340,1,0,0:0:0:0:
256,192,124491,1,8,0:0:0:0:
256,192,124792,1,0,0:0:0:0:
256,192,124943,1,8,0:0:0:0:
256,192,125245,1,8,0:0:0:0:
256,192,125396,1,0,0:0:0:0:
256,192,125697,1,8,0:0:0:0:
256,192,125848,1,8,0:0:0:0:
256,192,126149,1,8,0:0:0:0:
256,192,126451,1,8,0:0:0:0:
256,192,126602,1,0,0:0:0:0:
256,192,126752,1,8,0:0:0:0:
256,192,126903,1,8,0:0:0:0:
256,192,127054,1,0,0:0:0:0:
256,192,127355,1,8,0:0:0:0:
256,192,127657,1,8,0:0:0:0:
256,192,127808,1,0,0:0:0:0:
256,192,128109,1,8,0:0:0:0:
256,192,128260,1,8,0:0:0:0:
256,192,128561,1,8,0:0:0:0:
256,192,128863,1,8,0:0:0:0:
256,192,129014,1,0,0:0:0:0:
256,192,129164,1,0,0:0:0:0:
256,192,129315,1,8,0:0:0:0:
256,192,129617,1,0,0:0:0:0:
256,192,129767,1,8,0:0:0:0:
256,192,130069,1,8,0:0:0:0:
256,192,130220,1,0,0:0:0:0:
256,192,130521,1,8,0:0:0:0:
256,192,130672,1,8,0:0:0:0:
256,192,130973,1,8,0:0:0:0:
256,192,131275,1,8,0:0:0:0:
256,192,131576,1,8,0:0:0:0:
256,192,131727,1,8,0:0:0:0:
256,192,131878,1,0,0:0:0:0:
256,192,132029,1,0,0:0:0:0:
256,192,132179,1,8,0:0:0:0:
256,192,132481,1,4,0:0:0:0:
256,192,132682,1,8,0:0:0:0:
256,192,132782,1,8,0:0:0:0:
256,192,132983,1,8,0:0:0:0:
256,192,133084,1,0,0:0:0:0:
256,192,133285,1,0,0:0:0:0:
256,192,133385,1,8,0:0:0:0:
256,192,133687,1,0,0:0:0:0:
256,192,133888,1,8,0:0:0:0:
256,192,133988,1,8,0:0:0:0:
256,192,134189,1,8,0:0:0:0:
256,192,134290,1,0,0:0:0:0:
256,192,134491,1,8,0:0:0:0:
256,192,134591,1,8,0:0:0:0:
256,192,134792,1,8,0:0:0:0:
256,192,134893,1,0,0:0:0:0:
256,192,135094,1,8,0:0:0:0:
256,192,135195,1,8,0:0:0:0:
256,192,135396,1,8,0:0:0:0:
256,192,135496,1,0,0:0:0:0:
256,192,135697,1,0,0:0:0:0:
256,192,135798,1,8,0:0:0:0:
256,192,136099,1,8,0:0:0:0:
256,192,136200,1,8,0:0:0:0:
256,192,136300,1,0,0:0:0:0:
256,192,136401,1,8,0:0:0:0:
256,192,136602,1,0,0:0:0:0:
256,192,136702,1,8,0:0:0:0:
256,192,136903,1,0,0:0:0:0:
256,192,137004,1,8,0:0:0:0:
256,192,137305,1,4,0:0:0:0:
256,192,137506,1,8,0:0:0:0:
256,192,137607,1,8,0:0:0:0:
256,192,137808,1,8,0:0:0:0:
256,192,137908,1,0,0:0:0:0:
256,192,138109,1,0,0:0:0:0:
256,192,138210,1,8,0:0:0:0:
256,192,138511,1,0,0:0:0:0:
256,192,138712,1,0,0:0:0:0:
256,192,138813,1,8,0:0:0:0:
256,192,139014,1,8,0:0:0:0:
256,192,139114,1,0,0:0:0:0:
256,192,139315,1,8,0:0:0:0:
256,192,139416,1,8,0:0:0:0:
256,192,139617,1,8,0:0:0:0:
256,192,139717,1,0,0:0:0:0:
256,192,139918,1,8,0:0:0:0:
256,192,140019,1,8,0:0:0:0:
256,192,140220,1,8,0:0:0:0:
256,192,140320,1,0,0:0:0:0:
256,192,140521,1,0,0:0:0:0:
256,192,140622,1,8,0:0:0:0:
256,192,140823,1,8,0:0:0:0:
256,192,140923,1,0,0:0:0:0:
256,192,141124,1,0,0:0:0:0:
256,192,141225,1,8,0:0:0:0:
256,192,141426,1,0,0:0:0:0:
256,192,141526,1,8,0:0:0:0:
256,192,141727,1,0,0:0:0:0:
256,192,141828,1,8,0:0:0:0:
256,192,142129,1,4,0:0:0:0:
256,192,142330,1,0,0:0:0:0:
256,192,142431,1,8,0:0:0:0:
256,192,142632,1,0,0:0:0:0:
256,192,142732,1,8,0:0:0:0:
256,192,142933,1,0,0:0:0:0:
256,192,143034,1,8,0:0:0:0:
256,192,143335,1,0,0:0:0:0:
256,192,143536,1,0,0:0:0:0:
256,192,143637,1,8,0:0:0:0:
256,192,143838,1,8,0:0:0:0:
256,192,143938,1,0,0:0:0:0:
256,192,144139,1,0,0:0:0:0:
256,192,144240,1,8,0:0:0:0:
256,192,144441,1,8,0:0:0:0:
256,192,144541,1,0,0:0:0:0:
256,192,144742,1,0,0:0:0:0:
256,192,144843,1,8,0:0:0:0:
256,192,145044,1,0,0:0:0:0:
256,192,145144,1,8,0:0:0:0:
256,192,145345,1,0,0:0:0:0:
256,192,145446,1,8,0:0:0:0:
256,192,145747,1,0,0:0:0:0:
256,192,145948,1,0,0:0:0:0:
256,192,146049,1,8,0:0:0:0:
256,192,146250,1,8,0:0:0:0:
256,192,146350,1,0,0:0:0:0:
256,192,146551,1,0,0:0:0:0:
256,192,146652,1,8,0:0:0:0:
256,192,146953,1,4,0:0:0:0:
256,192,147154,1,0,0:0:0:0:
256,192,147255,1,8,0:0:0:0:
256,192,147456,1,0,0:0:0:0:
256,192,147556,1,8,0:0:0:0:
256,192,147757,1,0,0:0:0:0:
256,192,147858,1,8,0:0:0:0:
256,192,148159,1,0,0:0:0:0:
256,192,148360,1,0,0:0:0:0:
256,192,148461,1,8,0:0:0:0:
256,192,148662,1,8,0:0:0:0:
256,192,148762,1,0,0:0:0:0:
256,192,148963,1,0,0:0:0:0:
256,192,149064,1,8,0:0:0:0:
256,192,149365,1,4,0:0:0:0:
256,192,149566,1,0,0:0:0:0:
256,192,149667,1,8,0:0:0:0:
256,192,149968,1,12,0:0:0:0:
256,192,150169,1,0,0:0:0:0:
256,192,150270,1,8,0:0:0:0:
256,192,150571,1,4,0:0:0:0:
256,192,150873,12,0,151627,0:0:0:0:
256,192,151777,5,0,0:0:0:0:
256,192,151928,1,8,0:0:0:0:
256,192,152230,1,8,0:0:0:0:
256,192,152380,1,8,0:0:0:0:
256,192,152456,1,8,0:0:0:0:
256,192,152531,1,0,0:0:0:0:
256,192,152682,1,0,0:0:0:0:
256,192,152833,1,0,0:0:0:0:
256,192,152983,1,0,0:0:0:0:
256,192,153285,1,8,0:0:0:0:
256,192,153436,1,0,0:0:0:0:
256,192,153586,1,8,0:0:0:0:
256,192,153737,1,0,0:0:0:0:
256,192,153888,1,8,0:0:0:0:
256,192,154189,1,0,0:0:0:0:
256,192,154340,1,8,0:0:0:0:
256,192,154642,1,0,0:0:0:0:
256,192,154717,1,0,0:0:0:0:
256,192,154792,1,8,0:0:0:0:
256,192,154943,1,8,0:0:0:0:
256,192,155094,1,8,0:0:0:0:
256,192,155169,1,8,0:0:0:0:
256,192,155245,1,0,0:0:0:0:
256,192,155396,1,4,0:0:0:0:
256,192,155622,1,4,0:0:0:0:
256,192,155848,1,0,0:0:0:0:
256,192,155999,1,12,0:0:0:0:
256,192,156300,1,8,0:0:0:0:
256,192,156375,1,8,0:0:0:0:
256,192,156451,1,8,0:0:0:0:
256,192,156526,1,8,0:0:0:0:
256,192,156602,1,0,0:0:0:0:
256,192,156752,1,0,0:0:0:0:
256,192,156903,1,8,0:0:0:0:
256,192,157054,1,8,0:0:0:0:
256,192,157205,1,8,0:0:0:0:
256,192,157280,1,8,0:0:0:0:
256,192,157355,1,0,0:0:0:0:
256,192,157431,1,0,0:0:0:0:
256,192,157506,1,8,0:0:0:0:
256,192,157581,1,8,0:0:0:0:
256,192,157657,1,0,0:0:0:0:
256,192,157732,1,0,0:0:0:0:
256,192,157808,1,8,0:0:0:0:
256,192,158109,1,0,0:0:0:0:
256,192,158260,1,0,0:0:0:0:
256,192,158411,1,8,0:0:0:0:
256,192,158561,1,8,0:0:0:0:
256,192,158712,1,0,0:0:0:0:
256,192,158863,1,8,0:0:0:0:
256,192,159014,1,0,0:0:0:0:
256,192,159089,1,0,0:0:0:0:
256,192,159164,1,8,0:0:0:0:
256,192,159315,1,8,0:0:0:0:
256,192,159617,1,8,0:0:0:0:
256,192,159767,1,8,0:0:0:0:
256,192,159918,1,8,0:0:0:0:
256,192,160069,1,8,0:0:0:0:
256,192,160220,1,4,0:0:0:0:
256,192,160370,1,0,0:0:0:0:
256,192,160521,1,8,0:0:0:0:
256,192,160672,1,0,0:0:0:0:
256,192,160823,1,0,0:0:0:0:
256,192,160973,1,8,0:0:0:0:
256,192,161124,1,8,0:0:0:0:
256,192,161275,1,8,0:0:0:0:
256,192,161426,1,0,0:0:0:0:
256,192,161576,1,8,0:0:0:0:
256,192,161878,1,8,0:0:0:0:
256,192,162029,1,0,0:0:0:0:
256,192,162104,1,0,0:0:0:0:
256,192,162179,1,8,0:0:0:0:
256,192,162255,1,8,0:0:0:0:
256,192,162330,1,0,0:0:0:0:
256,192,162481,1,8,0:0:0:0:
256,192,162632,1,0,0:0:0:0:
256,192,162933,1,8,0:0:0:0:
256,192,163084,1,0,0:0:0:0:
256,192,163235,1,8,0:0:0:0:
256,192,163385,1,0,0:0:0:0:
256,192,163536,1,8,0:0:0:0:
256,192,163838,1,4,0:0:0:0:
256,192,164064,1,4,0:0:0:0:
256,192,164290,1,4,0:0:0:0:
256,192,164516,1,4,0:0:0:0:
256,192,164742,1,12,0:0:0:0:
256,192,165044,1,0,0:0:0:0:
256,192,165195,1,8,0:0:0:0:
256,192,165270,1,0,0:0:0:0:
256,192,165345,1,8,0:0:0:0:
256,192,165496,1,0,0:0:0:0:
256,192,165647,1,8,0:0:0:0:
256,192,165798,1,0,0:0:0:0:
256,192,165873,1,0,0:0:0:0:
256,192,165948,1,8,0:0:0:0:
256,192,166250,1,4,0:0:0:0:
256,192,166551,1,4,0:0:0:0:
256,192,166702,1,8,0:0:0:0:
256,192,166853,1,8,0:0:0:0:
256,192,167004,1,0,0:0:0:0:
256,192,167154,1,8,0:0:0:0:
256,192,167230,1,8,0:0:0:0:
256,192,167305,1,0,0:0:0:0:
256,192,167456,1,0,0:0:0:0:
256,192,167607,1,8,0:0:0:0:
256,192,167757,1,8,0:0:0:0:
256,192,167833,1,8,0:0:0:0:
256,192,167908,1,0,0:0:0:0:
256,192,168059,1,8,0:0:0:0:
256,192,168210,1,0,0:0:0:0:
256,192,168360,1,8,0:0:0:0:
256,192,168662,1,12,0:0:0:0:
256,192,169114,1,0,0:0:0:0:
256,192,169265,1,8,0:0:0:0:
256,192,169416,1,8,0:0:0:0:
256,192,169566,1,0,0:0:0:0:
256,192,169717,1,0,0:0:0:0:
256,192,169868,1,12,0:0:0:0:
256,192,170019,1,0,0:0:0:0:
256,192,170094,1,0,0:0:0:0:
256,192,170169,1,8,0:0:0:0:
256,192,170320,1,8,0:0:0:0:
256,192,170471,1,0,0:0:0:0:
256,192,170546,1,0,0:0:0:0:
256,192,170622,1,0,0:0:0:0:
256,192,170697,1,0,0:0:0:0:
256,192,170772,1,8,0:0:0:0:
256,192,171074,1,4,0:0:0:0:
256,192,171225,1,8,0:0:0:0:
256,192,171375,1,0,0:0:0:0:
256,192,171451,1,0,0:0:0:0:
256,192,171526,1,8,0:0:0:0:
256,192,171677,1,8,0:0:0:0:
256,192,171828,1,0,0:0:0:0:
256,192,171978,1,8,0:0:0:0:
256,192,172280,1,0,0:0:0:0:
256,192,172431,1,8,0:0:0:0:
256,192,172581,1,8,0:0:0:0:
256,192,172732,1,0,0:0:0:0:
256,192,172808,1,0,0:0:0:0:
256,192,172883,1,8,0:0:0:0:
256,192,173034,1,0,0:0:0:0:
256,192,173184,1,8,0:0:0:0:
256,192,173486,1,0,0:0:0:0:
256,192,173637,1,8,0:0:0:0:
256,192,173787,1,0,0:0:0:0:
256,192,173863,1,0,0:0:0:0:
256,192,173938,1,8,0:0:0:0:
256,192,174089,1,8,0:0:0:0:
256,192,174240,1,0,0:0:0:0:
256,192,174390,1,8,0:0:0:0:
256,192,174692,1,0,0:0:0:0:
256,192,174843,1,8,0:0:0:0:
256,192,174994,1,8,0:0:0:0:
256,192,175144,1,8,0:0:0:0:
256,192,175220,1,8,0:0:0:0:
256,192,175295,1,0,0:0:0:0:
256,192,175446,1,0,0:0:0:0:
256,192,175597,1,8,0:0:0:0:
256,192,175898,1,4,0:0:0:0:
256,192,176200,1,0,0:0:0:0:
256,192,176350,1,8,0:0:0:0:
256,192,176501,1,0,0:0:0:0:
256,192,176576,1,0,0:0:0:0:
256,192,176652,1,0,0:0:0:0:
256,192,176803,1,8,0:0:0:0:
256,192,176953,1,0,0:0:0:0:
256,192,177029,1,0,0:0:0:0:
256,192,177104,1,8,0:0:0:0:
256,192,177255,1,0,0:0:0:0:
256,192,177556,1,0,0:0:0:0:
256,192,177632,1,0,0:0:0:0:
256,192,177707,1,8,0:0:0:0:
256,192,177858,1,0,0:0:0:0:
256,192,178009,1,8,0:0:0:0:
256,192,178159,1,8,0:0:0:0:
256,192,178310,1,4,0:0:0:0:
256,192,178612,1,8,0:0:0:0:
256,192,178762,1,4,0:0:0:0:
256,192,179064,1,8,0:0:0:0:
256,192,179215,1,4,0:0:0:0:
256,192,179516,1,8,0:0:0:0:
256,192,179667,1,4,0:0:0:0:
256,192,179968,1,8,0:0:0:0:
256,192,180119,1,4,0:0:0:0:
256,192,180270,12,0,181325,0:0:0:0:
