osu file format v14

[General]
AudioFilename: TSUBAKI.mp3
AudioLeadIn: 0
PreviewTime: 44991
Countdown: 0
SampleSet: Soft
StackLeniency: 0.2
Mode: 0
LetterboxInBreaks: 0
WidescreenStoryboard: 0

[Editor]
DistanceSpacing: 0.8
BeatDivisor: 4
GridSize: 32
TimelineZoom: 2.879999

[Metadata]
Title:TSUBAKI
TitleUnicode:TSUBAKI
Artist:Ocelot
ArtistUnicode:Ocelot
Creator:Hollow Wings
Version:Extra
Source:
Tags:System JAPAN Rin Ginsuke Function Phantom Enjoy ZZHBOY JJburstOwO Streliteela Minakami Yuki mtbbsben Rizia Kawaiwkyik liangv587 Irreversible EvilElvis -kevincela- fanzhen0019 Moecho smallboat
BeatmapID:832152
BeatmapSetID:364574

[Difficulty]
HPDrainRate:5
CircleSize:4
OverallDifficulty:7.5
ApproachRate:9
SliderMultiplier:1.59999990463257
SliderTickRate:1

[Events]
//Background and Video events
0,0,"TSUBAKI.jpg",0,0
//Break Periods
2,123296,126114
2,127215,131842
//Storyboard Layer 0 (Background)
//Storyboard Layer 1 (Fail)
//Storyboard Layer 2 (Pass)
//Storyboard Layer 3 (Foreground)
//Storyboard Sound Samples

[TimingPoints]
35056,301.507537688442,4,2,99,70,1,0
45910,-100,4,1,99,80,0,0
55558,-100,4,2,99,70,0,0
60382,-100,4,2,99,80,0,0
64000,-125,4,2,99,80,0,0
65206,-62.5,4,1,99,100,0,1
74854,-62.5,4,1,99,100,0,1
83297,-125,4,1,99,100,0,0
84503,-62.5,4,1,99,100,0,1
94151,-62.5,4,1,99,100,0,1
102593,-125,4,1,99,100,0,0
103196,-125,4,1,99,70,0,0
103799,-62.5,4,1,99,70,0,0
113447,-125,4,1,99,90,0,0
121890,-62.5,4,1,99,90,0,0
122191,-125,4,1,99,90,0,0
123096,-125,4,2,99,70,0,0
132744,-83.3333333333333,4,1,99,70,0,0
142392,-125,4,1,99,70,0,0
152040,-62.5,4,1,99,100,0,1
161689,-62.5,4,1,99,100,0,1
170131,-125,4,1,99,100,0,1
171337,-125,4,1,99,80,0,0
180458,-125,4,1,99,20,0,0

[Colours]
Combo1 : 201,147,255
Combo2 : 255,55,55
Combo3 : 255,162,162
Combo4 : 255,98,21
Combo5 : 255,199,142
Combo6 : 255,66,160
Combo7 : 255,140,198
Combo8 : 154,53,255

[HitObjects]
0,352,35659,5,0,0:0:0:0:
96,352,35960,1,0,0:0:0:0:
192,352,36262,6,0,L|352:352,1,159.999990463257,6|0,0:0|0:0,0:0:0:0:
416,352,36714,1,8,0:3:0:0:
480,352,36865,1,8,0:3:0:0:
480,224,37166,1,0,0:0:0:0:
480,224,37468,2,0,L|320:224,1,159.999990463257,0|2,0:0|0:3,0:0:0:0:
192,288,38071,2,0,L|352:288,1,159.999990463257,0|0,0:0|0:0,0:0:0:0:
480,352,38674,6,0,L|320:352,1,159.999990463257,0|8,0:0|0:3,0:0:0:0:
352,288,39277,2,0,L|512:288,1,159.999990463257,0|8,0:0|0:3,0:0:0:0:
512,288,39880,1,0,0:0:0:0:
512,224,40030,1,2,0:3:0:0:
512,224,40106,1,2,0:3:0:0:
512,224,40181,1,0,0:0:0:0:
448,224,40332,1,0,0:0:0:0:
448,288,40483,1,2,0:3:0:0:
448,288,40633,1,0,0:0:0:0:
384,288,40784,1,0,0:0:0:0:
256,288,41086,5,0,0:0:0:0:
192,288,41236,1,0,0:0:0:0:
128,288,41387,1,0,0:0:0:0:
64,288,41538,1,8,0:3:0:0:
64,224,41689,2,0,L|224:224,1,159.999990463257,8|0,0:3|0:0,0:0:0:0:
224,224,42292,1,0,0:0:0:0:
288,224,42442,1,0,0:0:0:0:
352,224,42593,1,0,0:0:0:0:
352,352,42895,2,0,L|512:352,1,159.999990463257,0|0,0:0|0:0,0:0:0:0:
512,288,43347,1,0,0:0:0:0:
448,288,43498,6,0,L|288:288,1,159.999990463257,2|0,0:3|0:0,0:0:0:0:
224,288,43950,1,0,0:0:0:0:
160,288,44101,2,0,L|0:288,2,159.999990463257,0|0|0,0:0|0:0|0:0,0:0:0:0:
160,288,45005,1,8,0:3:0:0:
288,288,45307,1,0,0:0:0:0:
416,288,45608,1,0,0:0:0:0:
224,288,45910,6,0,L|64:288,1,159.999990463257,2|0,0:0|0:0,0:0:0:0:
64,352,46362,1,2,0:0:0:0:
224,352,46513,1,0,0:0:0:0:
224,352,46814,1,8,0:0:0:0:
384,352,47116,6,0,L|224:352,1,159.999990463257,2|0,0:0|0:0,0:0:0:0:
224,288,47568,1,2,0:0:0:0:
384,288,47719,1,0,0:0:0:0:
448,320,47870,1,8,0:0:0:0:
160,320,48020,1,2,0:0:0:0:
160,320,48322,6,0,L|0:320,1,159.999990463257,2|0,0:0|0:0,0:0:0:0:
0,256,48774,1,2,0:0:0:0:
160,256,48925,1,0,0:0:0:0:
160,256,49226,1,8,0:0:0:0:
320,256,49528,5,2,0:0:0:0:
448,288,49679,1,0,0:0:0:0:
448,288,49754,1,0,0:0:0:0:
448,288,49829,1,0,0:0:0:0:
320,352,49980,1,2,0:0:0:0:
480,352,50131,1,8,0:0:0:0:
480,352,50432,1,0,0:0:0:0:
480,352,50734,6,0,L|320:352,1,159.999990463257,2|0,0:0|0:0,0:0:0:0:
352,288,51186,1,2,0:0:0:0:
192,288,51337,1,0,0:0:0:0:
192,288,51638,1,8,0:0:0:0:
192,288,51940,6,0,L|32:288,1,159.999990463257,2|0,0:0|0:0,0:0:0:0:
32,288,52392,1,2,0:0:0:0:
192,288,52543,1,0,0:0:0:0:
224,352,52694,1,8,0:0:0:0:
0,352,52844,1,2,0:0:0:0:
0,352,53146,6,0,L|160:352,1,159.999990463257,2|0,0:0|0:0,0:0:0:0:
192,288,53598,1,2,0:0:0:0:
352,288,53749,1,0,0:0:0:0:
352,288,54050,1,8,0:0:0:0:
352,288,54352,6,0,L|192:288,1,159.999990463257,2|0,0:0|0:0,0:0:0:0:
192,288,54955,2,0,L|32:288,1,159.999990463257,8|0,0:0|0:0,0:0:0:0:
32,288,55558,5,2,0:0:0:0:
192,288,55709,1,8,0:0:0:0:
96,224,55860,1,0,0:0:0:0:
256,224,56010,1,8,0:3:0:0:
256,224,56161,1,8,0:3:0:0:
256,224,56463,5,2,0:0:0:0:
416,224,56614,1,8,0:0:0:0:
288,288,56765,1,2,0:0:0:0:
448,288,56915,1,8,0:0:0:0:
320,352,57066,1,0,0:0:0:0:
480,352,57216,1,8,0:0:0:0:
352,288,57367,1,0,0:0:0:0:
512,288,57518,1,0,0:0:0:0:
384,224,57668,1,2,0:0:0:0:
384,224,57970,5,2,0:0:0:0:
224,224,58121,1,8,0:0:0:0:
352,288,58272,1,2,0:0:0:0:
192,288,58422,1,8,0:0:0:0:
384,352,58573,1,2,0:0:0:0:
224,352,58723,1,8,0:0:0:0:
384,352,58874,1,2,0:0:0:0:
384,352,59175,5,2,0:0:0:0:
224,352,59327,1,8,0:0:0:0:
416,288,59478,1,2,0:0:0:0:
256,288,59629,1,0,0:0:0:0:
384,224,59779,1,2,0:0:0:0:
224,224,59930,1,8,0:0:0:0:
384,224,60080,1,2,0:0:0:0:
384,224,60382,5,2,0:1:0:0:
224,224,60533,1,8,0:0:0:0:
352,288,60683,1,2,0:1:0:0:
192,288,60834,1,8,0:0:0:0:
320,352,60984,1,2,0:1:0:0:
320,352,61287,5,2,0:1:0:0:
160,352,61438,1,8,0:0:0:0:
352,288,61588,1,2,0:1:0:0:
192,288,61739,1,8,0:0:0:0:
384,224,61889,1,2,0:1:0:0:
224,224,62040,1,8,0:0:0:0:
352,288,62191,1,2,0:1:0:0:
192,288,62341,1,8,0:0:0:0:
320,352,62493,1,2,0:1:0:0:
320,352,62794,5,2,0:1:0:0:
160,352,62945,1,2,0:1:0:0:
192,288,63095,1,2,0:1:0:0:
352,288,63246,1,2,0:1:0:0:
352,288,63322,1,2,0:1:0:0:
352,288,63396,1,2,0:1:0:0:
480,288,63548,1,2,0:1:0:0:
512,224,63699,1,2,0:1:0:0:
512,224,63774,1,2,0:1:0:0:
512,224,63849,1,2,0:1:0:0:
512,224,63924,1,2,0:1:0:0:
512,224,64000,6,0,B|32:224,1,479.999971389771,2|0,0:1|0:0,0:0:0:0:
0,288,65206,6,0,L|256:288,1,255.999984741211,6|0,0:0|0:0,0:0:0:0:
512,352,65809,2,0,L|448:352,1,63.9999961853028,8|0,0:0|0:0,0:0:0:0:
416,288,65960,2,0,L|352:288,1,63.9999961853028,0|0,0:0|2:0,0:0:0:0:
320,352,66111,2,0,L|256:352,1,63.9999961853028,0|0,0:0|2:0,0:0:0:0:
224,288,66262,2,0,L|160:288,1,63.9999961853028,0|0,0:0|2:0,0:0:0:0:
128,352,66412,2,0,L|0:352,1,127.999992370606,2|0,0:0|2:0,0:0:0:0:
0,32,66714,6,0,L|192:32,1,191.999988555908,2|0,0:0|0:0,0:0:0:0:
224,96,67015,2,0,L|32:96,1,191.999988555908,8|0,0:0|2:0,0:0:0:0:
0,160,67317,2,0,L|192:160,1,191.999988555908,0|0,0:0|2:0,0:0:0:0:
224,224,67618,5,2,0:0:0:0:
0,352,67920,1,0,0:0:0:0:
0,352,68221,2,0,L|64:352,1,63.9999961853028,10|0,0:0|2:0,0:0:0:0:
96,288,68372,2,0,L|160:288,1,63.9999961853028,0|0,0:0|2:0,0:0:0:0:
192,352,68523,2,0,L|320:352,1,127.999992370606,0|0,0:0|2:0,0:0:0:0:
320,32,68824,6,0,L|128:32,2,191.999988555908,2|2|2,0:0|0:0|0:0,0:0:0:0:
352,96,69352,1,2,0:0:0:0:
320,160,69427,2,0,L|64:160,1,255.999984741211,8|0,0:0|0:0,0:0:0:0:
448,224,70030,6,0,L|192:224,1,255.999984741211,2|0,0:0|2:0,0:0:0:0:
192,224,70633,2,0,L|128:224,1,63.9999961853028,8|0,0:0|0:0,0:0:0:0:
96,288,70784,2,0,L|32:288,1,63.9999961853028,0|0,0:0|0:0,0:0:0:0:
64,352,70935,2,0,L|128:352,1,63.9999961853028,0|0,0:0|0:0,0:0:0:0:
160,288,71086,2,0,L|224:288,1,63.9999961853028,0|0,0:0|0:0,0:0:0:0:
256,352,71236,1,2,0:0:0:0:
256,32,71538,6,0,L|448:32,1,191.999988555908,0|0,0:0|2:0,0:0:0:0:
480,96,71839,2,0,L|416:96,1,63.9999961853028,8|0,0:0|2:0,0:0:0:0:
384,160,71990,2,0,L|320:160,1,63.9999961853028,0|0,0:0|2:0,0:0:0:0:
288,96,72141,2,0,L|224:96,1,63.9999961853028,0|0,0:0|2:0,0:0:0:0:
192,32,72292,2,0,L|128:32,1,63.9999961853028,0|0,0:0|2:0,0:0:0:0:
96,96,72442,6,0,L|32:96,1,63.9999961853028,2|0,0:0|2:0,0:0:0:0:
64,160,72593,2,0,L|128:160,1,63.9999961853028,0|0,0:0|2:0,0:0:0:0:
160,96,72744,2,0,L|288:96,1,127.999992370606,0|0,0:0|0:0,0:0:0:0:
256,224,73045,1,8,0:0:0:0:
384,160,73196,1,0,0:0:0:0:
384,288,73347,1,0,0:0:0:0:
512,224,73498,1,0,0:0:0:0:
512,224,73648,6,0,L|384:224,1,127.999992370606,6|0,0:0|0:0,0:0:0:0:
384,224,73950,1,8,0:0:0:0:
256,224,74101,1,0,0:0:0:0:
128,224,74251,1,2,0:0:0:0:
128,224,74402,2,0,L|0:224,2,127.999992370606,8|0|0,0:0|0:0|0:0,0:0:0:0:
128,224,74854,6,0,L|384:224,1,255.999984741211,2|0,0:0|0:0,0:0:0:0:
160,288,75457,2,0,L|224:288,1,63.9999961853028,8|0,0:0|0:0,0:0:0:0:
256,352,75608,2,0,L|320:352,1,63.9999961853028,0|0,0:0|0:0,0:0:0:0:
352,288,75759,2,0,L|288:288,1,63.9999961853028,2|0,0:0|2:0,0:0:0:0:
256,224,75910,2,0,L|192:224,1,63.9999961853028,0|0,0:0|2:0,0:0:0:0:
160,288,76060,2,0,L|32:288,1,127.999992370606,2|0,0:0|0:0,0:0:0:0:
32,96,76362,6,0,L|224:96,1,191.999988555908,0|0,0:0|2:0,0:0:0:0:
256,160,76663,2,0,L|448:160,1,191.999988555908,8|0,0:0|2:0,0:0:0:0:
480,96,76965,2,0,L|288:96,1,191.999988555908,0|0,0:0|2:0,0:0:0:0:
320,32,77267,5,2,0:0:0:0:
32,96,77568,1,0,0:0:0:0:
320,224,77869,2,0,L|256:224,1,63.9999961853028,8|0,0:0|2:0,0:0:0:0:
224,288,78020,2,0,L|160:288,1,63.9999961853028,0|0,0:0|2:0,0:0:0:0:
128,224,78171,2,0,L|0:224,1,127.999992370606,0|0,0:0|2:0,0:0:0:0:
128,352,78473,2,0,L|192:352,1,63.9999961853028,2|0,0:0|0:0,0:0:0:0:
224,288,78623,2,0,L|288:288,1,63.9999961853028,0|2,0:0|0:0,0:0:0:0:
320,352,78774,2,0,L|384:352,1,63.9999961853028,0|0,0:0|2:0,0:0:0:0:
416,288,78925,2,0,L|480:288,1,63.9999961853028,2|2,0:0|0:0,0:0:0:0:
416,96,79076,6,0,L|480:96,1,63.9999961853028,0|0,0:0|2:0,0:0:0:0:
320,32,79226,2,0,L|384:32,1,63.9999961853028,2|2,0:0|0:0,0:0:0:0:
384,160,79377,2,0,L|192:160,1,191.999988555908,8|0,0:0|2:0,0:0:0:0:
160,224,79678,6,0,L|416:224,1,255.999984741211,2|2,0:0|0:0,0:0:0:0:
160,352,80281,2,0,L|96:352,1,63.9999961853028,8|0,0:0|2:0,0:0:0:0:
64,288,80432,2,0,L|128:288,1,63.9999961853028,0|0,0:0|2:0,0:0:0:0:
192,288,80583,2,0,L|384:288,1,191.999988555908,0|0,0:0|0:0,0:0:0:0:
352,224,80885,2,0,L|416:224,1,63.9999961853028,10|0,0:0|2:0,0:0:0:0:
448,288,81035,2,0,L|384:288,1,63.9999961853028,0|0,0:0|2:0,0:0:0:0:
352,224,81186,2,0,L|160:224,1,191.999988555908,0|0,0:0|0:0,0:0:0:0:
128,160,81488,6,0,L|320:160,1,191.999988555908,8|0,0:0|2:0,0:0:0:0:
352,96,81789,2,0,L|160:96,1,191.999988555908,2|0,0:0|2:0,0:0:0:0:
128,32,82091,2,0,L|256:32,1,127.999992370606,12|0,0:0|2:0,0:0:0:0:
256,32,82543,1,2,0:0:0:0:
288,96,82693,1,8,0:0:0:0:
96,96,82844,1,2,0:0:0:0:
256,160,82995,1,0,0:0:0:0:
128,160,83146,1,2,0:0:0:0:
288,224,83297,6,0,L|160:224,1,127.999992370606,6|0,0:0|0:0,0:0:0:0:
512,224,83900,2,0,L|288:224,1,223.99998664856,0|0,0:0|2:0,0:0:0:0:
320,288,84503,6,0,L|64:288,1,255.999984741211,6|8,0:0|0:0,0:0:0:0:
224,352,84955,1,0,0:0:0:0:
320,288,85106,2,0,L|384:288,1,63.9999961853028,2|0,0:0|0:0,0:0:0:0:
416,352,85257,2,0,L|480:352,1,63.9999961853028,0|0,0:0|2:0,0:0:0:0:
512,288,85408,2,0,L|448:288,1,63.9999961853028,8|0,0:0|2:0,0:0:0:0:
416,224,85559,2,0,L|352:224,1,63.9999961853028,0|0,0:0|2:0,0:0:0:0:
320,288,85709,2,0,L|192:288,1,127.999992370606,2|2,0:0|0:0,0:0:0:0:
192,96,86011,6,0,L|0:96,1,191.999988555908,8|0,0:0|2:0,0:0:0:0:
32,32,86312,2,0,L|224:32,1,191.999988555908,2|0,0:0|2:0,0:0:0:0:
256,96,86614,2,0,L|448:96,1,191.999988555908,8|0,0:0|2:0,0:0:0:0:
416,32,86915,5,2,0:0:0:0:
192,96,87217,1,8,0:0:0:0:
32,224,87518,2,0,L|96:224,1,63.9999961853028,2|0,0:0|2:0,0:0:0:0:
128,288,87669,2,0,L|192:288,1,63.9999961853028,2|0,0:0|2:0,0:0:0:0:
224,352,87820,2,0,L|352:352,1,127.999992370606,8|0,0:0|0:0,0:0:0:0:
224,32,88121,6,0,L|416:32,2,191.999988555908,2|2|0,0:0|0:0|0:0,0:0:0:0:
256,96,88649,1,2,0:0:0:0:
224,160,88724,2,0,L|480:160,1,255.999984741211,2|8,0:0|0:0,0:0:0:0:
0,224,89327,6,0,L|256:224,1,255.999984741211,2|8,0:0|0:0,0:0:0:0:
256,224,89930,2,0,L|320:224,1,63.9999961853028,0|0,0:0|0:0,0:0:0:0:
352,288,90081,2,0,L|288:288,1,63.9999961853028,2|0,0:0|0:0,0:0:0:0:
256,352,90232,2,0,L|320:352,1,63.9999961853028,8|0,0:0|0:0,0:0:0:0:
352,288,90382,2,0,L|416:288,1,63.9999961853028,0|0,0:0|0:0,0:0:0:0:
448,352,90533,1,0,0:0:0:0:
448,32,90835,6,0,L|256:32,1,191.999988555908,8|0,0:0|2:0,0:0:0:0:
224,96,91136,2,0,L|160:96,1,63.9999961853028,2|0,0:0|2:0,0:0:0:0:
128,32,91287,2,0,L|64:32,1,63.9999961853028,0|0,0:0|2:0,0:0:0:0:
64,160,91438,2,0,L|128:160,1,63.9999961853028,8|0,0:0|2:0,0:0:0:0:
320,160,91588,2,0,L|256:160,1,63.9999961853028,0|0,0:0|2:0,0:0:0:0:
352,96,91739,6,0,L|288:96,1,63.9999961853028,2|0,0:0|2:0,0:0:0:0:
256,160,91890,2,0,L|192:160,1,63.9999961853028,0|0,0:0|2:0,0:0:0:0:
224,96,92040,2,0,L|96:96,1,127.999992370606,8|0,0:0|2:0,0:0:0:0:
384,160,92342,1,0,0:0:0:0:
224,96,92493,1,2,0:0:0:0:
224,224,92644,1,8,0:0:0:0:
64,160,92795,1,0,0:0:0:0:
64,288,92945,6,0,L|192:288,1,127.999992370606,6|0,0:0|0:0,0:0:0:0:
192,288,93247,1,8,0:0:0:0:
320,288,93398,1,2,0:0:0:0:
192,288,93548,1,8,0:0:0:0:
320,288,93699,2,0,L|448:288,2,127.999992370606,2|0|8,0:0|0:0|0:0,0:0:0:0:
352,352,94151,6,0,L|96:352,1,255.999984741211,6|8,0:0|0:0,0:0:0:0:
416,352,94754,2,0,L|352:352,1,63.9999961853028,2|0,0:0|0:0,0:0:0:0:
320,288,94905,2,0,L|256:288,1,63.9999961853028,2|0,0:0|0:0,0:0:0:0:
224,224,95056,2,0,L|160:224,1,63.9999961853028,8|0,0:0|2:0,0:0:0:0:
128,288,95207,2,0,L|64:288,1,63.9999961853028,0|0,0:0|2:0,0:0:0:0:
32,352,95357,2,0,L|160:352,1,127.999992370606,2|2,0:0|0:0,0:0:0:0:
160,32,95659,6,0,L|352:32,1,191.999988555908,8|0,0:0|2:0,0:0:0:0:
384,96,95960,2,0,L|192:96,1,191.999988555908,2|0,0:0|2:0,0:0:0:0:
160,160,96262,2,0,L|352:160,1,191.999988555908,8|0,0:0|2:0,0:0:0:0:
384,96,96564,5,2,0:0:0:0:
160,160,96865,1,8,0:0:0:0:
384,224,97166,2,0,L|320:224,1,63.9999961853028,2|0,0:0|2:0,0:0:0:0:
288,288,97317,2,0,L|224:288,1,63.9999961853028,2|0,0:0|2:0,0:0:0:0:
192,224,97468,2,0,L|64:224,1,127.999992370606,8|0,0:0|0:0,0:0:0:0:
192,352,97770,2,0,L|256:352,1,63.9999961853028,2|0,0:0|0:0,0:0:0:0:
288,288,97920,2,0,L|352:288,1,63.9999961853028,0|2,0:0|0:0,0:0:0:0:
384,352,98071,2,0,L|320:352,1,63.9999961853028,8|0,0:0|2:0,0:0:0:0:
288,288,98221,2,0,L|224:288,1,63.9999961853028,0|0,0:0|2:0,0:0:0:0:
288,96,98373,6,0,L|224:96,1,63.9999961853028,2|0,0:0|2:0,0:0:0:0:
384,32,98523,2,0,L|320:32,1,63.9999961853028,0|0,0:0|2:0,0:0:0:0:
384,160,98674,2,0,L|192:160,1,191.999988555908,8|0,0:0|2:0,0:0:0:0:
160,224,98975,6,0,L|416:224,1,255.999984741211,2|8,0:0|0:0,0:0:0:0:
128,288,99578,2,0,L|192:288,1,63.9999961853028,2|0,0:0|2:0,0:0:0:0:
224,352,99729,2,0,L|288:352,1,63.9999961853028,0|0,0:0|2:0,0:0:0:0:
320,288,99880,2,0,L|128:288,1,191.999988555908,8|0,0:0|0:0,0:0:0:0:
160,352,100182,2,0,L|96:352,1,63.9999961853028,2|0,0:0|2:0,0:0:0:0:
64,288,100332,2,0,L|128:288,1,63.9999961853028,2|0,0:0|2:0,0:0:0:0:
160,224,100483,2,0,L|352:224,1,191.999988555908,8|0,0:0|0:0,0:0:0:0:
384,160,100785,6,0,L|192:160,1,191.999988555908,2|0,0:0|2:0,0:0:0:0:
224,96,101086,2,0,L|32:96,1,191.999988555908,8|0,0:0|2:0,0:0:0:0:
64,32,101388,2,0,L|192:32,1,127.999992370606,6|0,0:0|2:0,0:0:0:0:
192,32,101840,1,0,0:0:0:0:
224,96,101990,1,0,0:0:0:0:
416,96,102141,1,2,0:0:0:0:
256,160,102292,1,8,0:0:0:0:
384,160,102443,1,0,0:0:0:0:
288,224,102593,6,0,L|416:224,1,127.999992370606,6|2,0:0|0:0,0:0:0:0:
64,224,103196,2,0,L|288:224,1,223.99998664856,0|0,1:0|0:0,0:0:0:0:
288,224,103799,5,2,0:0:0:0:
480,224,104251,1,8,0:3:0:0:
416,224,104402,1,8,0:3:0:0:
288,224,104704,1,8,0:0:0:0:
160,224,105005,5,2,0:0:0:0:
352,224,105458,1,2,0:0:0:0:
416,224,105608,1,4,0:3:0:0:
480,224,105759,1,8,0:0:0:0:
416,224,105910,1,2,0:0:0:0:
288,224,106211,5,2,0:0:0:0:
96,224,106664,1,2,0:0:0:0:
160,224,106814,1,0,0:0:0:0:
288,224,107116,1,8,0:0:0:0:
160,224,107417,5,2,0:0:0:0:
352,224,107870,1,2,0:0:0:0:
416,224,108020,1,8,0:0:0:0:
288,224,108322,1,0,0:0:0:0:
160,224,108623,5,2,0:0:0:0:
352,224,109076,1,8,0:3:0:0:
288,224,109226,1,8,0:3:0:0:
160,224,109528,1,8,0:0:0:0:
32,224,109829,5,2,0:0:0:0:
224,224,110282,1,2,0:0:0:0:
160,224,110432,1,4,0:3:0:0:
224,224,110583,1,8,0:0:0:0:
160,224,110734,1,2,0:0:0:0:
288,224,111035,5,2,0:0:0:0:
96,224,111488,1,2,0:0:0:0:
160,224,111638,1,0,0:0:0:0:
288,224,111940,1,8,0:0:0:0:
416,224,112241,5,6,0:0:0:0:
416,224,112844,1,8,0:0:0:0:
416,224,113447,5,6,0:0:0:0:
288,224,113598,1,0,0:0:0:0:
160,224,113749,1,8,0:0:0:0:
32,224,113900,1,0,0:0:0:0:
32,352,114050,2,0,L|96:352,1,63.9999961853028,2|0,0:0|0:0,0:0:0:0:
192,288,114352,2,0,L|128:288,1,63.9999961853028,8|0,0:0|0:0,0:0:0:0:
224,352,114653,6,0,L|288:352,1,63.9999961853028,2|0,0:0|0:0,0:0:0:0:
416,352,114955,2,0,L|480:352,1,63.9999961853028,8|0,0:0|0:0,0:0:0:0:
512,320,115181,1,0,0:0:0:0:
512,288,115257,2,0,L|448:288,1,63.9999961853028,2|0,0:0|0:0,0:0:0:0:
320,288,115559,2,0,L|384:288,1,63.9999961853028,8|2,0:0|0:0,0:0:0:0:
256,224,115860,6,0,L|192:224,1,63.9999961853028,2|0,0:0|0:0,0:0:0:0:
64,224,116162,2,0,L|0:224,1,63.9999961853028,8|0,0:0|0:0,0:0:0:0:
96,288,116463,2,0,L|160:288,1,63.9999961853028,2|0,0:0|0:0,0:0:0:0:
64,352,116765,2,0,L|0:352,1,63.9999961853028,8|0,0:0|0:0,0:0:0:0:
192,352,117066,6,0,L|256:352,1,63.9999961853028,2|0,0:0|0:0,0:0:0:0:
288,288,117367,2,0,L|352:288,1,63.9999961853028,8|0,0:0|0:0,0:0:0:0:
384,256,117593,1,0,0:0:0:0:
384,224,117669,2,0,L|352:224,1,31.9999980926514,2|0,0:0|0:0,0:0:0:0:
288,224,117819,1,2,0:0:0:0:
192,224,117970,1,8,0:0:0:0:
96,224,118121,2,0,L|128:224,1,31.9999980926514,2|0,0:0|0:0,0:0:0:0:
160,288,118272,5,2,0:0:0:0:
256,288,118423,1,0,0:0:0:0:
352,288,118574,1,8,0:0:0:0:
448,288,118725,1,0,0:0:0:0:
352,288,118875,2,0,L|288:288,1,63.9999961853028,2|0,0:0|0:0,0:0:0:0:
192,352,119177,2,0,L|256:352,1,63.9999961853028,8|0,0:0|0:0,0:0:0:0:
384,352,119478,6,0,L|416:352,2,31.9999980926514,2|0|0,0:0|0:0|0:0,0:0:0:0:
416,288,119779,2,0,L|352:288,1,63.9999961853028,8|0,0:0|0:0,0:0:0:0:
320,256,120005,1,0,0:0:0:0:
320,224,120081,2,0,L|256:224,1,63.9999961853028,2|0,0:0|0:0,0:0:0:0:
128,224,120382,2,0,L|64:224,1,63.9999961853028,8|2,0:0|0:0,0:0:0:0:
32,256,120608,1,0,0:0:0:0:
32,288,120684,5,8,0:0:0:0:
128,288,120834,1,2,0:0:0:0:
224,288,120985,1,8,0:0:0:0:
320,288,121136,1,2,0:0:0:0:
352,320,121211,1,2,0:0:0:0:
352,352,121287,1,8,0:0:0:0:
256,352,121437,1,2,0:0:0:0:
256,320,121512,1,2,0:0:0:0:
288,288,121588,1,8,0:0:0:0:
288,256,121664,1,0,0:0:0:0:
320,224,121739,1,0,0:0:0:0:
352,224,121815,1,0,0:0:0:0:
384,256,121890,6,0,L|416:256,7,31.9999980926514,2|0|2|0|2|0|2|0,0:0|0:0|0:0|0:0|0:0|0:0|0:0|0:0,0:0:0:0:
416,224,122191,2,0,L|480:224,1,63.9999961853028,2|2,0:0|0:0,0:0:0:0:
480,352,122493,2,0,L|384:352,2,95.9999942779542,8|8|8,0:0|0:0|0:0,0:0:0:0:
480,352,123096,1,2,0:1:0:0:
320,192,126714,5,0,0:0:0:0:
192,192,127015,1,0,0:0:0:0:
256,224,132442,5,2,0:1:0:0:
256,224,132744,6,0,L|384:224,1,127.999988464356,6|0,0:0|0:0,0:0:0:0:
352,288,133045,2,0,L|480:288,1,127.999988464356,0|0,0:0|0:0,0:0:0:0:
448,352,133347,2,0,L|320:352,1,127.999988464356,2|0,0:0|0:0,0:0:0:0:
352,288,133648,2,0,L|224:288,1,127.999988464356,0|0,0:0|0:0,0:0:0:0:
192,352,133950,6,0,L|320:352,1,127.999988464356,2|0,0:0|0:0,0:0:0:0:
352,288,134251,2,0,L|480:288,1,127.999988464356,0|0,0:0|0:0,0:0:0:0:
512,224,134553,2,0,L|384:224,1,127.999988464356,2|0,0:0|0:0,0:0:0:0:
352,288,134854,1,2,0:3:0:0:
352,288,135156,6,0,L|224:288,1,127.999988464356,2|0,0:0|0:0,0:0:0:0:
192,224,135457,2,0,L|64:224,1,127.999988464356,0|0,0:0|0:0,0:0:0:0:
32,288,135759,2,0,L|160:288,1,127.999988464356,2|0,0:0|0:0,0:0:0:0:
192,352,136060,2,0,L|320:352,1,127.999988464356,0|0,0:0|0:0,0:0:0:0:
352,288,136362,5,2,0:0:0:0:
320,224,136463,2,0,L|256:224,1,63.999994232178,0|0,0:0|0:0,0:0:0:0:
224,288,136663,2,0,L|96:288,1,127.999988464356,0|0,0:0|0:0,0:0:0:0:
64,224,136965,2,0,L|192:224,1,127.999988464356,2|0,0:0|0:0,0:0:0:0:
224,288,137266,1,2,0:3:0:0:
224,288,137568,6,0,L|352:288,1,127.999988464356,6|0,0:0|0:0,0:0:0:0:
384,352,137869,2,0,L|512:352,1,127.999988464356,0|0,0:0|0:0,0:0:0:0:
480,288,138171,2,0,L|352:288,1,127.999988464356,2|0,0:0|0:0,0:0:0:0:
320,352,138472,2,0,L|192:352,1,127.999988464356,0|0,0:0|0:0,0:0:0:0:
160,288,138774,6,0,L|32:288,1,127.999988464356,2|0,0:0|0:0,0:0:0:0:
0,352,139076,2,0,L|128:352,1,127.999988464356,0|0,0:0|0:0,0:0:0:0:
160,288,139377,2,0,L|288:288,1,127.999988464356,2|0,0:0|0:0,0:0:0:0:
320,352,139678,1,2,0:3:0:0:
320,352,139980,6,0,L|192:352,1,127.999988464356,2|0,0:0|0:0,0:0:0:0:
224,288,140281,2,0,L|96:288,1,127.999988464356,0|0,0:0|0:0,0:0:0:0:
128,224,140583,2,0,L|256:224,1,127.999988464356,2|0,0:0|0:0,0:0:0:0:
224,288,140884,2,0,L|352:288,1,127.999988464356,0|0,0:0|0:0,0:0:0:0:
384,352,141186,5,2,0:0:0:0:
384,224,141387,1,0,0:0:0:0:
384,224,141488,1,0,0:0:0:0:
416,160,141689,1,0,0:0:0:0:
416,160,141789,1,2,0:0:0:0:
384,96,141990,1,0,0:0:0:0:
384,96,142091,1,2,0:3:0:0:
416,32,142292,1,0,0:0:0:0:
416,32,142392,6,0,L|288:32,1,127.999992370606,6|0,0:0|0:0,0:0:0:0:
32,32,142995,1,10,0:0:0:0:
32,32,143297,1,0,0:0:0:0:
32,32,143598,5,0,0:0:0:0:
64,96,143799,1,0,0:0:0:0:
64,96,143900,1,0,0:0:0:0:
32,160,144101,1,0,0:0:0:0:
32,160,144202,1,10,0:0:0:0:
64,224,144402,1,0,0:0:0:0:
64,224,144503,1,2,0:3:0:0:
32,288,144704,1,0,0:0:0:0:
32,288,144804,6,0,L|160:288,1,127.999992370606,2|0,0:0|0:0,0:0:0:0:
416,288,145407,1,10,0:0:0:0:
416,288,145709,1,0,0:0:0:0:
416,288,146010,5,2,0:0:0:0:
384,224,146211,1,0,0:0:0:0:
384,224,146312,1,0,0:0:0:0:
352,288,146513,1,0,0:0:0:0:
352,288,146614,1,10,0:0:0:0:
320,224,146814,1,0,0:0:0:0:
320,224,146915,1,2,0:3:0:0:
320,224,147216,6,0,L|192:224,1,127.999992370606,6|0,0:0|0:0,0:0:0:0:
448,224,147819,1,10,0:0:0:0:
448,224,148121,1,0,0:0:0:0:
448,224,148422,5,2,0:0:0:0:
416,160,148623,1,0,0:0:0:0:
416,160,148724,1,0,0:0:0:0:
384,96,148925,1,0,0:0:0:0:
384,96,149026,1,10,0:0:0:0:
352,160,149226,1,0,0:0:0:0:
352,160,149327,1,2,0:3:0:0:
320,224,149528,1,0,0:0:0:0:
320,224,149628,6,0,L|448:224,1,127.999992370606,6|0,0:0|0:0,0:0:0:0:
192,224,150231,1,14,0:0:0:0:
192,224,150533,1,0,0:0:0:0:
192,224,150834,5,6,0:0:0:0:
160,160,151035,1,0,0:0:0:0:
160,160,151136,1,0,0:0:0:0:
192,224,151337,1,0,0:0:0:0:
192,224,151438,1,0,0:0:0:0:
160,160,151638,1,0,0:0:0:0:
160,160,151739,1,0,0:0:0:0:
320,224,152040,6,0,L|64:224,1,255.999984741211,6|0,0:0|0:0,0:0:0:0:
288,288,152643,2,0,L|352:288,1,63.9999961853028,8|0,0:0|0:0,0:0:0:0:
384,224,152794,2,0,L|448:224,1,63.9999961853028,0|0,0:0|2:0,0:0:0:0:
480,288,152945,2,0,L|416:288,1,63.9999961853028,0|0,0:0|2:0,0:0:0:0:
384,352,153096,2,0,L|320:352,1,63.9999961853028,0|0,0:0|2:0,0:0:0:0:
288,288,153246,2,0,L|160:288,1,127.999992370606,2|0,0:0|2:0,0:0:0:0:
288,96,153548,6,0,L|480:96,1,191.999988555908,0|2,0:0|0:0,0:0:0:0:
512,32,153849,2,0,L|320:32,1,191.999988555908,8|0,0:0|2:0,0:0:0:0:
288,96,154151,2,0,L|96:96,1,191.999988555908,0|0,0:0|2:0,0:0:0:0:
64,32,154452,5,2,0:0:0:0:
256,160,154754,1,0,0:0:0:0:
416,288,155055,2,0,L|352:288,1,63.9999961853028,8|0,0:0|2:0,0:0:0:0:
320,224,155206,2,0,L|256:224,1,63.9999961853028,0|0,0:0|2:0,0:0:0:0:
224,288,155357,2,0,L|96:288,1,127.999992370606,0|0,0:0|2:0,0:0:0:0:
256,32,155658,6,0,L|64:32,2,191.999988555908,2|0|2,0:0|0:0|0:0,0:0:0:0:
224,96,156186,1,2,0:0:0:0:
256,160,156261,2,0,L|512:160,1,255.999984741211,8|0,0:0|0:0,0:0:0:0:
256,224,156864,6,0,L|0:224,1,255.999984741211,2|0,0:0|2:0,0:0:0:0:
288,288,157467,2,0,L|224:288,1,63.9999961853028,8|0,0:0|0:0,0:0:0:0:
192,352,157618,2,0,L|128:352,1,63.9999961853028,0|0,0:0|0:0,0:0:0:0:
96,288,157769,2,0,L|32:288,1,63.9999961853028,0|0,0:0|0:0,0:0:0:0:
0,224,157920,2,0,L|64:224,1,63.9999961853028,0|0,0:0|0:0,0:0:0:0:
128,224,158070,1,2,0:0:0:0:
320,32,158372,6,0,L|128:32,1,191.999988555908,0|0,0:0|2:0,0:0:0:0:
96,96,158673,2,0,L|160:96,1,63.9999961853028,8|0,0:0|2:0,0:0:0:0:
192,160,158824,2,0,L|256:160,1,63.9999961853028,0|0,0:0|2:0,0:0:0:0:
288,96,158975,2,0,L|224:96,1,63.9999961853028,0|0,0:0|2:0,0:0:0:0:
384,160,159126,2,0,L|448:160,1,63.9999961853028,0|0,0:0|2:0,0:0:0:0:
480,96,159277,6,0,L|416:96,1,63.9999961853028,2|0,0:0|2:0,0:0:0:0:
384,160,159427,2,0,L|320:160,1,63.9999961853028,0|0,0:0|2:0,0:0:0:0:
288,96,159578,2,0,L|160:96,1,127.999992370606,0|0,0:0|0:0,0:0:0:0:
0,160,159879,1,8,0:0:0:0:
160,224,160030,1,0,0:0:0:0:
160,96,160181,1,0,0:0:0:0:
320,160,160332,1,0,0:0:0:0:
448,224,160482,6,0,L|320:224,1,127.999992370606,6|0,0:0|0:0,0:0:0:0:
224,160,160784,1,8,0:0:0:0:
256,32,160935,1,0,0:0:0:0:
288,160,161086,1,2,0:0:0:0:
192,224,161236,2,0,L|64:224,2,127.999992370606,8|0|0,0:0|0:0|0:0,0:0:0:0:
256,288,161688,6,0,L|0:288,1,255.999984741211,6|0,0:0|0:0,0:0:0:0:
288,352,162291,2,0,L|224:352,1,63.9999961853028,8|0,0:0|0:0,0:0:0:0:
256,288,162442,2,0,L|320:288,1,63.9999961853028,0|0,0:0|0:0,0:0:0:0:
352,352,162593,2,0,L|416:352,1,63.9999961853028,0|0,0:0|2:0,0:0:0:0:
384,288,162744,2,0,L|320:288,1,63.9999961853028,0|0,0:0|2:0,0:0:0:0:
288,224,162894,2,0,L|416:224,1,127.999992370606,2|0,0:0|0:0,0:0:0:0:
224,160,163196,6,0,L|32:160,1,191.999988555908,0|0,0:0|2:0,0:0:0:0:
0,96,163497,2,0,L|192:96,1,191.999988555908,8|0,0:0|2:0,0:0:0:0:
224,32,163799,2,0,L|32:32,1,191.999988555908,0|0,0:0|2:0,0:0:0:0:
0,96,164101,5,6,0:0:0:0:
224,160,164327,1,2,0:0:0:0:
448,96,164553,1,2,0:0:0:0:
224,160,164779,1,2,0:0:0:0:
0,96,165005,2,0,L|32:96,1,31.9999980926514,8|0,0:0|0:0,0:0:0:0:
0,288,165307,6,0,L|64:288,1,63.9999961853028,6|0,0:0|0:0,0:0:0:0:
96,352,165457,2,0,L|160:352,1,63.9999961853028,0|0,0:0|0:0,0:0:0:0:
192,288,165608,2,0,L|256:288,1,63.9999961853028,0|0,0:0|2:0,0:0:0:0:
288,224,165759,2,0,L|352:224,1,63.9999961853028,0|0,0:0|2:0,0:0:0:0:
448,160,165910,2,0,L|384:160,1,63.9999961853028,8|0,0:0|2:0,0:0:0:0:
352,96,166060,2,0,L|288:96,1,63.9999961853028,0|0,0:0|2:0,0:0:0:0:
256,160,166211,2,0,L|64:160,1,191.999988555908,0|0,0:0|2:0,0:0:0:0:
32,224,166512,6,0,L|288:224,1,255.999984741211,2|0,0:0|0:0,0:0:0:0:
64,288,167115,2,0,L|0:288,1,63.9999961853028,8|0,0:0|2:0,0:0:0:0:
32,352,167266,2,0,L|96:352,1,63.9999961853028,0|0,0:0|2:0,0:0:0:0:
128,288,167417,2,0,L|320:288,1,191.999988555908,0|0,0:0|0:0,0:0:0:0:
288,352,167719,2,0,L|352:352,1,63.9999961853028,2|0,0:0|2:0,0:0:0:0:
384,288,167870,2,0,L|320:288,1,63.9999961853028,0|0,0:0|2:0,0:0:0:0:
288,224,168020,2,0,L|480:224,1,191.999988555908,0|0,0:0|0:0,0:0:0:0:
512,160,168322,6,0,L|320:160,1,191.999988555908,8|0,0:0|2:0,0:0:0:0:
288,96,168623,2,0,L|96:96,1,191.999988555908,0|0,0:0|2:0,0:0:0:0:
128,32,168925,2,0,L|0:32,1,127.999992370606,6|0,0:0|0:0,0:0:0:0:
0,32,169377,1,0,0:0:0:0:
32,96,169527,1,12,0:0:0:0:
224,96,169678,1,0,0:0:0:0:
64,160,169829,1,2,0:0:0:0:
192,160,169980,1,8,0:0:0:0:
32,224,170131,6,0,L|160:224,1,127.999992370606,6|0,0:0|0:0,0:0:0:0:
512,224,170734,2,0,L|288:224,1,223.99998664856,0|0,0:0|2:0,0:0:0:0:
256,288,171337,5,2,0:0:0:0:
0,160,171789,1,8,0:0:0:0:
256,32,172241,1,2,0:0:0:0:
0,160,172694,1,8,0:0:0:0:
256,32,173146,1,2,0:0:0:0:
416,96,173447,1,8,0:0:0:0:
256,160,173749,5,6,0:0:0:0:
0,288,174201,1,8,0:0:0:0:
256,384,174653,1,2,0:0:0:0:
0,288,175106,1,8,0:0:0:0:
256,384,175558,1,2,0:0:0:0:
256,288,175709,1,2,0:0:0:0:
352,320,175859,1,8,0:0:0:0:
352,320,176161,5,6,0:0:0:0:
192,224,176463,1,2,0:0:0:0:
96,192,176613,1,8,0:0:0:0:
352,64,177065,1,2,0:0:0:0:
192,160,177367,1,2,0:0:0:0:
96,192,177518,1,8,0:0:0:0:
352,64,177970,1,2,0:0:0:0:
352,160,178121,1,2,0:0:0:0:
448,128,178271,1,8,0:0:0:0:
448,128,178573,6,0,L|288:128,1,159.999990463257,6|0,0:0|0:0,0:0:0:0:
256,192,179025,2,0,L|96:192,1,159.999990463257,6|0,0:0|0:0,0:0:0:0:
64,128,179478,2,0,L|224:128,1,159.999990463257,6|0,0:0|0:0,0:0:0:0:
256,192,179930,2,0,L|416:192,1,159.999990463257,6|0,0:0|0:0,0:0:0:0:
448,128,180382,1,6,0:0:0:0:
256,192,180458,12,0,181890,2:0:0:0:
