osu file format v14

[General]
AudioFilename: TSUBAKI.mp3
AudioLeadIn: 0
PreviewTime: 44991
Countdown: 0
SampleSet: Normal
StackLeniency: 0.2
Mode: 0
LetterboxInBreaks: 0
WidescreenStoryboard: 0

[Editor]
Bookmarks: 84187
DistanceSpacing: 1.2
BeatDivisor: 4
GridSize: 16
TimelineZoom: 1.8728

[Metadata]
Title:TSUBAKI
TitleUnicode:TSUBAKI
Artist:Ocelot
ArtistUnicode:Ocelot
Creator:Hollow Wings
Version:EX EX
Source:
Tags:System JAPAN Rin Ginsuke Function Phantom Enjoy ZZHBOY JJburstOwO Streliteela Minakami Yuki mtbbsben Rizia Kawaiwkyik liangv587 Irreversible EvilElvis -kevincela- fanzhen0019 Moecho smallboat
BeatmapID:800237
BeatmapSetID:364574

[Difficulty]
HPDrainRate:4.8
CircleSize:3.5
OverallDifficulty:8
ApproachRate:9.5
SliderMultiplier:3.19999990463257
SliderTickRate:1

[Events]
//Background and Video events
0,0,"TSUBAKI.jpg",0,0
//Break Periods
2,123296,126189
2,127215,131917
//Storyboard Layer 0 (Background)
//Storyboard Layer 1 (Fail)
//Storyboard Layer 2 (Pass)
//Storyboard Layer 3 (Foreground)
//Storyboard Sound Samples

[TimingPoints]
35056,301.507537688442,4,2,99,70,1,0
35659,-200,4,2,99,70,0,0
45910,-133.333333333333,4,1,99,80,0,0
55558,-200,4,2,99,70,0,0
60382,-133.333333333333,4,2,99,80,0,0
61588,-80,4,2,99,80,0,0
62794,-66.6666666666667,4,2,99,80,0,0
64000,-200,4,2,99,80,0,0
65206,-200,4,1,99,100,0,1
65960,-100,4,1,99,100,0,1
66412,-200,4,1,99,100,0,1
66714,-50,4,1,99,100,0,1
67618,-200,4,1,99,100,0,1
68071,-100,4,1,99,100,0,1
68824,-200,4,1,99,100,0,1
69277,-100,4,1,99,100,0,1
69427,-200,4,1,99,100,0,1
70633,-100,4,1,99,100,0,1
71236,-200,4,1,99,100,0,1
71839,-50,4,1,99,100,0,1
72442,-100,4,1,99,100,0,1
72744,-200,4,1,99,100,0,1
73045,-100,4,1,99,100,0,1
74854,-200,4,1,99,100,0,1
75458,-100,4,1,99,100,0,1
76061,-200,4,1,99,100,0,1
76362,-50,4,1,99,100,0,1
77267,-200,4,1,99,100,0,1
77870,-100,4,1,99,100,0,1
78171,-200,4,1,99,100,0,1
78473,-100,4,1,99,100,0,1
79076,-50,4,1,99,100,0,1
79377,-200,4,1,99,100,0,1
79679,-100,4,1,99,100,0,1
81488,-200,4,1,99,100,0,1
82091,-100,4,1,99,100,0,1
83297,-200,4,1,99,100,0,1
84503,-100,4,1,99,100,0,1
85257,-66.6666666666667,4,1,99,100,0,1
86010,-50,4,1,99,100,0,1
86915,-100,4,1,99,100,0,1
87518,-66.6666666666667,4,1,99,100,0,1
88121,-100,4,1,99,100,0,1
88573,-50,4,1,99,100,0,1
88724,-66.6666666666667,4,1,99,100,0,1
89327,-100,4,1,99,100,0,1
89930,-66.6666666666667,4,1,99,100,0,1
90533,-100,4,1,99,100,0,1
91136,-50,4,1,99,100,0,1
91739,-66.6666666666667,4,1,99,100,0,1
92040,-100,4,1,99,100,0,1
92342,-100,4,1,99,100,0,1
94754,-66.6666666666667,4,1,99,100,0,1
95659,-50,4,1,99,100,0,1
96563,-100,4,1,99,100,0,1
97166,-66.6666666666667,4,1,99,100,0,1
97769,-100,4,1,99,100,0,1
98071,-66.6666666666667,4,1,99,100,0,1
98372,-50,4,1,99,100,0,1
98674,-100,4,1,99,100,0,1
98975,-66.6666666666667,4,1,99,100,0,1
99578,-100,4,1,99,100,0,1
101387,-66.6666666666667,4,1,99,100,0,1
102593,-100,4,1,99,100,0,1
103196,-200,4,1,99,70,0,0
113447,-100,4,1,99,90,0,0
123096,-200,4,2,99,70,0,0
132744,-133.333333333333,4,1,99,70,0,0
142392,-66.6666666666667,4,1,99,70,0,0
142995,-133.333333333333,4,1,99,70,0,0
144804,-66.6666666666667,4,1,99,70,0,0
145407,-133.333333333333,4,1,99,70,0,0
147216,-66.6666666666667,4,1,99,70,0,0
147819,-133.333333333333,4,1,99,70,0,0
149628,-66.6666666666667,4,1,99,70,0,0
150231,-133.333333333333,4,1,99,70,0,0
152040,-200,4,1,99,100,0,1
152794,-100,4,1,99,100,0,1
153246,-200,4,1,99,100,0,1
153548,-50,4,1,99,100,0,1
154452,-200,4,1,99,100,0,1
155055,-100,4,1,99,100,0,1
155659,-200,4,1,99,100,0,1
156111,-100,4,1,99,100,0,1
156262,-200,4,1,99,100,0,1
157468,-100,4,1,99,100,0,1
158071,-200,4,1,99,100,0,1
158674,-50,4,1,99,100,0,1
159277,-100,4,1,99,100,0,1
159578,-200,4,1,99,100,0,1
159880,-100,4,1,99,100,0,1
161689,-200,4,1,99,100,0,1
162292,-100,4,1,99,100,0,1
162895,-200,4,1,99,100,0,1
163196,-50,4,1,99,100,0,1
164327,-66.6666666666667,4,1,99,100,0,1
164553,-100,4,1,99,100,0,1
164779,-200,4,1,99,100,0,1
165005,-66.6666666666667,4,1,99,100,0,1
165307,-100,4,1,99,100,0,1
165910,-50,4,1,99,100,0,1
166211,-200,4,1,99,100,0,1
166513,-100,4,1,99,100,0,1
168322,-200,4,1,99,100,0,1
168925,-100,4,1,99,100,0,1
170131,-200,4,1,99,100,0,1
171337,-200,4,1,99,80,0,0
179025,-100,4,1,99,80,0,0
179478,-66.6666666666667,4,1,99,80,0,0
179930,-50,4,1,99,80,0,0
180382,-400,4,1,99,40,0,0
181890,-400,4,1,99,20,0,0

[Colours]
Combo1 : 201,147,255
Combo2 : 255,55,55
Combo3 : 255,162,162
Combo4 : 255,98,21
Combo5 : 255,199,142
Combo6 : 255,66,160
Combo7 : 255,140,198
Combo8 : 154,53,255

[HitObjects]
16,352,35659,101,0,0:0:0:0:
496,352,35960,1,0,0:0:0:0:
256,352,36262,1,6,0:0:0:0:
96,352,36412,2,0,L|176:352,1,79.9999976158142
336,352,36714,1,8,0:3:0:0:
496,352,36865,2,0,L|336:352,1,159.999995231628,8|0,0:3|0:0,0:0:0:0:
496,352,37468,5,0,0:0:0:0:
496,32,37769,1,2,0:3:0:0:
496,192,38071,2,0,L|336:192,1,159.999995231628
256,192,38523,1,0,0:0:0:0:
96,192,38674,102,0,L|176:192,1,79.9999976158142
336,192,38975,2,0,L|256:192,1,79.9999976158142,8|0,0:3|0:0,0:0:0:0:
96,192,39277,2,0,L|16:192,1,79.9999976158142
256,192,39578,1,0,0:0:0:0:
96,192,39729,1,0,0:0:0:0:
176,32,39880,6,0,L|256:32,1,79.9999976158142,0|2,0:0|0:3,0:0:0:0:
256,72,40106,1,2,0:3:0:0:
256,112,40181,2,0,L|176:112,1,79.9999976158142
336,192,40483,1,2,0:3:0:0:
336,152,40558,1,0,0:0:0:0:
336,112,40633,1,0,0:0:0:0:
496,112,40784,1,0,0:0:0:0:
496,112,41086,102,0,L|416:112,1,79.9999976158142
336,112,41387,1,0,0:0:0:0:
16,112,41538,1,8,0:3:0:0:
16,112,41689,1,8,0:3:0:0:
496,112,41990,1,0,0:0:0:0:
16,112,42292,5,0,0:0:0:0:
176,112,42442,1,0,0:0:0:0:
336,112,42593,1,0,0:0:0:0:
336,112,42895,1,0,0:0:0:0:
176,112,43045,1,2,0:3:0:0:
16,112,43196,1,0,0:0:0:0:
16,112,43347,1,0,0:0:0:0:
16,192,43498,102,0,L|96:192,1,79.9999976158142,2|0,0:3|0:0,0:0:0:0:
176,32,43799,2,0,L|96:32,1,79.9999976158142
176,192,44101,2,0,L|256:192,1,79.9999976158142
336,32,44402,2,0,L|416:32,1,79.9999976158142
336,192,44704,6,0,L|496:192,1,159.999995231628,0|8,0:0|0:3,0:0:0:0:
16,192,45307,1,0,0:0:0:0:
496,192,45608,1,0,0:0:0:0:
256,192,45910,70,0,L|496:192,1,240.000002002716,2|0,0:0|0:0,0:0:0:0:
256,192,46362,1,2,0:0:0:0:
16,192,46513,1,0,0:0:0:0:
496,192,46814,1,8,0:0:0:0:
16,192,47116,6,0,L|256:192,1,240.000002002716,2|0,0:0|0:0,0:0:0:0:
496,192,47568,1,2,0:0:0:0:
496,192,47719,1,0,0:0:0:0:
256,192,47870,1,8,0:0:0:0:
16,192,48020,1,2,0:0:0:0:
496,192,48322,102,0,L|256:192,1,240.000002002716,2|0,0:0|0:0,0:0:0:0:
16,192,48774,1,2,0:0:0:0:
16,192,48925,1,0,0:0:0:0:
496,192,49226,1,8,0:0:0:0:
16,192,49528,6,0,L|136:192,1,120.000001001358,2|0,0:0|0:0,0:0:0:0:
176,192,49754,1,0,0:0:0:0:
216,192,49829,1,0,0:0:0:0:
16,192,49980,1,2,0:0:0:0:
496,192,50131,1,8,0:0:0:0:
16,192,50432,1,0,0:0:0:0:
496,192,50734,102,0,L|256:192,1,240.000002002716,2|0,0:0|0:0,0:0:0:0:
256,192,51186,1,2,0:0:0:0:
16,192,51337,1,0,0:0:0:0:
496,192,51638,1,8,0:0:0:0:
256,192,51940,6,0,L|16:192,1,240.000002002716,2|0,0:0|0:0,0:0:0:0:
16,192,52392,1,2,0:0:0:0:
16,192,52543,1,0,0:0:0:0:
256,192,52694,1,8,0:0:0:0:
15,192,52844,1,2,0:0:0:0:
256,192,53146,102,0,L|496:192,1,240.000002002716,2|0,0:0|0:0,0:0:0:0:
496,192,53598,1,2,0:0:0:0:
496,192,53749,1,0,0:0:0:0:
15,192,54050,1,8,0:0:0:0:
15,192,54352,5,2,0:0:0:0:
95,192,54452,2,0,L|175:192,1,80.0000006675721
416,192,54653,1,0,0:0:0:0:
336,192,54753,2,0,L|256:192,1,80.0000006675721
95,192,54955,1,8,0:0:0:0:
175,192,55055,2,0,L|255:192,1,80.0000006675721
496,192,55257,1,0,0:0:0:0:
416,192,55357,2,0,L|336:192,1,80.0000006675721
255,192,55558,5,2,0:0:0:0:
336,112,55709,1,8,0:0:0:0:
336,272,55860,1,0,0:0:0:0:
255,192,56010,5,8,0:3:0:0:
255,192,56161,1,8,0:3:0:0:
255,192,56463,69,2,0:0:0:0:
176,112,56613,1,8,0:0:0:0:
255,192,56764,5,2,0:0:0:0:
336,112,56915,1,8,0:0:0:0:
336,272,57066,1,0,0:0:0:0:
255,192,57216,5,8,0:0:0:0:
255,192,57367,2,0,L|176:192,1,79.9999976158142
255,192,57669,5,2,0:0:0:0:
255,192,57970,69,2,0:0:0:0:
336,112,58121,1,8,0:0:0:0:
336,272,58272,1,2,0:0:0:0:
255,192,58422,5,8,0:0:0:0:
176,112,58573,1,2,0:0:0:0:
336,112,58724,1,8,0:0:0:0:
255,192,58875,5,2,0:0:0:0:
255,192,59176,5,2,0:0:0:0:
336,112,59327,1,8,0:0:0:0:
336,272,59478,1,2,0:0:0:0:
255,192,59628,69,0,0:0:0:0:
176,272,59779,1,2,0:0:0:0:
336,272,59930,1,8,0:0:0:0:
255,192,60081,5,2,0:0:0:0:
255,192,60382,69,2,0:1:0:0:
376,192,60533,1,8,0:0:0:0:
255,192,60684,2,0,L|135:192,1,120.000001001358,2|8,0:1|0:0,0:0:0:0:
256,272,60985,5,2,0:1:0:0:
376,272,61136,1,8,0:0:0:0:
256,272,61287,2,0,L|136:272,1,120.000001001358,2|8,0:1|0:0,0:0:0:0:
255,192,61588,101,2,0:1:0:0:
456,192,61739,1,8,0:0:0:0:
255,192,61890,2,0,L|56:192,1,199.999994039536,2|8,0:1|0:0,0:0:0:0:
256,112,62191,5,2,0:1:0:0:
458,112,62342,1,8,0:0:0:0:
256,112,62493,2,0,L|57:112,1,199.999994039536,2|8,0:1|0:0,0:0:0:0:
256,352,62794,69,2,0:1:0:0:
496,352,62945,1,2,0:1:0:0:
256,352,63096,1,2,0:1:0:0:
496,352,63246,2,0,L|376:352,1,120.000001001358,2|2,0:1|0:1,0:0:0:0:
496,192,63397,5,2,0:1:0:0:
255,192,63548,1,2,0:1:0:0:
496,192,63699,2,0,L|376:192,1,120.000001001358,2|2,0:1|0:1,0:0:0:0:
496,112,63849,2,0,L|376:112,1,120.000001001358,2|2,0:1|0:1,0:0:0:0:
496,32,64000,70,0,L|16:32,1,479.999985694885,2|0,0:1|0:0,0:0:0:0:
176,352,65206,6,0,L|16:352,1,159.999995231629,6|0,0:0|0:0,0:0:0:0:
296,352,65659,1,0,0:0:0:0:
416,352,65809,1,8,0:0:0:0:
16,352,65960,70,0,L|96:352,1,79.9999976158143,0|0,0:0|2:0,0:0:0:0:
216,352,66111,2,0,L|296:352,1,79.9999976158143,0|0,0:0|2:0,0:0:0:0:
416,352,66262,2,0,L|496:352,1,79.9999976158143,0|0,0:0|2:0,0:0:0:0:
496,272,66412,22,0,L|376:272,1,119.999996423721,2|0,0:0|2:0,0:0:0:0:
496,192,66714,22,0,L|16:192,1,479.999985694885,0|0,0:0|2:0,0:0:0:0:
16,112,67016,2,0,L|496:112,1,479.999985694885,8|0,0:0|2:0,0:0:0:0:
496,272,67317,2,0,L|16:272,1,479.999985694885,0|0,0:0|2:0,0:0:0:0:
16,192,67618,86,0,L|176:192,1,159.999995231629,2|0,0:0|0:0,0:0:0:0:
256,192,68221,86,0,L|336:192,1,79.9999976158143,10|0,0:0|2:0,0:0:0:0:
496,192,68372,2,0,L|416:192,1,79.9999976158143,0|0,0:0|2:0,0:0:0:0:
176,192,68523,2,0,L|16:192,1,159.999995231628,0|0,0:0|2:0,0:0:0:0:
416,192,68824,22,0,L|496:192,1,79.9999976158143,2|0,0:0|2:0,0:0:0:0:
256,192,69050,2,0,L|336:192,1,79.9999976158143,2|0,0:0|2:0,0:0:0:0:
96,192,69277,102,0,L|176:192,1,79.9999976158142,2|2,0:0|0:0,0:0:0:0:
496,192,69427,22,0,L|336:192,1,159.999995231629,8|0,0:0|0:0,0:0:0:0:
176,32,70030,102,0,L|336:32,1,159.999995231629,2|0,0:0|2:0,0:0:0:0:
336,32,70633,86,0,L|416:32,1,79.9999976158142,8|0,0:0|0:0,0:0:0:0:
176,32,70784,2,0,L|96:32,1,79.9999976158142
336,32,70935,2,0,L|256:32,1,79.9999976158142
176,32,71086,2,0,L|256:32,1,79.9999976158142
336,32,71236,22,0,L|456:32,1,119.999996423721,2|0,0:0|2:0,0:0:0:0:
496,112,71538,6,0,L|376:112,1,119.999996423721,0|0,0:0|2:0,0:0:0:0:
296,112,71839,6,0,L|136:112,1,159.999995231628,8|0,0:0|2:0,0:0:0:0:
96,32,71990,2,0,L|256:32,1,159.999995231628,0|0,0:0|2:0,0:0:0:0:
336,192,72141,2,0,L|176:192,1,159.999995231628,0|0,0:0|2:0,0:0:0:0:
336,32,72292,2,0,L|496:32,1,159.999995231628,0|0,0:0|2:0,0:0:0:0:
496,192,72442,54,0,L|416:192,1,79.9999976158142,2|0,0:0|2:0,0:0:0:0:
296,112,72593,2,0,L|216:112,1,79.9999976158142,0|0,0:0|2:0,0:0:0:0:
136,192,72744,22,0,L|16:192,1,119.999996423721,0|0,0:0|2:0,0:0:0:0:
16,272,73045,102,0,L|96:272,1,79.9999976158142,8|0,0:0|2:0,0:0:0:0:
96,352,73196,2,0,L|176:352,1,79.9999976158142,0|0,0:0|2:0,0:0:0:0:
176,272,73347,2,0,L|256:272,1,79.9999976158142,0|0,0:0|2:0,0:0:0:0:
256,352,73498,2,0,L|336:352,1,79.9999976158142,0|0,0:0|2:0,0:0:0:0:
496,352,73648,21,6,0:0:0:0:
496,32,73799,1,0,0:0:0:0:
496,272,73950,1,8,0:0:0:0:
496,112,74101,1,0,0:0:0:0:
256,112,74251,101,2,0:0:0:0:
256,32,74402,1,8,0:0:0:0:
256,272,74553,1,0,0:0:0:0:
256,352,74704,1,0,0:0:0:0:
496,352,74854,6,0,L|336:352,1,159.999995231628,2|0,0:0|0:0,0:0:0:0:
336,352,75307,1,0,0:0:0:0:
16,352,75458,70,0,L|96:352,1,79.9999976158142,8|0,0:0|0:0,0:0:0:0:
256,352,75609,2,0,L|176:352,1,79.9999976158142
416,352,75759,6,0,L|336:352,1,79.9999976158142,2|0,0:0|2:0,0:0:0:0:
176,352,75910,2,0,L|96:352,1,79.9999976158142,0|0,0:0|2:0,0:0:0:0:
16,272,76061,6,0,L|136:272,1,119.999996423721,2|0,0:0|2:0,0:0:0:0:
16,192,76362,22,0,L|496:192,1,479.999985694885,0|0,0:0|2:0,0:0:0:0:
496,112,76664,2,0,L|16:112,1,479.999985694885,8|0,0:0|2:0,0:0:0:0:
16,272,76965,2,0,L|496:272,1,479.999985694885,0|0,0:0|2:0,0:0:0:0:
496,192,77267,86,0,L|336:192,1,159.999995231628,2|0,0:0|0:0,0:0:0:0:
16,192,77870,86,0,L|96:192,1,79.9999976158142,8|0,0:0|2:0,0:0:0:0:
256,192,78020,2,0,L|176:192,1,79.9999976158142,0|0,0:0|2:0,0:0:0:0:
336,192,78171,38,0,L|416:192,1,79.9999976158142,0|0,0:0|2:0,0:0:0:0:
336,192,78473,86,0,L|256:192,1,79.9999976158142,2|0,0:0|0:0,0:0:0:0:
96,192,78623,2,0,L|176:192,1,79.9999976158142,0|2,0:0|0:0,0:0:0:0:
16,192,78774,102,0,L|96:192,1,79.9999976158142,0|0,0:0|2:0,0:0:0:0:
336,192,78925,2,0,L|416:192,1,79.9999976158142,2|2,0:0|0:0,0:0:0:0:
496,112,79076,54,0,L|336:112,1,159.999995231628,0|0,0:0|2:0,0:0:0:0:
176,112,79226,2,0,L|16:112,1,159.999995231628,2|2,0:0|0:0,0:0:0:0:
16,32,79377,86,0,L|136:32,1,119.999996423721,8|0,0:0|2:0,0:0:0:0:
176,112,79679,86,0,L|336:112,1,159.999995231628,2|0,0:0|2:0,0:0:0:0:
16,112,79980,2,0,L|176:112,1,159.999995231628,2|0,0:0|2:0,0:0:0:0:
176,352,80282,6,0,L|96:352,1,79.9999976158142,8|0,0:0|2:0,0:0:0:0:
176,192,80432,2,0,L|96:192,1,79.9999976158142,0|0,0:0|2:0,0:0:0:0:
176,112,80583,2,0,L|336:112,1,159.999995231628,0|2,0:0|0:0,0:0:0:0:
336,352,80885,102,0,L|256:352,1,79.9999976158142,10|0,0:0|2:0,0:0:0:0:
336,192,81035,2,0,L|256:192,1,79.9999976158142,0|0,0:0|2:0,0:0:0:0:
336,112,81186,2,0,L|496:112,1,159.999995231628,0|2,0:0|0:0,0:0:0:0:
496,352,81488,22,0,L|376:352,1,119.999996423721,8|0,0:0|2:0,0:0:0:0:
336,272,81789,2,0,L|216:272,1,119.999996423721,2|0,0:0|2:0,0:0:0:0:
176,352,82091,102,0,L|16:352,1,159.999995231628,12|0,0:0|2:0,0:0:0:0:
16,352,82543,1,2,0:0:0:0:
16,32,82694,1,8,0:0:0:0:
96,32,82844,1,2,0:0:0:0:
96,352,82995,1,0,0:0:0:0:
176,32,83146,1,2,0:0:0:0:
256,32,83297,6,0,L|376:32,1,119.999996423721,6|0,0:0|2:0,0:0:0:0:
416,112,83598,2,0,L|296:112,1,119.999996423721,0|0,0:0|2:0,0:0:0:0:
296,112,83900,6,0,L|16:112,1,279.99999165535,0|0,0:0|2:0,0:0:0:0:
16,192,84503,70,0,L|336:192,1,319.999990463257,6|8,0:0|0:0,0:0:0:0:
336,192,84956,1,0,0:0:0:0:
16,192,85106,1,2,0:0:0:0:
16,112,85257,86,0,L|136:112,1,120.000001001358,2|0,0:0|2:0,0:0:0:0:
316,272,85407,2,0,L|196:272,1,120.000001001358,8|0,0:0|2:0,0:0:0:0:
376,112,85558,2,0,L|496:112,1,120.000001001358,0|0,0:0|2:0,0:0:0:0:
376,352,85709,6,0,L|136:352,1,240.000002002716,2|2,0:0|0:0,0:0:0:0:
16,272,86011,70,0,L|496:272,1,479.999985694885,8|0,0:0|2:0,0:0:0:0:
496,112,86313,2,0,L|16:112,1,479.999985694885,2|0,0:0|2:0,0:0:0:0:
16,352,86614,2,0,L|496:352,1,479.999985694885,8|0,0:0|2:0,0:0:0:0:
496,272,86915,54,0,L|176:272,1,319.999990463257,2|8,0:0|0:0,0:0:0:0:
176,272,87367,1,0,0:0:0:0:
496,192,87518,86,0,L|376:192,1,120.000001001358,2|0,0:0|2:0,0:0:0:0:
136,192,87669,2,0,L|16:192,1,120.000001001358,2|0,0:0|2:0,0:0:0:0:
16,32,87819,2,0,L|136:32,1,120.000001001358,8|0,0:0|2:0,0:0:0:0:
376,32,87970,2,0,L|496:32,1,120.000001001358,0|0,0:0|2:0,0:0:0:0:
496,272,88121,22,0,L|336:272,1,159.999995231628,2|8,0:0|0:0,0:0:0:0:
16,272,88347,2,0,L|176:272,1,159.999995231628,2|0,0:0|2:0,0:0:0:0:
336,272,88574,54,0,L|176:272,1,159.999995231628,0|2,0:0|0:0,0:0:0:0:
16,192,88724,22,0,L|376:192,1,360.000003004074,2|0,0:0|2:0,0:0:0:0:
496,352,89025,2,0,L|136:352,1,360.000003004074,8|0,0:0|2:0,0:0:0:0:
16,272,89327,54,0,L|496:272,1,479.999985694885,2|0,0:0|0:0,0:0:0:0:
496,192,89930,54,0,L|376:192,1,120.000001001358
136,192,90081,2,0,L|256:192,1,120.000001001358,2|0,0:0|0:0,0:0:0:0:
376,192,90231,2,0,L|256:192,1,120.000001001358,8|0,0:0|0:0,0:0:0:0:
16,192,90382,2,0,L|136:192,1,120.000001001358
376,112,90533,54,0,L|136:112,1,239.999992847443,0|0,0:0|2:0,0:0:0:0:
136,32,90834,2,0,L|376:32,1,239.999992847443,8|0,0:0|2:0,0:0:0:0:
496,192,91136,22,0,L|336:192,1,159.999995231628,2|0,0:0|2:0,0:0:0:0:
176,272,91287,2,0,L|336:272,1,159.999995231628,0|0,0:0|2:0,0:0:0:0:
496,112,91438,2,0,L|336:112,1,159.999995231628,8|0,0:0|2:0,0:0:0:0:
16,192,91589,2,0,L|176:192,1,159.999995231628,0|0,0:0|2:0,0:0:0:0:
16,32,91739,22,0,L|136:32,1,120.000001001358,2|0,0:0|2:0,0:0:0:0:
256,192,91890,2,0,L|376:192,1,120.000001001358,0|0,0:0|2:0,0:0:0:0:
496,352,92040,38,0,L|256:352,1,240.000002002716,8|0,0:0|2:0,0:0:0:0:
176,352,92342,102,0,L|256:352,1,79.9999976158142,0|0,0:0|2:0,0:0:0:0:
256,112,92493,2,0,L|176:112,1,79.9999976158142,2|0,0:0|2:0,0:0:0:0:
176,272,92644,2,0,L|256:272,1,79.9999976158142,8|0,0:0|2:0,0:0:0:0:
256,32,92795,2,0,L|176:32,1,79.9999976158142,0|0,0:0|2:0,0:0:0:0:
16,32,92945,21,6,0:0:0:0:
496,32,93096,1,0,0:0:0:0:
496,112,93247,1,8,0:0:0:0:
16,112,93398,1,2,0:0:0:0:
16,352,93548,5,8,0:0:0:0:
16,272,93699,1,2,0:0:0:0:
496,272,93850,1,0,0:0:0:0:
496,352,94001,1,8,0:0:0:0:
176,352,94151,70,0,L|496:352,1,319.999990463257,6|8,0:0|0:0,0:0:0:0:
496,352,94604,1,0,0:0:0:0:
496,192,94755,86,0,L|376:192,1,120.000001001358,2|0,0:0|0:0,0:0:0:0:
136,272,94905,2,0,L|256:272,1,120.000001001358,2|0,0:0|0:0,0:0:0:0:
496,272,95056,6,0,L|376:272,1,120.000001001358,8|0,0:0|2:0,0:0:0:0:
256,192,95206,2,0,L|136:192,1,120.000001001358,0|0,0:0|2:0,0:0:0:0:
376,32,95357,102,0,L|136:32,1,240.000002002716,2|2,0:0|0:0,0:0:0:0:
16,112,95659,86,0,L|496:112,1,479.999985694885,8|0,0:0|2:0,0:0:0:0:
496,272,95961,2,0,L|16:272,1,479.999985694885,2|0,0:0|2:0,0:0:0:0:
16,32,96262,2,0,L|496:32,1,479.999985694885,8|0,0:0|2:0,0:0:0:0:
496,192,96564,54,0,L|176:192,1,319.999990463257,2|8,0:0|0:0,0:0:0:0:
176,192,97015,1,0,0:0:0:0:
176,272,97167,86,0,L|56:272,1,120.000001001358,2|0,0:0|2:0,0:0:0:0:
176,32,97317,2,0,L|56:32,1,120.000001001358,2|0,0:0|2:0,0:0:0:0:
176,352,97468,2,0,L|56:352,1,120.000001001358,8|0,0:0|2:0,0:0:0:0:
176,112,97618,2,0,L|56:112,1,120.000001001358,0|0,0:0|2:0,0:0:0:0:
176,192,97770,22,0,L|256:192,1,79.9999976158142,2|0,0:0|0:0,0:0:0:0:
416,192,97920,2,0,L|496:192,1,79.9999976158142,0|2,0:0|0:0,0:0:0:0:
176,272,98071,86,0,L|296:272,1,120.000001001358,8|0,0:0|2:0,0:0:0:0:
376,112,98222,2,0,L|496:112,1,120.000001001358,0|0,0:0|2:0,0:0:0:0:
176,352,98373,86,0,L|336:352,1,159.999995231628,2|0,0:0|2:0,0:0:0:0:
336,32,98523,2,0,L|496:32,1,159.999995231628,0|0,0:0|2:0,0:0:0:0:
496,272,98674,54,0,L|256:272,1,239.999992847443,8|0,0:0|2:0,0:0:0:0:
376,352,98976,86,0,L|16:352,1,360.000003004074,2|0,0:0|2:0,0:0:0:0:
16,192,99277,2,0,L|376:192,1,360.000003004074,8|0,0:0|2:0,0:0:0:0:
496,272,99579,22,0,L|416:272,1,79.9999976158142,2|0,0:0|2:0,0:0:0:0:
496,112,99729,2,0,L|416:112,1,79.9999976158142,0|0,0:0|2:0,0:0:0:0:
336,272,99880,2,0,L|176:272,1,159.999995231628,8|0,0:0|2:0,0:0:0:0:
336,192,100181,6,0,L|256:192,1,79.9999976158142,2|0,0:0|2:0,0:0:0:0:
336,32,100331,2,0,L|256:32,1,79.9999976158142,2|0,0:0|2:0,0:0:0:0:
176,192,100482,2,0,L|16:192,1,159.999995231628,8|0,0:0|2:0,0:0:0:0:
16,112,100785,102,0,L|256:112,1,239.999992847443,2|0,0:0|2:0,0:0:0:0:
256,272,101086,2,0,L|496:272,1,239.999992847443,8|0,0:0|2:0,0:0:0:0:
496,352,101387,86,0,L|256:352,1,240.000002002716,6|0,0:0|2:0,0:0:0:0:
256,352,101840,1,0,0:0:0:0:
496,352,101991,1,0,0:0:0:0:
496,192,102141,1,2,0:0:0:0:
256,192,102292,1,8,0:0:0:0:
16,192,102443,1,0,0:0:0:0:
16,32,102594,22,0,L|256:32,1,239.999992847443,6|0,0:0|2:0,0:0:0:0:
256,112,102895,2,0,L|16:112,1,239.999992847443,2|0,0:0|2:0,0:0:0:0:
16,192,103196,22,0,L|256:192,1,239.999992847443,0|0,1:0|0:0,0:0:0:0:
256,192,103799,5,2,0:0:0:0:
256,32,104251,101,8,0:3:0:0:
256,192,104402,1,8,0:3:0:0:
256,32,104704,5,8,0:0:0:0:
256,192,105005,1,2,0:0:0:0:
256,192,105458,69,2,0:0:0:0:
256,272,105608,1,4,0:3:0:0:
256,112,105759,1,8,0:0:0:0:
256,352,105910,1,2,0:0:0:0:
256,192,106211,5,2,0:0:0:0:
256,192,106664,5,2,0:0:0:0:
256,32,106814,1,0,0:0:0:0:
256,32,107116,1,8,0:0:0:0:
256,192,107417,5,2,0:0:0:0:
256,352,107568,1,2,0:3:0:0:
256,312,107643,1,2,0:3:0:0:
256,272,107719,1,0,0:0:0:0:
256,192,107870,1,2,0:0:0:0:
256,32,108020,1,8,0:0:0:0:
256,32,108322,1,0,0:0:0:0:
256,192,108623,69,2,0:0:0:0:
256,32,109076,5,8,0:3:0:0:
256,192,109226,1,8,0:3:0:0:
256,32,109528,5,8,0:0:0:0:
256,192,109829,1,2,0:0:0:0:
256,192,110282,5,2,0:0:0:0:
256,112,110432,1,4,0:3:0:0:
256,32,110583,1,8,0:0:0:0:
256,272,110734,1,2,0:0:0:0:
256,192,111035,69,2,0:0:0:0:
256,352,111488,5,2,0:0:0:0:
256,192,111638,1,0,0:0:0:0:
256,32,111940,5,8,0:0:0:0:
256,352,112241,1,6,0:0:0:0:
256,192,112844,5,8,0:0:0:0:
256,192,113447,69,6,0:0:0:0:
16,192,113598,1,0,0:0:0:0:
176,192,113749,2,0,L|96:192,1,79.9999976158142,8|0,0:0|0:0,0:0:0:0:
176,272,113900,2,0,L|96:272,1,79.9999976158142
176,352,114050,2,0,L|16:352,1,159.999995231628,2|0,0:0|0:0,0:0:0:0:
16,112,114352,2,0,L|176:112,1,159.999995231628,8|0,0:0|0:0,0:0:0:0:
176,272,114653,6,0,L|96:272,1,79.9999976158142,2|0,0:0|0:0,0:0:0:0:
256,272,114804,2,0,L|336:272,1,79.9999976158142
336,192,114955,2,0,L|176:192,1,159.999995231628,8|0,0:0|0:0,0:0:0:0:
176,152,115181,1,0,0:0:0:0:
176,112,115257,2,0,L|336:112,1,159.999995231628,2|0,0:0|0:0,0:0:0:0:
496,32,115558,2,0,L|416:32,1,79.9999976158142,8|0,0:0|0:0,0:0:0:0:
416,112,115709,1,2,0:0:0:0:
416,152,115784,1,0,0:0:0:0:
416,192,115860,102,0,L|256:192,1,159.999995231628,2|0,0:0|0:0,0:0:0:0:
256,32,116161,1,8,0:0:0:0:
96,32,116312,1,0,0:0:0:0:
96,72,116387,1,0,0:0:0:0:
96,112,116463,2,0,L|16:112,1,79.9999976158142,2|0,0:0|0:0,0:0:0:0:
96,192,116613,2,0,L|176:192,1,79.9999976158142
96,272,116764,2,0,L|16:272,1,79.9999976158142,8|0,0:0|0:0,0:0:0:0:
96,352,116915,1,0,0:0:0:0:
336,352,117066,6,0,L|176:352,1,159.999995231628,2|0,0:0|0:0,0:0:0:0:
16,352,117367,1,8,0:0:0:0:
16,312,117442,1,0,0:0:0:0:
16,272,117518,1,0,0:0:0:0:
16,232,117593,1,0,0:0:0:0:
16,192,117669,2,0,L|96:192,1,79.9999976158142,2|0,0:0|0:0,0:0:0:0:
256,192,117819,2,0,L|176:192,1,79.9999976158142,2|0,0:0|0:0,0:0:0:0:
16,112,117970,1,8,0:0:0:0:
256,112,118121,2,0,L|176:112,1,79.9999976158142,2|0,0:0|0:0,0:0:0:0:
16,32,118272,102,0,L|176:32,1,159.999995231628,2|0,0:0|0:0,0:0:0:0:
336,32,118573,1,8,0:0:0:0:
496,32,118724,1,0,0:0:0:0:
176,32,118875,2,0,L|336:32,1,159.999995231628,2|0,0:0|0:0,0:0:0:0:
16,192,119176,2,0,L|176:192,1,159.999995231628,8|0,0:0|0:0,0:0:0:0:
496,192,119478,6,0,L|416:192,2,79.9999976158142,2|0|0,0:0|0:0|0:0,0:0:0:0:
336,352,119779,2,0,L|176:352,1,159.999995231628,8|0,0:0|0:0,0:0:0:0:
176,312,120005,1,0,0:0:0:0:
176,272,120081,1,2,0:0:0:0:
336,272,120231,1,0,0:0:0:0:
496,272,120382,1,8,0:0:0:0:
496,112,120533,1,2,0:0:0:0:
496,72,120608,1,0,0:0:0:0:
496,32,120684,102,0,L|336:32,1,159.999995231628,8|2,0:0|0:0,0:0:0:0:
496,352,120985,2,0,L|336:352,1,159.999995231628,8|2,0:0|0:0,0:0:0:0:
336,312,121211,1,2,0:0:0:0:
336,352,121287,2,0,L|176:352,1,159.999995231628,8|2,0:0|0:0,0:0:0:0:
176,312,121513,1,2,0:0:0:0:
176,352,121588,2,0,L|96:352,3,79.9999976158142,8|0|0|0,0:0|0:0|0:0|0:0,0:0:0:0:
56,352,121890,6,0,L|16:352,1,39.9999988079071,2|0,0:0|0:0,0:0:0:0:
56,312,121965,2,0,L|16:312,1,39.9999988079071,2|0,0:0|0:0,0:0:0:0:
56,272,122040,2,0,L|16:272,1,39.9999988079071,2|0,0:0|0:0,0:0:0:0:
56,232,122116,2,0,L|16:232,1,39.9999988079071,2|0,0:0|0:0,0:0:0:0:
56,192,122191,1,2,0:0:0:0:
56,32,122342,1,2,0:0:0:0:
296,32,122493,2,0,L|136:32,1,159.999995231628,8|0,0:0|2:0,0:0:0:0:
296,112,122719,2,0,L|136:112,1,159.999995231628,8|0,0:0|2:0,0:0:0:0:
296,192,122945,1,8,0:0:0:0:
296,272,123096,5,2,0:1:0:0:
336,192,126714,5,0,0:0:0:0:
176,192,127015,1,0,0:0:0:0:
256,352,132442,102,0,L|176:352,1,79.9999976158142,2|0,0:1|0:0,0:0:0:0:
496,352,132744,6,0,L|336:352,1,160.000001335144,6|0,0:0|0:0,0:0:0:0:
336,272,133045,2,0,L|496:272,1,160.000001335144
336,112,133347,2,0,L|496:112,1,160.000001335144,2|0,0:0|0:0,0:0:0:0:
496,192,133648,2,0,L|336:192,1,160.000001335144
336,32,133950,102,0,L|176:32,1,160.000001335144,2|0,0:0|0:0,0:0:0:0:
176,112,134251,2,0,L|16:112,1,160.000001335144
176,272,134553,2,0,L|16:272,1,160.000001335144,2|0,0:0|0:0,0:0:0:0:
96,192,134854,2,0,L|176:192,1,80.0000006675721,2|0,0:3|0:0,0:0:0:0:
96,352,135156,6,0,L|256:352,1,160.000001335144,2|0,0:0|0:0,0:0:0:0:
256,272,135458,2,0,L|416:272,1,160.000001335144
256,112,135759,2,0,L|416:112,1,160.000001335144,2|0,0:0|0:0,0:0:0:0:
416,32,136061,2,0,L|256:32,1,160.000001335144
256,192,136362,101,2,0:0:0:0:
256,112,136463,2,0,L|176:112,1,80.0000006675721
176,272,136664,2,0,L|16:272,1,160.000001335144
16,192,136965,2,0,L|176:192,1,160.000001335144,2|0,0:0|0:0,0:0:0:0:
256,272,137267,2,0,L|336:272,1,80.0000006675721,2|0,0:3|0:0,0:0:0:0:
176,352,137568,6,0,L|336:352,1,160.000001335144,6|0,0:0|0:0,0:0:0:0:
336,272,137870,2,0,L|176:272,1,160.000001335144
336,112,138171,2,0,L|176:112,1,160.000001335144,2|0,0:0|0:0,0:0:0:0:
176,192,138473,2,0,L|336:192,1,160.000001335144
336,32,138774,102,0,L|176:32,1,160.000001335144,2|0,0:0|0:0,0:0:0:0:
176,112,139076,2,0,L|336:112,1,160.000001335144
176,272,139377,2,0,L|336:272,1,160.000001335144,2|0,0:0|0:0,0:0:0:0:
256,352,139679,2,0,L|176:352,1,80.0000006675721,2|0,0:3|0:0,0:0:0:0:
336,272,139980,6,0,L|496:272,1,160.000001335144,2|0,0:0|0:0,0:0:0:0:
496,352,140282,2,0,L|336:352,1,160.000001335144
176,192,140583,2,0,L|16:192,1,160.000001335144,2|0,0:0|0:0,0:0:0:0:
16,272,140885,2,0,L|176:272,1,160.000001335144
256,272,141186,1,2,0:0:0:0:
256,272,141387,37,0,0:0:0:0:
176,272,141488,1,0,0:0:0:0:
176,272,141689,5,0,0:0:0:0:
96,272,141790,1,2,0:0:0:0:
96,272,141990,101,0,0:0:0:0:
16,272,142091,1,2,0:3:0:0:
96,352,142292,5,0,0:0:0:0:
176,352,142392,2,0,L|496:352,1,320.000002670288,6|0,0:0|0:0,0:0:0:0:
496,352,142694,1,0,0:0:0:0:
496,192,142895,37,0,0:0:0:0:
416,192,142995,2,0,L|256:192,1,160.000001335144,10|0,0:0|0:0,0:0:0:0:
256,112,143297,2,0,L|96:112,1,160.000001335144
16,112,143598,1,0,0:0:0:0:
176,192,143799,53,0,0:0:0:0:
96,192,143900,1,0,0:0:0:0:
96,192,144101,5,0,0:0:0:0:
176,192,144202,1,10,0:0:0:0:
176,192,144402,101,0,0:0:0:0:
96,192,144503,1,2,0:3:0:0:
96,192,144704,5,0,0:0:0:0:
176,192,144804,2,0,L|496:192,1,320.000002670288,2|0,0:0|0:0,0:0:0:0:
496,192,145106,1,0,0:0:0:0:
496,32,145307,37,0,0:0:0:0:
416,32,145407,2,0,L|256:32,1,160.000001335144,10|0,0:0|0:0,0:0:0:0:
256,112,145709,2,0,L|96:112,1,160.000001335144
96,272,146010,5,2,0:0:0:0:
96,192,146111,2,0,L|16:192,1,80.0000006675721
176,192,146312,1,0,0:0:0:0:
256,192,146513,37,0,0:0:0:0:
176,192,146613,1,10,0:0:0:0:
256,192,146814,5,0,0:0:0:0:
336,192,146915,2,0,L|416:192,1,80.0000006675721,2|0,0:3|0:0,0:0:0:0:
416,192,147216,102,0,L|96:192,1,320.000002670288,6|0,0:0|0:0,0:0:0:0:
96,192,147518,1,0,0:0:0:0:
96,352,147719,53,0,0:0:0:0:
176,352,147819,2,0,L|336:352,1,160.000001335144,10|0,0:0|0:0,0:0:0:0:
336,272,148121,2,0,L|176:272,1,160.000001335144
96,272,148422,1,2,0:0:0:0:
256,192,148623,5,0,0:0:0:0:
176,192,148724,1,0,0:0:0:0:
256,192,148925,101,0,0:0:0:0:
336,192,149025,1,10,0:0:0:0:
256,192,149226,5,0,0:0:0:0:
176,192,149327,2,0,L|96:192,1,80.0000006675721,2|0,0:3|0:0,0:0:0:0:
16,192,149528,37,0,0:0:0:0:
96,192,149628,2,0,L|416:192,1,320.000002670288,6|0,0:0|0:0,0:0:0:0:
416,192,149930,1,0,0:0:0:0:
416,352,150131,53,0,0:0:0:0:
336,352,150231,2,0,L|176:352,1,160.000001335144,14|0,0:0|0:0,0:0:0:0:
176,272,150533,2,0,L|336:272,1,160.000001335144
416,272,150834,1,6,0:0:0:0:
496,272,151035,53,0,0:0:0:0:
416,272,151136,1,0,0:0:0:0:
336,272,151337,5,0,0:0:0:0:
416,272,151437,1,0,0:0:0:0:
496,272,151638,37,0,0:0:0:0:
416,272,151739,2,0,L|256:272,1,160.000001335144
256,192,152040,6,0,L|416:192,1,159.999995231629,6|0,0:0|0:0,0:0:0:0:
496,192,152493,1,0,0:0:0:0:
256,192,152643,1,8,0:0:0:0:
16,192,152794,70,0,L|96:192,1,79.9999976158143,0|0,0:0|2:0,0:0:0:0:
256,192,152945,2,0,L|176:192,1,79.9999976158143,0|0,0:0|2:0,0:0:0:0:
416,192,153096,2,0,L|496:192,1,79.9999976158143,0|0,0:0|2:0,0:0:0:0:
376,112,153246,22,0,L|496:112,1,119.999996423721,2|0,0:0|2:0,0:0:0:0:
496,32,153548,22,0,L|16:32,1,479.999985694885,0|0,0:0|2:0,0:0:0:0:
16,112,153850,2,0,L|496:112,1,479.999985694885,8|0,0:0|2:0,0:0:0:0:
496,272,154151,2,0,L|16:272,1,479.999985694885,0|0,0:0|2:0,0:0:0:0:
16,352,154452,86,0,L|176:352,1,159.999995231629,2|0,0:0|0:0,0:0:0:0:
256,352,155055,86,0,L|176:352,1,79.9999976158143,8|0,0:0|2:0,0:0:0:0:
416,352,155206,2,0,L|336:352,1,79.9999976158143,0|0,0:0|2:0,0:0:0:0:
176,352,155357,2,0,L|16:352,1,159.999995231628,0|0,0:0|2:0,0:0:0:0:
16,272,155659,22,0,L|96:272,1,79.9999976158143,2|0,0:0|2:0,0:0:0:0:
176,272,155884,2,0,L|256:272,1,79.9999976158143,0|0,0:0|2:0,0:0:0:0:
416,272,156111,102,0,L|336:272,1,79.9999976158142,2|2,0:0|0:0,0:0:0:0:
16,272,156262,22,0,L|176:272,1,159.999995231629,8|0,0:0|0:0,0:0:0:0:
496,272,156864,102,0,L|336:272,1,159.999995231629,2|0,0:0|2:0,0:0:0:0:
336,192,157468,86,0,L|256:192,1,79.9999976158142,8|0,0:0|0:0,0:0:0:0:
256,32,157619,2,0,L|336:32,1,79.9999976158142
416,192,157770,2,0,L|336:192,1,79.9999976158142
176,32,157921,2,0,L|256:32,1,79.9999976158142
256,192,158071,22,0,L|136:192,1,119.999996423721,2|0,0:0|2:0,0:0:0:0:
56,112,158372,6,0,L|176:112,1,119.999996423721,0|0,0:0|2:0,0:0:0:0:
256,112,158674,6,0,L|416:112,1,159.999995231628,8|0,0:0|2:0,0:0:0:0:
336,272,158824,2,0,L|496:272,1,159.999995231628,0|0,0:0|2:0,0:0:0:0:
496,32,158975,2,0,L|336:32,1,159.999995231628,0|0,0:0|2:0,0:0:0:0:
256,192,159126,2,0,L|96:192,1,159.999995231628,0|0,0:0|2:0,0:0:0:0:
176,352,159277,54,0,L|96:352,1,79.9999976158142,2|0,0:0|2:0,0:0:0:0:
16,192,159427,2,0,L|96:192,1,79.9999976158142,0|0,0:0|2:0,0:0:0:0:
176,32,159578,22,0,L|56:32,1,119.999996423721,0|0,0:0|2:0,0:0:0:0:
136,112,159880,102,0,L|56:112,1,79.9999976158142,8|0,0:0|2:0,0:0:0:0:
296,112,160030,2,0,L|376:112,1,79.9999976158142,0|0,0:0|2:0,0:0:0:0:
416,32,160181,2,0,L|496:32,1,79.9999976158142,0|0,0:0|2:0,0:0:0:0:
256,32,160332,2,0,L|176:32,1,79.9999976158142,0|0,0:0|2:0,0:0:0:0:
336,192,160482,21,6,0:0:0:0:
496,192,160633,1,0,0:0:0:0:
416,32,160784,1,8,0:0:0:0:
256,192,160935,1,0,0:0:0:0:
96,192,161085,101,2,0:0:0:0:
336,192,161236,1,8,0:0:0:0:
496,192,161387,1,0,0:0:0:0:
256,192,161538,1,0,0:0:0:0:
96,192,161689,6,0,L|256:192,1,159.999995231628,6|0,0:0|0:0,0:0:0:0:
416,192,162141,1,0,0:0:0:0:
416,352,162292,70,0,L|336:352,1,79.9999976158142,8|0,0:0|0:0,0:0:0:0:
416,272,162443,2,0,L|336:272,1,79.9999976158142
256,272,162593,6,0,L|176:272,1,79.9999976158142,0|0,0:0|2:0,0:0:0:0:
16,272,162744,2,0,L|96:272,1,79.9999976158142,0|0,0:0|2:0,0:0:0:0:
16,352,162895,6,0,L|136:352,1,119.999996423721,2|0,0:0|2:0,0:0:0:0:
16,272,163196,22,0,L|496:272,1,479.999985694885,0|0,0:0|2:0,0:0:0:0:
496,192,163498,2,0,L|16:192,1,479.999985694885,8|0,0:0|2:0,0:0:0:0:
16,32,163799,2,0,L|496:32,1,479.999985694885,0|0,0:0|2:0,0:0:0:0:
496,112,164101,6,0,L|336:112,1,159.999995231628,6|0,0:0|2:0,0:0:0:0:
376,192,164327,6,0,L|496:192,1,120.000001001358,2|0,0:0|2:0,0:0:0:0:
496,272,164553,22,0,L|416:272,1,79.9999976158142,2|0,0:0|2:0,0:0:0:0:
456,352,164779,22,0,L|496:352,1,39.9999988079071,2|0,0:0|2:0,0:0:0:0:
296,352,165005,70,0,L|236:352,1,60.0000005006791,8|0,0:0|2:0,0:0:0:0:
416,352,165307,6,0,L|336:352,1,79.9999976158142,6|0,0:0|0:0,0:0:0:0:
416,272,165457,2,0,L|336:272,1,79.9999976158142
256,272,165608,6,0,L|176:272,1,79.9999976158142,0|0,0:0|2:0,0:0:0:0:
16,272,165759,2,0,L|96:272,1,79.9999976158142,0|0,0:0|2:0,0:0:0:0:
176,352,165910,38,0,L|16:352,1,159.999995231628,8|0,0:0|2:0,0:0:0:0:
16,192,166061,2,0,L|176:192,1,159.999995231628,0|0,0:0|2:0,0:0:0:0:
376,192,166211,86,0,L|496:192,1,119.999996423721,0|0,0:0|2:0,0:0:0:0:
496,112,166513,86,0,L|336:112,1,159.999995231628,2|0,0:0|2:0,0:0:0:0:
16,352,166814,2,0,L|176:352,1,159.999995231628
176,192,167116,6,0,L|96:192,1,79.9999976158142,8|0,0:0|2:0,0:0:0:0:
376,192,167266,2,0,L|456:192,1,79.9999976158142,0|0,0:0|2:0,0:0:0:0:
176,272,167417,2,0,L|16:272,1,159.999995231628,0|0,0:0|2:0,0:0:0:0:
176,112,167719,102,0,L|96:112,1,79.9999976158142,2|0,0:0|2:0,0:0:0:0:
376,112,167869,2,0,L|456:112,1,79.9999976158142,0|0,0:0|2:0,0:0:0:0:
176,192,168020,2,0,L|16:192,1,159.999995231628,0|2,0:0|0:0,0:0:0:0:
376,32,168322,22,0,L|496:32,1,119.999996423721,8|0,0:0|2:0,0:0:0:0:
376,112,168623,2,0,L|496:112,1,119.999996423721,0|0,0:0|2:0,0:0:0:0:
376,192,168925,102,0,L|216:192,1,159.999995231628,6|0,0:0|0:0,0:0:0:0:
216,192,169377,1,0,0:0:0:0:
496,192,169528,1,12,0:0:0:0:
496,32,169678,1,0,0:0:0:0:
496,272,169829,1,2,0:0:0:0:
496,112,169980,1,8,0:0:0:0:
496,352,170131,22,0,L|376:352,1,119.999996423721,6|0,0:0|2:0,0:0:0:0:
416,272,170432,2,0,L|296:272,1,119.999996423721,0|0,0:0|2:0,0:0:0:0:
296,272,170734,102,0,L|16:272,1,279.99999165535,0|0,0:0|2:0,0:0:0:0:
16,192,171337,6,0,L|96:192,2,79.9999976158142,2|0|0,0:0|0:0|0:0,0:0:0:0:
496,112,171789,2,0,L|416:112,2,79.9999976158142,8|0|0,0:0|0:0|0:0,0:0:0:0:
16,272,172241,2,0,L|96:272,2,79.9999976158142,2|0|0,0:0|0:0|0:0,0:0:0:0:
496,192,172693,2,0,L|416:192,2,79.9999976158142,8|0|0,0:0|0:0|0:0,0:0:0:0:
16,352,173146,2,0,L|96:352,1,79.9999976158142,2|0,0:0|0:0,0:0:0:0:
496,272,173447,2,0,L|416:272,1,79.9999976158142,8|0,0:0|0:0,0:0:0:0:
496,352,173749,102,0,L|416:352,2,79.9999976158142,6|0|0,0:0|0:0|0:0,0:0:0:0:
16,112,174201,2,0,L|96:112,2,79.9999976158142,8|0|0,0:0|0:0|0:0,0:0:0:0:
496,272,174653,2,0,L|416:272,2,79.9999976158142,2|0|0,0:0|0:0|0:0,0:0:0:0:
16,192,175105,2,0,L|96:192,2,79.9999976158142,8|0|0,0:0|0:0|0:0,0:0:0:0:
496,192,175558,1,2,0:0:0:0:
496,192,175709,1,2,0:0:0:0:
16,272,175859,2,0,L|96:272,1,79.9999976158142,8|0,0:0|0:0,0:0:0:0:
16,352,176161,6,0,L|96:352,1,79.9999976158142,6|0,0:0|0:0,0:0:0:0:
176,352,176463,1,2,0:0:0:0:
496,272,176613,2,0,L|416:272,2,79.9999976158142,8|0|0,0:0|0:0|0:0,0:0:0:0:
16,272,177066,2,0,L|96:272,1,79.9999976158142,2|8,0:0|0:0,0:0:0:0:
176,272,177367,1,2,0:0:0:0:
496,192,177518,2,0,L|416:192,2,79.9999976158142,8|0|8,0:0|0:0|0:0,0:0:0:0:
16,192,177970,1,2,0:0:0:0:
16,192,178121,1,2,0:0:0:0:
496,112,178272,2,0,L|416:112,1,79.9999976158142,8|0,0:0|0:0,0:0:0:0:
496,352,178573,102,0,L|296:352,1,199.999994039536,6|0,0:0|0:0,0:0:0:0:
216,352,179025,86,0,B|16:352|16:352|16:272|16:272|135:272,1,399.999988079071,6|0,0:0|0:0,0:0:0:0:
216,272,179478,86,0,B|496:272|496:272|496:192|496:192|256:192,1,600.000005006791,6|0,0:0|0:0,0:0:0:0:
176,192,179930,86,0,B|16:192|16:192|16:112|16:112|496:112|496:112|496:32,1,799.999976158142,6|0,0:0|0:0,0:0:0:0:
416,32,180382,6,0,L|16:32,1,399.999988079071,6|0,0:0|2:0,0:0:0:0:
