osu file format v14

[General]
AudioFilename: audio.mp3
AudioLeadIn: 0
PreviewTime: 78082
Countdown: 0
SampleSet: Soft
StackLeniency: 0.7
Mode: 0
LetterboxInBreaks: 0
WidescreenStoryboard: 1

[Editor]
DistanceSpacing: 0.6
BeatDivisor: 4
GridSize: 32
TimelineZoom: 1.699999

[Metadata]
Title:KAEDE
TitleUnicode:KAEDE
Artist:Ocelot
ArtistUnicode:Ocelot
Creator:Hollow Wings
Version:Skystar's EX
Source:
Tags:japan diverse system dubstep Hatsune Miku DJ Ginsuke Ocelot SiSTEMA Function Phantom Thinktech fanzhen0019 Kalindraz Kawashiro Moecho Koiyuki Minakami Yuki mtbbsben Skystar Amamiya Yuko Irreversible
BeatmapID:1439336
BeatmapSetID:660630

[Difficulty]
HPDrainRate:4.8
CircleSize:4
OverallDifficulty:10
ApproachRate:9.5
SliderMultiplier:3.19999990463257
SliderTickRate:1

[Events]
//Background and Video events
0,0,"KAEDE.jpg",0,0
//Break Periods
2,100059,109320
2,110906,121015
//Storyboard Layer 0 (Background)
//Storyboard Layer 1 (Fail)
//Storyboard Layer 2 (Pass)
//Storyboard Layer 3 (Foreground)
//Storyboard Sound Samples

[TimingPoints]
2233,338.983050847458,4,2,99,80,1,0
23927,-200,4,2,99,80,0,0
44944,-400,4,2,99,80,0,0
45622,-400,4,2,99,70,0,0
47995,-200,4,2,99,70,0,0
48334,-400,4,2,99,70,0,0
50707,-100,4,2,99,70,0,0
51046,-200,4,2,99,80,0,0
52233,-100,4,2,99,80,0,0
52402,-200,4,2,99,80,0,0
53588,-100,4,2,99,80,0,0
53758,-400,4,2,99,80,0,0
55114,-100,4,2,99,80,0,0
56131,-400,4,2,99,80,0,0
56470,-57.1428571428571,4,1,99,100,0,1
57317,-66.6666666666667,4,1,99,100,0,0
57656,-200,4,1,99,100,0,0
57826,-66.6666666666667,4,1,99,100,0,0
57995,-66.6666666666667,4,1,99,100,0,0
58165,-57.1428571428571,4,1,99,100,0,0
58504,-133.333333333333,4,1,99,100,0,0
59182,-57.1428571428571,4,1,99,100,0,1
60029,-100,4,1,99,100,0,0
60199,-200,4,1,99,100,0,0
60538,-66.6666666666667,4,1,99,100,0,0
60877,-200,4,1,99,100,0,0
61216,-50,4,1,99,100,0,0
61555,-100,4,1,99,100,0,0
61894,-57.1428571428571,4,1,99,100,0,1
62741,-66.6666666666667,4,1,99,100,0,0
63080,-200,4,1,99,100,0,0
63249,-66.6666666666667,4,1,99,100,0,0
63927,-50,4,1,99,100,0,0
64266,-200,4,1,99,100,0,0
64605,-50,4,1,99,100,0,1
64944,-400,4,1,99,100,0,1
65283,-50,4,1,99,100,0,1
65622,-200,4,1,99,100,0,1
65961,-66.6666666666667,4,1,99,100,0,0
66300,-200,4,1,99,100,0,0
66639,-100,4,1,99,100,0,0
67317,-57.1428571428571,4,1,99,100,0,1
68165,-66.6666666666667,4,1,99,100,0,0
68503,-200,4,1,99,100,0,0
68673,-66.6666666666667,4,1,99,100,0,0
68842,-66.6666666666667,4,1,99,100,0,0
69012,-57.1428571428571,4,1,99,100,0,0
69351,-133.333333333333,4,1,99,100,0,0
70029,-57.1428571428571,4,1,99,100,0,1
70877,-100,4,1,99,100,0,0
71046,-200,4,1,99,100,0,0
71385,-66.6666666666667,4,1,99,100,0,0
71724,-200,4,1,99,100,0,0
72063,-50,4,1,99,100,0,0
72402,-100,4,1,99,100,0,0
72741,-57.1428571428571,4,1,99,100,0,1
73588,-66.6666666666667,4,1,99,100,0,0
73927,-200,4,1,99,100,0,0
74096,-66.6666666666667,4,1,99,100,0,0
74775,-50,4,1,99,100,0,0
75453,-400,4,1,99,100,0,1
76131,-200,4,1,99,100,0,1
76469,-100,4,1,99,100,0,1
76809,-66.6666666666667,4,1,99,100,0,0
77147,-200,4,1,99,100,0,0
77486,-100,4,1,99,100,0,0
78164,-100,4,1,99,100,0,0
78165,-400,4,1,99,80,0,0
80199,-50,4,1,99,80,0,0
80877,-400,4,1,99,80,0,0
82910,-50,4,1,99,80,0,0
83588,-400,4,1,99,80,0,0
85622,-50,4,1,99,80,0,0
87148,-200,4,1,99,80,0,0
87656,-50,4,1,99,80,0,0
88334,-200,4,1,99,80,0,0
89012,-400,4,1,99,80,0,0
91046,-50,4,1,99,80,0,0
91724,-400,4,1,99,80,0,0
93757,-50,4,1,99,80,0,0
94435,-100,4,1,99,80,0,0
95453,-66.6666666666667,4,1,99,80,0,0
95792,-100,4,1,99,80,0,0
96469,-50,4,1,99,80,0,0
97995,-200,4,1,99,80,0,0
98503,-50,4,1,99,80,0,0
99181,-200,4,1,99,80,0,0
99860,-200,4,2,99,60,0,0
121555,-200,4,2,99,80,0,0
142572,-400,4,2,99,80,0,0
143249,-400,4,2,99,70,0,0
145622,-200,4,2,99,70,0,0
145961,-400,4,2,99,70,0,0
148335,-100,4,2,99,70,0,0
148673,-200,4,2,99,80,0,0
149860,-100,4,2,99,80,0,0
150029,-200,4,2,99,80,0,0
151215,-100,4,2,99,80,0,0
151385,-400,4,2,99,80,0,0
152741,-100,4,2,99,80,0,0
153758,-400,4,2,99,80,0,0
154097,-57.1428571428571,4,1,99,100,0,1
154436,-133.333333333333,4,1,99,100,0,1
154775,-66.6666666666667,4,1,99,100,0,1
154944,-133.333333333333,4,1,99,100,0,1
155453,-50,4,1,99,100,0,1
156300,-200,4,1,99,100,0,1
156809,-57.1428571428571,4,1,99,100,0,1
157487,-66.6666666666667,4,1,99,100,0,1
157656,-133.333333333333,4,1,99,100,0,1
158165,-50,4,1,99,100,0,1
158843,-50,4,1,99,100,0,1
159012,-400,4,1,99,100,0,1
159521,-57.1428571428571,4,1,99,100,0,1
159860,-200,4,1,99,100,0,1
160199,-66.6666666666667,4,1,99,100,0,1
160368,-133.333333333333,4,1,99,100,0,1
160877,-50,4,1,99,100,0,1
161724,-200,4,1,99,100,0,1
162233,-50,4,1,99,100,0,1
162571,-400,4,1,99,100,0,1
162910,-50,4,1,99,100,0,1
163249,-200,4,1,99,100,0,1
163588,-66.6666666666667,4,1,99,100,0,1
163927,-200,4,1,99,100,0,1
164266,-100,4,1,99,100,0,1
164944,-57.1428571428571,4,1,99,100,0,1
165283,-133.333333333333,4,1,99,100,0,1
165622,-66.6666666666667,4,1,99,100,0,1
165791,-133.333333333333,4,1,99,100,0,1
166300,-50,4,1,99,100,0,1
167147,-200,4,1,99,100,0,1
167656,-57.1428571428571,4,1,99,100,0,1
168334,-66.6666666666667,4,1,99,100,0,1
168503,-133.333333333333,4,1,99,100,0,1
169012,-50,4,1,99,100,0,1
169859,-400,4,1,99,100,0,1
170368,-57.1428571428571,4,1,99,100,0,1
170707,-200,4,1,99,100,0,1
171046,-66.6666666666667,4,1,99,100,0,1
171215,-133.333333333333,4,1,99,100,0,1
171724,-50,4,1,99,100,0,1
172571,-200,4,1,99,100,0,1
173080,-50,4,1,99,100,0,1
173418,-400,4,1,99,100,0,1
173757,-50,4,1,99,100,0,1
174096,-200,4,1,99,100,0,1
174435,-66.6666666666667,4,1,99,100,0,1
174774,-200,4,1,99,100,0,1
175113,-100,4,1,99,100,0,1
175792,-400,4,1,99,80,0,0
177825,-50,4,1,99,80,0,0
178503,-400,4,1,99,80,0,0
180536,-50,4,1,99,80,0,0
181214,-400,4,1,99,80,0,0
183248,-50,4,1,99,80,0,0
184775,-200,4,1,99,80,0,0
185282,-50,4,1,99,80,0,0
185960,-200,4,1,99,80,0,0
186638,-400,4,1,99,80,0,0
188672,-50,4,1,99,80,0,0
189350,-400,4,1,99,80,0,0
191383,-50,4,1,99,80,0,0
192061,-100,4,1,99,80,0,0
193079,-66.6666666666667,4,1,99,80,0,0
193418,-100,4,1,99,80,0,0
194095,-50,4,1,99,80,0,0
195621,-200,4,1,99,80,0,0
196129,-50,4,1,99,80,0,0
196807,-200,4,1,99,80,0,0
197487,-200,4,2,99,60,0,0

[Colours]
Combo1 : 255,255,128
Combo2 : 91,173,255
Combo3 : 255,128,128
Combo4 : 255,128,64

[HitObjects]
18,340,23927,6,0,P|180:348|342:103,1,479.999985694885,6|0,0:0|0:0,0:0:0:0:
477,197,25283,2,0,P|305:240|22:138,1,479.999985694885,2|0,0:0|0:0,0:0:0:0:
309,67,26639,2,0,P|167:247|368:137,1,639.999980926514,2|2,0:0|0:0,0:0:0:0:
502,269,29351,6,0,B|455:274|455:274|419:260|419:260|350:312|350:312|20:375,1,479.999985694885,2|0,0:0|0:0,0:0:0:0:
119,230,30707,2,0,B|70:223|70:223|493:147,1,479.999985694885,2|0,0:0|0:0,0:0:0:0:
500,57,32063,2,0,B|416:88|416:88|403:191|403:191|487:243|487:243|494:160|494:160|346:67|346:67|332:167,1,639.999980926514,2|2,0:0|0:0,0:0:0:0:
160,43,34775,6,0,B|227:130|197:279|197:279|97:188|90:60,1,479.999985694885,6|0,0:0|0:0,0:0:0:0:
35,339,36131,2,0,B|134:277|157:147|157:147|223:258|360:280,1,479.999985694885,2|0,0:0|0:0,0:0:0:0:
397,104,37487,2,0,B|455:106|481:167|481:167|513:88|426:0|426:0|350:7|288:75|301:173|301:173|340:206|404:188,1,639.999980926514,2|2,0:0|0:0,0:0:0:0:
36,374,40199,6,0,P|158:333|345:36,1,479.999985694885,2|0,0:0|0:0,0:0:0:0:
474,228,41555,2,0,P|329:131|16:115,1,479.999985694885,2|0,0:0|0:0,0:0:0:0:
373,152,42910,2,0,P|215:305|311:86,1,639.999980926514,2|2,0:0|0:0,0:0:0:0:
210,203,45622,6,0,P|217:166|214:120,6,79.9999976158142,2|0|0|0|0|0|0,0:0|0:0|0:0|0:0|0:0|0:0|0:0,0:0:0:0:
210,203,47995,2,0,P|165:196|114:200,1,79.9999976158142,2|2,0:0|0:0,0:0:0:0:
24,334,48334,6,0,P|63:326|103:327,7,79.9999976158142,2|0|0|0|0|0|0|2,0:0|0:0|0:0|0:0|0:0|0:0|0:0|0:0,0:0:0:0:
103,327,50877,2,0,P|93:286|97:205,1,79.9999976158142,2|2,0:0|0:0,0:0:0:0:
129,177,51046,6,0,P|88:166|7:170,6,79.9999976158142,2|0|0|0|0|0|0,0:0|0:0|0:0|0:0|0:0|0:0|0:0,0:0:0:0:
184,238,52233,2,0,P|219:249|301:254,1,79.9999976158142,2|2,0:0|0:0,0:0:0:0:
325,206,52402,6,0,P|360:198|434:161,6,79.9999976158142,2|0|0|0|0|0|0,0:0|0:0|0:0|0:0|0:0|0:0|0:0,0:0:0:0:
443,97,53588,2,0,P|417:58|404:8,1,79.9999976158142,2|2,0:0|0:0,0:0:0:0:
328,42,53758,6,0,P|327:29|329:13,15,19.9999994039536,2|0|8|2|2|0|8|2|2|0|8|2|2|0|8|2,0:0|0:0|0:0|0:0|0:0|0:0|0:0|0:0|0:0|0:0|0:0|0:0|0:0|0:0|0:0|0:0,0:0:0:0:
336,62,55114,6,0,P|246:37|3:37,2,319.999990463257,2|0|0,0:0|0:0|0:0,0:0:0:0:
250,74,56131,2,0,L|248:85,1,9.99999970197678,0|0,0:0|0:0,0:0:0:0:
170,34,56470,6,0,B|458:7|458:7|412:228|412:228|367:195,2,559.999988651276,6|2|8,0:0|0:0|0:0,0:0:0:0:
150,118,57317,2,0,B|339:100|339:100|256:151,1,240.000002002716,0|2,0:0|0:0,0:0:0:0:
296,126,57656,2,0,L|288:186,1,39.9999988079071,0|0,0:0|0:0,0:0:0:0:
277,258,57826,6,0,P|316:261|260:239,1,240.000002002716,0|0,0:0|0:0,0:0:0:0:
389,358,58165,2,0,P|272:280|-12:248,1,419.999991488457,0|0,0:0|0:0,0:0:0:0:
68,173,58504,6,0,P|90:223|89:304,3,120.000001001358,8|0|0|2,0:0|0:0|0:0|0:0,0:0:0:0:
21,326,59182,6,0,P|246:320|481:31,2,559.999988651276,2|2|8,0:0|0:0|0:0,0:0:0:0:
84,234,60029,2,0,P|86:213|55:148,1,79.9999976158142,0|0,0:0|0:0,0:0:0:0:
39,81,60199,2,0,P|18:85|-12:81,3,39.9999988079071,0|0|0|0,0:0|0:0|0:0|0:0,0:0:0:0:
39,81,60538,6,0,P|104:57|354:84,1,240.000002002716,2|0,0:0|0:0,0:0:0:0:
338,107,60877,2,0,P|354:70|347:18,1,79.9999976158142,2|2,0:0|0:0,0:0:0:0:
351,31,61216,6,0,P|405:122|236:96,3,319.999990463257,8|0|8|0,0:0|0:0|0:0|0:0,0:0:0:0:
328,222,61894,6,0,B|124:126|22:313|22:313|153:342|191:195,2,559.999988651276,4|2|8,0:0|0:0|0:0,0:0:0:0:
419,209,62741,2,0,P|315:251|206:354,1,240.000002002716,0|2,0:0|0:0,0:0:0:0:
220,334,63080,2,0,P|244:333|298:339,1,39.9999988079071,0|0,0:0|0:0,0:0:0:0:
361,367,63249,6,0,P|365:308|359:248,1,120.000001001358,2|0,0:0|0:0,0:0:0:0:
444,383,63419,2,0,P|459:326|463:266,1,120.000001001358,0|0,0:0|0:0,0:0:0:0:
501,194,63588,6,0,P|393:225|116:112,1,360.000003004074
70,146,63927,2,0,P|138:118|500:176,1,319.999990463257,8|2,0:0|0:0,0:0:0:0:
380,117,64266,6,0,P|365:153|342:261,1,119.999996423721,2|0,0:0|0:0,0:0:0:0:
419,276,64605,6,0,B|473:227|473:227|-8:319,1,479.999985694885,2|0,0:0|0:0,0:0:0:0:
14,207,64944,6,0,P|0:233|0:263,1,59.9999982118607,8|0,0:0|0:0,0:0:0:0:
73,303,65283,6,0,P|65:173|192:-4,1,319.999990463257,2|8,0:0|0:0,0:0:0:0:
243,36,65622,2,0,P|247:62|239:86,3,39.9999988079071,0|0|0|0,0:0|0:0|0:0|0:0,0:0:0:0:
243,36,65961,6,0,B|421:17|421:17|432:99,1,240.000002002716,12|0,0:0|0:0,0:0:0:0:
439,167,66300,2,0,L|429:213,1,39.9999988079071,8|0,0:3|0:0,0:0:0:0:
439,167,66470,2,0,L|461:216,1,39.9999988079071,0|0,0:0|0:0,0:0:0:0:
456,288,66639,6,0,B|358:307|358:307|261:249|261:249|211:326|211:326|6:375,1,479.999985694885,2|0,0:0|0:0,0:0:0:0:
40,366,67317,6,0,B|152:254|152:254|122:54|122:54|41:257,2,559.999988651276,6|2|8,0:0|0:0|0:0,0:0:0:0:
120,330,68165,2,0,P|206:302|385:352,1,240.000002002716
350,329,68504,2,0,P|353:311|347:261,1,39.9999988079071,0|0,0:0|0:0,0:0:0:0:
375,206,68673,6,0,P|391:143|345:212,1,240.000002002716,2|0,0:0|0:0,0:0:0:0:
426,52,69012,2,0,P|336:109|7:94,1,419.999991488457,0|0,0:0|0:0,0:0:0:0:
32,106,69351,6,0,P|109:60|186:56,3,120.000001001358,8|0|2|0,0:0|0:0|0:0|0:0,0:0:0:0:
174,133,70029,6,0,B|333:89|487:227|487:227|412:152|406:6,2,559.999988651276,2|2|8,0:0|0:0|0:0,0:0:0:0:
174,133,70877,2,0,B|168:158|168:158|176:174|176:174|164:228,1,79.9999976158142
156,291,71046,2,0,P|134:298|108:320,3,39.9999988079071,0|0|0|0,0:0|0:0|0:0|0:0,0:0:0:0:
156,291,71385,6,0,P|277:272|457:321,1,240.000002002716,2|0,0:0|0:0,0:0:0:0:
398,210,71724,2,0,P|353:217|310:263,1,79.9999976158142,0|2,0:0|0:0,0:0:0:0:
392,292,72063,6,0,P|349:188|502:214,3,319.999990463257,8|0|8|0,0:0|0:0|0:0|0:0,0:0:0:0:
481,114,72741,6,0,B|442:81|454:23|454:23|329:24|223:174|302:343|469:345,2,559.999988651276,2|2|8,0:0|0:0|0:0,0:0:0:0:
429,175,73588,2,0,P|309:121|144:115,1,240.000002002716,0|0,0:0|0:0,0:0:0:0:
202,108,73927,2,0,P|180:113|143:131,1,39.9999988079071,0|0,0:0|0:0,0:0:0:0:
96,180,74097,6,0,P|135:203|109:312,1,120.000001001358,2|0,0:0|0:0,0:0:0:0:
96,180,74266,2,0,P|119:219|228:192,1,120.000001001358,0|0,0:0|0:0,0:0:0:0:
219,303,74436,2,0,P|303:301|497:118,1,360.000003004074,0|0,0:0|0:0,0:0:0:0:
495,123,74775,6,0,P|441:91|450:167,1,159.999995231628,8|0,0:0|0:0,0:0:0:0:
435,161,74944,2,0,P|372:149|407:217,1,159.999995231628,0|0,0:0|0:0,0:0:0:0:
391,217,75114,2,0,P|297:165|7:190,1,319.999990463257,2|0,0:0|0:0,0:0:0:0:
75,175,75453,6,0,L|75:267,1,79.9999976158142,2|0,0:0|0:0,0:0:0:0:
159,175,76131,6,0,L|159:267,1,79.9999976158142,0|0,0:0|0:0,0:0:0:0:
243,175,76470,6,0,L|243:267,3,79.9999976158142,0|0|0|0,0:0|0:0|0:0|0:0,0:0:0:0:
256,276,76809,6,0,P|331:206|513:174,1,240.000002002716,6|0,0:0|0:0,0:0:0:0:
479,81,77148,2,0,P|462:73|431:73,1,39.9999988079071,8|0,0:3|0:0,0:0:0:0:
479,81,77317,2,0,P|459:79|441:71,1,39.9999988079071,0|0,0:0|0:0,0:0:0:0:
359,45,77487,6,0,B|260:10|137:115|163:284|313:282|374:161|249:66,1,479.999985694885,2|0,0:0|0:0,0:0:0:0:
195,39,78165,6,0,B|129:17|129:17|57:48,1,139.999995827675,6|0,0:0|0:0,0:0:0:0:
64,44,78843,2,0,L|75:131,1,79.9999976158142,8|0,0:0|0:0,0:0:0:0:
195,39,79521,2,0,L|178:192,1,139.999995827675,2|0,0:0|0:0,0:0:0:0:
197,229,80199,6,0,P|225:149|188:231,3,319.999990463257,8|0|2|0,0:0|0:0|0:0|0:0,0:0:0:0:
162,309,80877,6,0,P|202:309|290:264,1,139.999995827675,2|0,0:0|0:0,0:0:0:0:
347,209,81555,2,0,P|373:235|365:276,1,79.9999976158142,8|0,0:0|0:0,0:0:0:0:
162,309,82233,2,0,P|129:273|141:185,1,139.999995827675,2|0,0:0|0:0,0:0:0:0:
156,138,82910,6,0,P|184:218|147:136,3,319.999990463257,8|0|8|0,0:0|0:0|0:0|0:0,0:0:0:0:
236,154,83588,6,0,L|384:137,1,139.999995827675,6|0,0:0|0:0,0:0:0:0:
375,138,84266,2,0,P|369:113|367:47,1,79.9999976158142,8|0,0:0|0:0,0:0:0:0:
438,22,84944,2,0,P|462:93|454:165,1,139.999995827675,2|0,0:0|0:0,0:0:0:0:
472,209,85622,6,0,P|500:129|463:211,3,319.999990463257,8|0|2|0,0:0|0:0|0:0|0:0,0:0:0:0:
489,292,86300,6,0,B|496:27|496:27|391:36|391:36|461:296,2,639.999980926514,6|8|2,0:0|0:0|0:0,0:0:0:0:
461,296,87148,2,0,P|378:279|313:283,1,119.999996423721,8|0,0:0|0:0,0:0:0:0:
343,279,87487,2,0,P|344:259|342:239,1,39.9999988079071,2|2,0:0|0:0,0:0:0:0:
269,216,87656,6,0,P|297:296|260:214,3,319.999990463257,6|8|8|2,0:0|0:0|0:3|0:0,0:0:0:0:
178,226,88334,6,0,P|91:217|15:91,1,239.999992847443,8|0,0:0|0:0,0:0:0:0:
14,96,89012,6,0,B|71:88|71:88|100:95|100:95|153:88,1,139.999995827675,6|0,0:0|0:0,0:0:0:0:
216,43,89690,2,0,B|247:70|247:70|224:112,1,79.9999976158142,8|0,0:0|0:0,0:0:0:0:
228,104,90368,2,0,L|370:93,1,139.999995827675,2|0,0:0|0:0,0:0:0:0:
446,97,91046,6,0,B|367:157|367:157|352:37|352:37|444:75,3,319.999990463257,8|0|2|0,0:0|0:0|0:0|0:0,0:0:0:0:
446,97,91724,6,0,B|472:122|472:122|459:241,1,139.999995827675,2|0,0:0|0:0,0:0:0:0:
472,245,92402,2,0,L|392:254,1,79.9999976158142,8|0,0:0|0:0,0:0:0:0:
392,254,93080,2,0,B|398:313|398:313|319:322,1,139.999995827675,2|0,0:0|0:0,0:0:0:0:
238,323,93758,6,0,B|317:263|317:263|332:383|332:383|239:344,3,319.999990463257,8|0|8|0,0:0|0:0|0:0|0:0,0:0:0:0:
238,323,94436,6,0,B|94:342|94:342|258:206,2,319.999990463257,6|2|10,0:0|0:0|0:0,0:0:0:0:
229,230,95453,2,0,B|248:153|232:71|169:47|119:122|228:172,1,240.000002002716,2|2,0:0|0:0,0:0:0:0:
195,152,95792,2,0,P|320:175|529:74,1,319.999990463257,2|2,0:0|0:0,0:0:0:0:
496,107,96470,6,0,B|417:47|417:47|402:167|402:167|494:128,3,319.999990463257,10|0|8|2,0:0|0:0|0:3|0:0,0:0:0:0:
494,128,97148,6,0,B|389:366|389:366|507:383|507:383|448:115,2,639.999980926514,6|0|0,0:0|0:0|0:0,0:0:0:0:
451,128,97995,2,0,B|412:134|412:134|386:156|386:156|329:167,1,119.999996423721,0|0,0:0|0:0,0:0:0:0:
340,165,98334,2,0,L|349:208,1,39.9999988079071,0|0,0:0|0:0,0:0:0:0:
299,292,98504,6,0,B|378:352|378:352|393:232|393:232|300:270,3,319.999990463257,6|0|8|0,0:0|0:0|0:3|0:0,0:0:0:0:
348,204,99182,6,0,B|309:176|236:191|222:245|222:245|261:198|247:126|202:97,1,319.999990463257,2|6,0:0|0:1,0:0:0:0:
91,108,109860,6,0,P|74:113|52:135,1,39.9999988079071,2|2,0:0|0:0,0:0:0:0:
91,108,110029,2,0,P|111:151|116:201,1,79.9999976158142,2|0,0:0|0:0,0:0:0:0:
129,264,110368,2,0,P|98:269|49:224,2,79.9999976158142,2|0|6,0:0|0:0|0:1,0:0:0:0:
79,279,121555,6,0,B|97:303|101:329|101:329|139:273|129:172|87:126|87:126|152:194|220:200|277:161,1,479.999985694885,6|0,0:0|0:0,0:0:0:0:
345,123,122910,2,0,B|396:101|424:65|414:21|414:21|364:57|412:170|368:245|310:259|310:259|341:236|349:189,1,479.999985694885,0|0,0:0|0:0,0:0:0:0:
443,231,124266,2,0,B|391:243|338:306|338:306|349:148|415:95|415:95|306:59|226:52|226:52|272:36|309:43,1,639.999980926514,0|0,0:0|0:0,0:0:0:0:
308,42,126978,6,0,B|250:61|154:37|154:37|238:69|304:140|304:140|356:84|441:85,1,479.999985694885,0|0,0:0|0:0,0:0:0:0:
445,264,128334,2,0,B|505:235|479:141|377:136|345:220|345:220|390:376|390:376|367:345|319:328,1,479.999985694885,0|0,0:0|0:0,0:0:0:0:
327,331,129690,2,0,B|378:333|426:366|426:366|365:267|298:217|249:225|249:225|294:249|389:227|438:175|438:175|431:218|445:264,1,639.999980926514,0|0,0:0|0:0,0:0:0:0:
27,367,132402,6,0,P|233:288|504:235,1,479.999985694885,4|0,0:0|0:0,0:0:0:0:
485,151,133758,2,0,B|446:151|400:162|400:162|437:63|437:63|286:124|286:124|329:177|329:177|300:180|267:192,1,479.999985694885,0|0,0:0|0:0,0:0:0:0:
273,189,135114,2,0,B|317:133|317:133|299:15|299:15|184:176|184:176|243:318|243:318|320:255,1,639.999980926514,0|0,0:0|0:0,0:0:0:0:
318,256,137826,6,0,B|157:232|88:62|88:62|154:146|233:144,1,479.999985694885,0|0,0:0|0:0,0:0:0:0:
302,169,139182,2,0,B|140:193|71:363|71:363|137:279|216:281,1,479.999985694885,0|0,0:0|0:0,0:0:0:0:
292,276,140538,2,0,B|365:248|455:279|490:364|490:364|441:349|377:248|356:148|371:69|371:69|402:108|436:121,1,639.999980926514
173,138,143249,6,0,P|157:102|148:49,6,79.9999976158142,6|0|0|0|0|0|0,0:0|0:0|0:0|0:0|0:0|0:0|0:0,0:0:0:0:
173,138,145622,2,0,P|182:103|241:90,1,79.9999976158142,2|2,0:0|0:0,0:0:0:0:
333,159,145961,6,0,P|294:163|255:156,7,79.9999976158142,2|0|0|0|0|0|0|2,0:0|0:0|0:0|0:0|0:0|0:0|0:0|0:0,0:0:0:0:
254,156,148504,2,0,P|285:183|270:235,1,79.9999976158142,2|2,0:0|0:0,0:0:0:0:
187,300,148673,6,0,P|189:257|215:202,6,79.9999976158142,2|0|0|0|0|0|0,0:0|0:0|0:0|0:0|0:0|0:0|0:0,0:0:0:0:
187,300,149860,2,0,P|206:269|276:295,1,79.9999976158142,2|2,0:0|0:0,0:0:0:0:
339,350,150029,6,0,P|298:343|225:351,6,79.9999976158142,2|0|0|0|0|0|0,0:0|0:0|0:0|0:0|0:0|0:0|0:0,0:0:0:0:
339,350,151216,2,0,P|374:369|422:341,1,79.9999976158142,2|2,0:0|0:0,0:0:0:0:
473,298,151385,6,0,P|465:283|463:269,15,19.9999994039536,2|0|8|2|2|0|8|2|2|0|8|2|2|0|8|2,0:0|0:0|0:0|0:0|0:0|0:0|0:0|0:0|0:0|0:0|0:0|0:0|0:0|0:0|0:0|0:0,0:0:0:0:
395,237,152741,6,0,B|503:256|503:256|460:97|460:97|419:132,2,319.999990463257,2|0|0,0:0|0:0|0:0,0:0:0:0:
313,224,153758,2,0,L|317:211,1,9.99999970197678,0|0,0:0|0:0,0:0:0:0:
231,211,154097,6,0,B|90:205|27:341|27:341|72:286|121:259|210:251,1,419.999991488457,6|0,0:0|0:0,0:0:0:0:
99,211,154436,6,0,P|84:147|171:80,1,180.000001502037,10|0,0:0|0:0,0:0:0:0:
192,1,154775,2,0,P|235:16|200:108,1,120.000001001358,0|0,0:0|0:0,0:0:0:0:
231,211,154944,6,0,P|257:266|215:313,1,120.000001001358,2|8,0:0|0:0,0:0:0:0:
286,151,155283,2,0,P|258:130|213:138,1,60.0000005006791,0|0,0:0|0:0,0:0:0:0:
161,258,155453,6,0,P|297:226|506:225,1,319.999990463257,2|0,0:0|0:0,0:0:0:0:
476,221,155792,2,0,P|286:79|328:352,1,639.999980926514,8|0,0:0|0:0,0:0:0:0:
346,276,156300,6,0,P|349:255|334:226,2,39.9999988079071,2|0|8,0:0|0:0|0:0,0:0:0:0:
346,276,156639,2,0,P|330:261|323:229,1,39.9999988079071,2|0,0:0|0:0,0:0:0:0:
273,174,156809,6,0,B|433:127|433:127|477:362|477:362|318:369,2,559.999988651276,2|10|0,0:0|0:0|0:0,0:0:0:0:
106,105,157656,2,0,P|121:149|69:214,1,120.000001001358,2|8,0:0|0:0,0:0:0:0:
35,275,157995,2,0,P|7:253|12:213,1,60.0000005006791,0|0,0:0|0:0,0:0:0:0:
85,208,158165,6,0,P|186:171|471:186,1,319.999990463257,2|0,0:0|0:0,0:0:0:0:
396,165,158504,2,0,P|358:315|161:94,1,639.999980926514,8|8,0:0|0:3,0:0:0:0:
160,95,159012,6,0,L|152:52,2,39.9999988079071,8|0|2,0:0|0:0|0:0,0:0:0:0:
30,190,159521,6,0,P|131:254|480:249,1,419.999991488457,6|0,0:0|0:0,0:0:0:0:
497,217,159860,2,0,P|444:172|356:226,1,159.999995231628,10|0,0:0|0:0,0:0:0:0:
424,271,160368,6,0,P|424:212|452:125,1,120.000001001358,2|8,0:0|0:0,0:0:0:0:
446,47,160707,2,0,P|474:60|491:107,1,60.0000005006791,0|0,0:0|0:0,0:0:0:0:
439,153,160877,6,0,P|343:115|49:108,1,319.999990463257,2|0,0:0|0:0,0:0:0:0:
128,94,161216,2,0,P|308:172|81:154,1,639.999980926514,8|0,0:0|0:0,0:0:0:0:
166,176,161724,6,0,L|178:224,2,39.9999988079071,2|0|8,0:0|0:0|0:0,0:0:0:0:
166,176,162063,2,0,L|206:205,1,39.9999988079071,2|0,0:0|0:0,0:0:0:0:
236,274,162233,6,0,B|362:180|511:277|511:277|417:227|312:265,1,479.999985694885,6|0,0:0|0:0,0:0:0:0:
285,198,162571,2,0,P|259:184|223:185,1,59.9999982118607,10|0,0:0|0:0,0:0:0:0:
236,274,162910,6,0,B|287:175|203:38|203:38|216:71|201:132,1,319.999990463257,2|8,0:0|0:0,0:0:0:0:
128,80,163249,2,0,P|100:91|61:85,3,39.9999988079071,0|0|2|2,0:0|0:0|0:0|0:0,0:0:0:0:
206,107,163588,6,0,B|293:87|293:87|336:104|336:104|479:70,1,240.000002002716,12|8,0:0|0:0,0:0:0:0:
438,80,163927,2,0,P|442:109|425:126,1,39.9999988079071,8|0,0:3|0:0,0:0:0:0:
438,80,164097,2,0,P|424:105|434:127,1,39.9999988079071,2|0,0:0|0:0,0:0:0:0:
445,207,164266,6,0,B|492:285|492:285|391:366|391:366|365:187|365:187|287:300,1,479.999985694885,10|0,0:0|0:0,0:0:0:0:
246,330,164944,6,0,B|50:355|50:355|19:119,1,419.999991488457,6|0,0:0|0:0,0:0:0:0:
21,134,165283,6,0,L|204:150,1,180.000001502037,10|0,0:0|0:0,0:0:0:0:
233,76,165622,2,0,P|178:60|142:134,1,120.000001001358,0|0,0:0|0:0,0:0:0:0:
160,261,165792,6,0,P|170:202|200:150,1,120.000001001358,2|8,0:0|0:0,0:0:0:0:
294,16,166131,2,0,P|316:39|304:94,1,60.0000005006791,0|0,0:0|0:0,0:0:0:0:
359,138,166300,6,0,P|198:79|38:80,1,319.999990463257,2|0,0:0|0:0,0:0:0:0:
51,77,166639,2,0,P|269:113|37:167,1,639.999980926514,8|0,0:0|0:0,0:0:0:0:
61,262,167148,6,0,P|61:286|45:314,2,39.9999988079071,2|0|8,0:0|0:0|0:0,0:0:0:0:
61,262,167487,2,0,P|69:284|93:305,1,39.9999988079071,2|0,0:0|0:0,0:0:0:0:
86,375,167656,6,0,P|267:348|415:10,2,559.999988651276,2|10|0,0:0|0:0|0:0,0:0:0:0:
88,256,168504,2,0,P|119:320|204:340,1,120.000001001358,2|8,0:0|0:0,0:0:0:0:
373,373,168843,2,0,P|390:349|372:280,1,60.0000005006791,0|0,0:0|0:0,0:0:0:0:
286,251,169012,6,0,B|210:261|161:341|161:341|252:369|316:318,1,319.999990463257,2|0,0:0|0:0,0:0:0:0:
313,319,169351,2,0,P|245:161|463:288,1,639.999980926514,8|2,0:0|0:0,0:0:0:0:
393,319,169860,6,0,L|385:273,2,39.9999988079071,8|0|0,0:0|0:0|0:0,0:0:0:0:
313,319,170368,6,0,B|218:242|60:260|32:311|56:358|112:365|145:323|107:213,1,419.999991488457,2|0,0:0|0:0,0:0:0:0:
65,145,170707,2,0,P|133:170|239:168,1,159.999995231628,10|0,0:0|0:0,0:0:0:0:
252,93,171216,6,0,P|195:82|154:123,1,120.000001001358,2|8,0:0|0:0,0:0:0:0:
72,89,171555,2,0,P|59:127|93:170,1,60.0000005006791,0|0,0:0|0:0,0:0:0:0:
220,172,171724,6,0,B|344:148|486:199|486:199|409:216,1,319.999990463257,2|0,0:0|0:0,0:0:0:0:
370,260,172063,2,0,P|472:144|307:249,1,639.999980926514,8|0,0:0|0:0,0:0:0:0:
245,316,172571,2,0,P|267:328|277:352,2,39.9999988079071,2|0|8,0:0|0:0|0:0,0:0:0:0:
245,316,172910,2,0,P|222:303|212:279,1,39.9999988079071,2|0,0:0|0:0,0:0:0:0:
162,360,173080,6,0,B|133:327|71:329|71:329|161:265|281:313|231:352|348:404|433:338,1,479.999985694885,6|0,0:0|0:0,0:0:0:0:
478,270,173419,2,0,P|470:236|444:212,1,59.9999982118607,10|0,0:0|0:0,0:0:0:0:
314,167,173758,6,0,P|287:224|368:158,1,319.999990463257,0|0,0:0|0:0,0:0:0:0:
388,168,174097,2,0,P|396:135|425:116,3,39.9999988079071,0|0|0|0,0:0|0:0|0:0|0:0,0:0:0:0:
494,44,174436,6,0,B|409:56|409:56|388:47|388:47|372:61|372:61|229:88,1,240.000002002716,12|0,0:0|0:0,0:0:0:0:
161,96,174775,2,0,L|172:158,1,39.9999988079071,8|0,0:3|0:0,0:0:0:0:
161,96,174944,2,0,L|153:56,1,39.9999988079071,0|0,0:0|0:0,0:0:0:0:
58,110,175114,6,0,B|12:165|12:165|440:190,1,479.999985694885,0|0,0:0|0:0,0:0:0:0:
457,264,175792,6,0,P|391:275|348:225,1,139.999995827675,6|0,0:0|0:0,0:0:0:0:
431,110,176470,2,0,P|423:143|420:190,1,79.9999976158142,8|0,0:0|0:0,0:0:0:0:
280,182,177148,2,0,P|296:236|303:324,1,139.999995827675,2|0,0:0|0:0,0:0:0:0:
221,328,177826,6,0,B|161:353|161:353|116:310|116:310|143:249|143:249|212:260|212:260|219:328,3,319.999990463257,8|0|2|0,0:0|0:0|0:0|0:0,0:0:0:0:
218,316,178504,6,0,P|281:315|362:332,1,139.999995827675,2|0,0:0|0:0,0:0:0:0:
426,377,179182,2,0,B|451:347|451:347|429:298,1,79.9999976158142,8|0,0:0|0:0,0:0:0:0:
218,316,179860,2,0,P|281:315|362:332,1,139.999995827675,2|0,0:0|0:0,0:0:0:0:
434,310,180538,6,0,B|375:284|375:284|330:327|330:327|357:388|357:388|426:377|426:377|433:310,3,319.999990463257,8|0|8|0,0:0|0:0|0:0|0:0,0:0:0:0:
431,320,181216,6,0,L|446:177,1,139.999995827675,6|0,0:0|0:0,0:0:0:0:
445,181,181894,2,0,L|352:195,1,79.9999976158142,8|0,0:0|0:0,0:0:0:0:
339,280,182571,2,0,L|189:301,1,139.999995827675,2|0,0:0|0:0,0:0:0:0:
133,263,183249,6,0,B|192:289|192:289|237:246|237:246|210:185|210:185|141:196|141:196|134:263,3,319.999990463257,8|0|2|0,0:0|0:0|0:0|0:0,0:0:0:0:
134,115,183927,6,0,B|354:137|354:137|31:180|31:180|106:124,2,639.999980926514,6|8|2,0:0|0:0|0:0,0:0:0:0:
393,63,184775,2,0,P|441:95|420:169,1,119.999996423721,8|0,0:0|0:0,0:0:0:0:
487,220,185114,2,0,P|465:232|425:232,1,39.9999988079071,2|2,0:0|0:0,0:0:0:0:
384,287,185283,6,0,B|443:261|443:261|488:304|488:304|461:365|461:365|392:354|392:354|385:287,3,319.999990463257,12|8|8|2,0:0|0:0|0:3|0:0,0:0:0:0:
386,297,185961,6,0,B|346:294|346:294|271:325|271:325|193:310|193:310|155:322,1,239.999992847443,12|0,0:0|0:0,0:0:0:0:
80,359,186639,6,0,P|52:313|94:230,1,139.999995827675,6|0,0:0|0:0,0:0:0:0:
66,160,187317,2,0,P|104:155|138:186,1,79.9999976158142,8|0,0:0|0:0,0:0:0:0:
205,352,187995,2,0,P|265:364|321:299,1,139.999995827675,2|0,0:0|0:0,0:0:0:0:
338,241,188673,6,0,B|234:183|234:183|315:160|315:160|257:263,3,319.999990463257,8|0|2|0,0:0|0:0|0:0|0:0,0:0:0:0:
258,262,189351,6,0,P|201:260|116:274,1,139.999995827675,2|0,0:0|0:0,0:0:0:0:
63,213,190029,2,0,P|92:188|146:193,1,79.9999976158142,8|0,0:0|0:0,0:0:0:0:
258,262,190707,2,0,P|315:263|380:313,1,139.999995827675,2|0,0:0|0:0,0:0:0:0:
379,312,191385,6,0,B|482:254|482:254|401:231|401:231|459:334,3,319.999990463257,8|0|8|0,0:0|0:0|0:0|0:0,0:0:0:0:
459,333,192063,6,0,B|431:90|431:90|478:154,2,319.999990463257,6|2|10,0:0|0:0|0:0,0:0:0:0:
476,151,193080,2,0,B|505:123|505:123|264:157,1,240.000002002716,2|2,0:0|0:0,0:0:0:0:
185,139,193419,2,0,B|95:162|95:162|339:259,1,319.999990463257,2|2,0:0|0:0,0:0:0:0:
306,245,194097,6,0,B|409:302|409:302|328:325|328:325|386:222,3,319.999990463257,6|0|8|2,0:0|0:0|0:3|0:0,0:0:0:0:
353,124,194775,6,0,B|439:20|439:20|360:38|360:38|313:239|313:239|235:269|235:269|318:165,2,639.999980926514,6|0|0,0:0|0:0|0:0,0:0:0:0:
318,164,195622,2,0,P|260:179|185:146,1,119.999996423721,0|0,0:0|0:0,0:0:0:0:
204,161,195961,2,0,P|195:133|197:98,1,39.9999988079071,0|0,0:0|0:0,0:0:0:0:
135,61,196131,6,0,B|31:118|31:118|112:141|112:141|54:38,3,319.999990463257,6|0|0|0,0:0|0:0|0:0|0:0,0:0:0:0:
194,124,196809,6,0,B|233:196|193:287|98:296|98:296|128:258|166:250,1,319.999990463257,0|6,0:0|0:1,0:0:0:0:
