osu file format v14

[General]
AudioFilename: audio.mp3
AudioLeadIn: 0
PreviewTime: 78082
Countdown: 0
SampleSet: None
StackLeniency: 0.2
Mode: 0
LetterboxInBreaks: 0
WidescreenStoryboard: 1

[Editor]
DistanceSpacing: 1
BeatDivisor: 16
GridSize: 8
TimelineZoom: 4.199998

[Metadata]
Title:KAEDE
TitleUnicode:KAEDE
Artist:Ocelot
ArtistUnicode:Ocelot
Creator:Hollow Wings
Version:Moecho's EX
Source:
Tags:japan diverse system dubstep Hatsune Miku DJ Ginsuke Ocelot SiSTEMA Function Phantom Thinktech fanzhen0019 Kalindraz Kawashiro Moecho Koiyuki Minakami Yuki mtbbsben Skystar Amamiya Yuko Irreversible
BeatmapID:1551210
BeatmapSetID:660630

[Difficulty]
HPDrainRate:5
CircleSize:4.2
OverallDifficulty:7.5
ApproachRate:9.3
SliderMultiplier:3.49999990463257
SliderTickRate:1

[Events]
//Background and Video events
0,0,"KAEDE.jpg",0,0
//Break Periods
2,100060,103373
2,105483,109306
2,110907,114221
//Storyboard Layer 0 (Background)
//Storyboard Layer 1 (Fail)
//Storyboard Layer 2 (Pass)
//Storyboard Layer 3 (Foreground)
//Storyboard Sound Samples

[TimingPoints]
2233,338.983050847458,4,2,2,60,1,0
2233,-250,4,2,2,60,0,0
2571,-250,4,2,3,60,0,0
2910,-250,4,2,2,60,0,0
3249,-250,4,2,3,60,0,0
3588,-250,4,2,2,60,0,0
3927,-250,4,2,3,60,0,0
4266,-250,4,2,2,60,0,0
4605,-250,4,2,3,60,0,0
4944,-250,4,2,2,60,0,0
5283,-250,4,2,3,60,0,0
5622,-250,4,2,2,60,0,0
5961,-250,4,2,3,60,0,0
6300,-250,4,2,4,40,0,0
6639,-250,4,2,6,80,0,0
6809,-250,4,2,2,40,0,0
7148,-250,4,2,4,40,0,0
7487,-250,4,2,4,20,0,0
7656,-250,4,2,2,60,0,0
7995,-250,4,2,3,60,0,0
8334,-250,4,2,2,60,0,0
8673,-250,4,2,3,60,0,0
9012,-250,4,2,2,60,0,0
9351,-250,4,2,3,60,0,0
9690,-250,4,2,2,60,0,0
10029,-250,4,2,3,60,0,0
10368,-250,4,2,2,60,0,0
10707,-250,4,2,3,60,0,0
11046,-250,4,2,2,60,0,0
11385,-250,4,2,3,60,0,0
11724,-250,4,2,4,40,0,0
12233,-250,4,2,4,20,0,0
13080,-400,4,2,98,40,0,0
13165,-400,4,2,98,20,0,0
13758,-333.333333333333,4,2,98,40,0,0
13843,-333.333333333333,4,2,98,20,0,0
14436,-285.714285714286,4,2,98,40,0,0
14521,-285.714285714286,4,2,98,20,0,0
15114,-250,4,2,98,50,0,0
15199,-250,4,2,98,25,0,0
15792,-222.222222222222,4,2,98,60,0,0
15877,-222.222222222222,4,2,98,30,0,0
16470,-200,4,2,98,70,0,0
16555,-200,4,2,98,35,0,0
17148,-133.333333333333,4,2,4,50,0,0
17233,-133.333333333333,4,2,98,40,0,0
17487,-133.333333333333,4,2,6,100,0,0
17571,-133.333333333333,4,2,98,40,0,0
17826,-133.333333333333,4,2,2,60,0,0
17910,-133.333333333333,4,2,98,40,0,0
17995,-133.333333333333,4,2,4,50,0,0
18080,-133.333333333333,4,2,98,40,0,0
18504,-100,4,2,98,80,0,0
18525,-100,4,2,98,5,0,0
19860,-100,4,2,98,80,0,0
19881,-100,4,2,98,10,0,0
20538,-100,4,2,98,80,0,0
20559,-100,4,2,98,10,0,0
20877,-100,4,2,98,80,0,0
20898,-100,4,2,98,10,0,0
21216,-100,4,2,98,80,0,0
21237,-100,4,2,98,15,0,0
22233,-100,4,2,98,80,0,0
22254,-100,4,2,98,15,0,0
22571,-66.6666666666667,4,2,98,80,0,0
22593,-66.6666666666667,4,2,98,20,0,0
23927,-200,4,2,98,80,0,0
34775,-133.333333333333,4,2,6,80,0,0
34817,-133.333333333333,4,2,6,40,0,0
35114,-400,4,2,6,80,0,0
35156,-400,4,2,6,40,0,0
35453,-200,4,2,6,80,0,0
35495,-200,4,2,6,40,0,0
35622,-400,4,2,6,80,0,0
35665,-400,4,2,6,40,0,0
35792,-400,4,2,6,80,0,0
35834,-400,4,2,6,40,0,0
35961,-400,4,2,6,80,0,0
36004,-400,4,2,6,40,0,0
36131,-200,4,2,6,80,0,0
36173,-200,4,2,6,40,0,0
36470,-200,4,2,6,80,0,0
36512,-200,4,2,6,40,0,0
36809,-133.333333333333,4,2,6,80,0,0
36851,-133.333333333333,4,2,6,40,0,0
36978,-400,4,2,6,80,0,0
37021,-400,4,2,6,40,0,0
37148,-400,4,2,6,80,0,0
37190,-400,4,2,6,40,0,0
37317,-400,4,2,6,80,0,0
37360,-400,4,2,6,40,0,0
37402,-400,4,2,6,80,0,0
37444,-400,4,2,6,40,0,0
37487,-200,4,2,6,50,0,0
37529,-200,4,2,6,40,0,0
37826,-400,4,2,6,80,0,0
37868,-400,4,2,6,40,0,0
38165,-200,4,2,6,80,0,0
38207,-200,4,2,6,40,0,0
38334,-400,4,2,6,80,0,0
38377,-400,4,2,6,40,0,0
38504,-400,4,2,6,80,0,0
38546,-400,4,2,6,40,0,0
38673,-400,4,2,6,80,0,0
38716,-400,4,2,6,40,0,0
38843,-200,4,2,6,80,0,0
38885,-200,4,2,6,40,0,0
39012,-400,4,2,6,80,0,0
39055,-400,4,2,6,40,0,0
39182,-400,4,2,6,80,0,0
39224,-400,4,2,6,40,0,0
39351,-200,4,2,6,80,0,0
39394,-200,4,2,6,40,0,0
39436,-400,4,2,6,80,0,0
39478,-400,4,2,6,40,0,0
39521,-200,4,2,6,80,0,0
39563,-200,4,2,6,40,0,0
39690,-200,4,2,6,80,0,0
39733,-200,4,2,6,40,0,0
39775,-400,4,2,6,80,0,0
39817,-400,4,2,6,40,0,0
39860,-200,4,2,6,80,0,0
39902,-200,4,2,6,40,0,0
40029,-200,4,2,6,80,0,0
40071,-200,4,2,6,40,0,0
40199,-133.333333333333,4,2,6,80,0,0
40241,-133.333333333333,4,2,6,40,0,0
40368,-200,4,2,6,80,0,0
40410,-200,4,2,6,40,0,0
40538,-400,4,2,6,80,0,0
40580,-400,4,2,6,40,0,0
40707,-200,4,2,6,80,0,0
40749,-200,4,2,6,40,0,0
40877,-200,4,2,6,80,0,0
40919,-200,4,2,6,40,0,0
41046,-200,4,2,6,80,0,0
41088,-200,4,2,6,40,0,0
41216,-400,4,2,6,80,0,0
41258,-400,4,2,6,40,0,0
41385,-200,4,2,6,80,0,0
41427,-200,4,2,6,40,0,0
41470,-200,4,2,6,80,0,0
41512,-200,4,2,6,40,0,0
41555,-133.333333333333,4,2,6,80,0,0
41597,-133.333333333333,4,2,6,40,0,0
41724,-200,4,2,6,80,0,0
41766,-200,4,2,6,40,0,0
41894,-400,4,2,6,80,0,0
41936,-400,4,2,6,40,0,0
42063,-200,4,2,6,80,0,0
42105,-200,4,2,6,40,0,0
42233,-200,4,2,6,80,0,0
42275,-200,4,2,6,40,0,0
42402,-200,4,2,6,80,0,0
42444,-200,4,2,6,40,0,0
42571,-400,4,2,6,80,0,0
42614,-400,4,2,6,40,0,0
42741,-200,4,2,6,80,0,0
42783,-200,4,2,6,40,0,0
42826,-200,4,2,6,80,0,0
42868,-200,4,2,6,40,0,0
42910,-133.333333333333,4,2,6,80,0,0
42953,-133.333333333333,4,2,6,40,0,0
43080,-400,4,2,6,80,0,0
43122,-400,4,2,6,40,0,0
43249,-200,4,2,6,80,0,0
43292,-200,4,2,6,40,0,0
43419,-200,4,2,6,80,0,0
43461,-200,4,2,6,40,0,0
43504,-200,4,2,6,80,0,0
43546,-200,4,2,6,40,0,0
43588,-133.333333333333,4,2,6,80,0,0
43631,-133.333333333333,4,2,6,40,0,0
43758,-400,4,2,6,80,0,0
43800,-400,4,2,6,40,0,0
43927,-200,4,2,6,80,0,0
43970,-200,4,2,6,40,0,0
44097,-200,4,2,6,80,0,0
44139,-200,4,2,6,40,0,0
44182,-200,4,2,6,80,0,0
44224,-200,4,2,6,40,0,0
44266,-800,4,2,6,60,0,0
44309,-800,4,2,6,40,0,0
44351,-800,4,2,6,80,0,0
44394,-800,4,2,6,40,0,0
44436,-800,4,2,6,80,0,0
44478,-800,4,2,6,40,0,0
44521,-800,4,2,6,80,0,0
44563,-800,4,2,6,40,0,0
44605,-800,4,2,6,80,0,0
44648,-800,4,2,6,40,0,0
44690,-800,4,2,6,80,0,0
44733,-800,4,2,6,40,0,0
44775,-800,4,2,6,60,0,0
44944,-200,4,2,6,80,0,0
44966,-200,4,2,98,40,0,0
45622,-200,4,2,98,80,0,0
51046,-133.333333333333,4,2,98,80,0,0
52402,-100,4,2,98,80,0,0
53758,-66.6666666666667,4,2,98,80,0,0
54097,-100,4,2,98,80,0,0
54436,-133.333333333333,4,2,98,80,0,0
54775,-200,4,2,98,80,0,0
55114,-100,4,2,98,80,0,0
55453,-200,4,2,98,80,0,0
55961,-133.333333333333,4,2,98,80,0,0
56131,-100,4,2,4,40,0,0
56152,-100,4,2,98,20,0,0
56470,-133.333333333333,4,2,5,100,0,1
56724,-133.333333333333,4,2,5,25,0,1
56809,-200,4,2,21,75,0,1
57063,-200,4,2,98,25,0,1
57148,-133.333333333333,4,2,98,100,0,0
57233,-133.333333333333,4,2,98,25,0,0
57317,-200,4,2,21,50,0,0
57571,-200,4,2,98,25,0,0
57656,-200,4,2,98,100,0,0
57826,-200,4,2,98,100,0,0
57868,-200,4,2,98,25,0,0
57995,-200,4,2,98,100,0,0
58080,-200,4,2,98,25,0,0
58165,-200,4,2,98,100,0,0
58419,-200,4,2,98,25,0,0
58504,-133.333333333333,4,2,98,100,0,0
58588,-133.333333333333,4,2,98,25,0,0
58673,-100,4,2,98,100,0,0
58758,-100,4,2,98,25,0,0
58843,-133.333333333333,4,2,98,100,0,0
58927,-133.333333333333,4,2,98,25,0,0
59012,-66.6666666666667,4,2,98,100,0,0
59182,-133.333333333333,4,2,22,100,0,1
59436,-133.333333333333,4,2,5,25,0,1
59521,-200,4,2,23,75,0,1
59775,-200,4,2,98,25,0,1
59860,-133.333333333333,4,2,98,100,0,0
59944,-133.333333333333,4,2,98,25,0,0
60029,-200,4,2,23,50,0,0
60199,-200,4,2,98,75,0,0
60538,-200,4,2,98,100,0,0
60580,-200,4,2,98,25,0,0
60707,-200,4,2,98,100,0,0
60792,-200,4,2,98,25,0,0
60877,-200,4,2,98,100,0,0
60961,-200,4,2,98,25,0,0
61046,-200,4,2,98,100,0,0
61131,-200,4,2,98,25,0,0
61216,-133.333333333333,4,2,98,100,0,0
61300,-133.333333333333,4,2,98,25,0,0
61385,-100,4,2,98,100,0,0
61470,-100,4,2,98,25,0,0
61555,-133.333333333333,4,2,98,100,0,0
61639,-133.333333333333,4,2,98,25,0,0
61724,-100,4,2,98,100,0,0
61809,-100,4,2,98,25,0,0
61894,-133.333333333333,4,2,5,100,0,1
62148,-133.333333333333,4,2,5,25,0,1
62233,-200,4,2,21,75,0,1
62487,-200,4,2,98,25,0,1
62571,-133.333333333333,4,2,98,100,0,0
62656,-133.333333333333,4,2,98,25,0,0
62741,-200,4,2,98,100,0,0
63461,-200,4,2,98,25,0,0
63588,-200,4,2,98,100,0,0
63843,-200,4,2,98,25,0,0
63927,-133.333333333333,4,2,98,100,0,0
64012,-133.333333333333,4,2,98,25,0,0
64097,-133.333333333333,4,2,98,100,0,0
64605,-133.333333333333,4,2,22,100,0,1
64860,-133.333333333333,4,2,5,25,0,1
64944,-100,4,2,23,100,0,1
65199,-100,4,2,98,25,0,1
65283,-133.333333333333,4,2,98,100,0,1
65368,-133.333333333333,4,2,98,25,0,1
65453,-100,4,2,98,100,0,1
65538,-100,4,2,98,25,0,1
65622,-100,4,2,98,100,0,1
65961,-133.333333333333,4,2,2,75,0,1
66046,-133.333333333333,4,2,98,25,0,1
66131,-100,4,2,98,100,0,1
66216,-100,4,2,98,25,0,1
66300,-200,4,2,6,100,0,1
66385,-200,4,2,6,25,0,1
66470,-200,4,2,98,100,0,1
66555,-200,4,2,98,25,0,1
66639,-100,4,2,98,100,0,0
66978,-133.333333333333,4,2,98,100,0,0
67317,-133.333333333333,4,2,5,100,0,1
67571,-133.333333333333,4,2,5,25,0,1
67656,-200,4,2,21,75,0,1
67910,-200,4,2,98,25,0,1
67995,-133.333333333333,4,2,98,100,0,0
68080,-133.333333333333,4,2,98,25,0,0
68165,-200,4,2,21,50,0,0
68419,-200,4,2,98,25,0,0
68504,-200,4,2,98,100,0,0
68588,-200,4,2,98,25,0,0
68673,-200,4,2,98,100,0,0
68716,-200,4,2,98,25,0,0
68843,-200,4,2,98,100,0,0
68927,-200,4,2,98,25,0,0
69012,-200,4,2,98,100,0,0
69266,-200,4,2,98,25,0,0
69351,-133.333333333333,4,2,98,100,0,0
69436,-133.333333333333,4,2,98,25,0,0
69521,-100,4,2,98,100,0,0
69605,-100,4,2,98,25,0,0
69690,-133.333333333333,4,2,98,100,0,0
69775,-133.333333333333,4,2,98,25,0,0
69860,-66.6666666666667,4,2,98,100,0,0
70029,-133.333333333333,4,2,22,100,0,1
70283,-133.333333333333,4,2,5,25,0,1
70368,-200,4,2,23,75,0,1
70622,-200,4,2,98,25,0,1
70707,-133.333333333333,4,2,98,100,0,0
70792,-133.333333333333,4,2,98,25,0,0
70877,-200,4,2,23,50,0,0
71046,-200,4,2,98,75,0,0
71427,-200,4,2,98,25,0,0
71555,-200,4,2,98,100,0,0
71639,-200,4,2,98,25,0,0
71724,-200,4,2,98,100,0,0
71809,-200,4,2,98,25,0,0
71894,-200,4,2,98,100,0,0
71978,-200,4,2,98,25,0,0
72063,-133.333333333333,4,2,98,100,0,0
72148,-133.333333333333,4,2,98,25,0,0
72233,-100,4,2,98,100,0,0
72317,-100,4,2,98,25,0,0
72402,-133.333333333333,4,2,98,100,0,0
72487,-133.333333333333,4,2,98,25,0,0
72571,-100,4,2,98,100,0,0
72656,-100,4,2,98,25,0,0
72741,-133.333333333333,4,2,5,100,0,1
72995,-133.333333333333,4,2,5,25,0,1
73080,-200,4,2,21,75,0,1
73334,-200,4,2,98,25,0,1
73419,-133.333333333333,4,2,98,100,0,0
73504,-133.333333333333,4,2,98,25,0,0
73588,-200,4,2,98,100,0,0
74309,-200,4,2,98,25,0,0
74436,-200,4,2,98,100,0,0
74690,-200,4,2,98,25,0,0
74775,-133.333333333333,4,2,98,100,0,0
74860,-133.333333333333,4,2,98,25,0,0
74944,-133.333333333333,4,2,98,100,0,0
75453,-133.333333333333,4,2,22,100,0,1
75707,-133.333333333333,4,2,5,25,0,1
75792,-200,4,2,23,75,0,1
76046,-200,4,2,98,25,0,1
76131,-200,4,2,98,100,0,1
76216,-200,4,2,98,25,0,1
76300,-133.333333333333,4,2,98,100,0,1
76385,-133.333333333333,4,2,98,25,0,1
76470,-133.333333333333,4,2,98,75,0,1
76809,-133.333333333333,4,2,2,50,0,1
76894,-133.333333333333,4,2,98,25,0,1
76978,-200,4,2,98,100,0,1
77063,-200,4,2,98,25,0,1
77148,-200,4,2,6,100,0,1
77233,-200,4,2,6,25,0,1
77317,-200,4,2,6,100,0,1
77402,-200,4,2,6,25,0,1
77487,-100,4,2,98,100,0,0
77826,-133.333333333333,4,2,98,100,0,0
78165,-133.333333333333,4,2,98,80,0,1
78207,-133.333333333333,4,2,98,40,0,1
78843,-50,4,2,7,25,0,1
78864,-50,4,2,7,20,0,1
79182,-50,4,2,8,25,0,1
79203,-50,4,2,8,20,0,1
79521,-50,4,2,11,25,0,1
79542,-50,4,2,11,20,0,1
80199,-200,4,2,98,80,0,0
80283,-200,4,2,98,25,0,0
80368,-133.333333333333,4,2,98,80,0,0
80453,-133.333333333333,4,2,98,25,0,0
80538,-200,4,2,6,80,0,0
80622,-200,4,2,6,25,0,0
80707,-133.333333333333,4,2,98,80,0,0
80792,-133.333333333333,4,2,98,25,0,0
80877,-133.333333333333,4,2,98,80,0,1
80919,-133.333333333333,4,2,98,40,0,1
81216,-200,4,2,98,80,0,1
81258,-200,4,2,98,40,0,1
81555,-50,4,2,9,25,0,1
81576,-50,4,2,9,20,0,1
81894,-50,4,2,10,25,0,1
81915,-50,4,2,10,20,0,1
82233,-50,4,2,11,25,0,1
82254,-50,4,2,11,20,0,1
82741,-50,4,2,2,40,0,1
82826,-50,4,2,2,80,0,1
82910,-200,4,2,4,80,0,0
82995,-200,4,2,98,25,0,0
83080,-133.333333333333,4,2,98,80,0,0
83165,-133.333333333333,4,2,98,25,0,0
83249,-200,4,2,4,80,0,0
83334,-200,4,2,98,25,0,0
83419,-133.333333333333,4,2,98,80,0,0
83504,-133.333333333333,4,2,98,25,0,0
83588,-133.333333333333,4,2,98,80,0,1
83631,-133.333333333333,4,2,98,40,0,1
84266,-50,4,2,7,25,0,1
84288,-50,4,2,7,20,0,1
84605,-50,4,2,8,25,0,1
84627,-50,4,2,8,20,0,1
84944,-50,4,2,11,25,0,1
84966,-50,4,2,11,20,0,1
85622,-200,4,2,98,80,0,0
85707,-200,4,2,98,25,0,0
85792,-133.333333333333,4,2,98,80,0,0
85877,-133.333333333333,4,2,98,25,0,0
85961,-200,4,2,6,80,0,0
86046,-200,4,2,6,25,0,0
86131,-133.333333333333,4,2,98,80,0,0
86216,-133.333333333333,4,2,98,25,0,0
86300,-133.333333333333,4,2,2,40,0,1
86343,-133.333333333333,4,2,98,40,0,1
86639,-200,4,2,98,80,0,1
86682,-200,4,2,98,40,0,1
86978,-200,4,2,98,80,0,1
87148,-133.333333333333,4,2,98,80,0,1
87190,-133.333333333333,4,2,98,40,0,1
87487,-133.333333333333,4,2,98,80,0,1
87656,-100,4,2,98,80,0,1
87995,-100,4,2,6,80,0,1
88334,-100,4,2,98,80,0,0
88377,-100,4,2,98,40,0,0
88673,-133.333333333333,4,2,98,80,0,0
88716,-133.333333333333,4,2,98,40,0,0
89012,-133.333333333333,4,2,98,80,0,1
89055,-133.333333333333,4,2,98,40,0,1
89690,-50,4,2,7,25,0,1
89711,-50,4,2,7,20,0,1
90029,-50,4,2,8,25,0,1
90050,-50,4,2,8,20,0,1
90368,-50,4,2,11,25,0,1
90389,-50,4,2,11,20,0,1
91046,-200,4,2,98,80,0,0
91131,-200,4,2,98,25,0,0
91216,-133.333333333333,4,2,98,80,0,0
91300,-133.333333333333,4,2,98,25,0,0
91385,-200,4,2,6,80,0,0
91470,-200,4,2,6,25,0,0
91555,-133.333333333333,4,2,98,80,0,0
91639,-133.333333333333,4,2,98,25,0,0
91724,-133.333333333333,4,2,98,80,0,1
91766,-133.333333333333,4,2,98,40,0,1
92063,-200,4,2,98,80,0,1
92105,-200,4,2,98,40,0,1
92402,-50,4,2,9,25,0,1
92423,-50,4,2,9,20,0,1
92741,-50,4,2,10,25,0,1
92762,-50,4,2,10,20,0,1
93080,-50,4,2,11,25,0,1
93101,-50,4,2,11,20,0,1
93588,-50,4,2,2,40,0,1
93673,-50,4,2,2,80,0,1
93758,-200,4,2,4,80,0,0
93843,-200,4,2,98,25,0,0
93927,-133.333333333333,4,2,98,80,0,0
94012,-133.333333333333,4,2,98,25,0,0
94097,-200,4,2,4,80,0,0
94182,-200,4,2,98,25,0,0
94266,-133.333333333333,4,2,98,80,0,0
94351,-133.333333333333,4,2,98,25,0,0
94436,-133.333333333333,4,2,98,80,0,1
94478,-133.333333333333,4,2,98,40,0,1
94775,-133.333333333333,4,2,98,80,0,1
94817,-133.333333333333,4,2,98,40,0,1
95114,-50,4,2,7,25,0,1
95135,-50,4,2,7,20,0,1
95453,-50,4,2,8,25,0,1
95474,-50,4,2,8,20,0,1
95622,-50,4,2,3,40,0,1
95644,-50,4,2,0,20,0,1
95792,-50,4,2,11,25,0,1
95813,-50,4,2,11,20,0,1
96131,-50,4,2,3,40,0,1
96152,-50,4,2,0,20,0,1
96470,-133.333333333333,4,2,98,80,0,0
96555,-133.333333333333,4,2,98,25,0,0
96639,-100,4,2,98,80,0,0
96724,-100,4,2,98,25,0,0
96809,-100,4,2,6,80,0,0
96894,-100,4,2,6,25,0,0
96978,-100,4,2,98,80,0,0
97063,-100,4,2,98,25,0,0
97148,-133.333333333333,4,2,2,40,0,1
97190,-133.333333333333,4,2,98,40,0,1
97487,-200,4,2,98,80,0,1
97529,-200,4,2,98,40,0,1
97826,-200,4,2,98,80,0,1
97910,-200,4,2,98,40,0,1
97995,-133.333333333333,4,2,98,80,0,1
98038,-133.333333333333,4,2,98,40,0,1
98334,-133.333333333333,4,2,98,80,0,1
98419,-133.333333333333,4,2,98,25,0,1
98504,-100,4,2,2,40,0,1
98588,-100,4,2,98,25,0,1
98673,-200,4,2,98,80,0,1
98758,-200,4,2,98,25,0,1
98843,-200,4,2,6,80,0,1
98927,-200,4,2,6,25,0,1
99012,-200,4,2,6,80,0,1
99097,-200,4,2,6,25,0,1
99182,-100,4,2,98,80,0,0
99224,-100,4,2,98,40,0,0
99521,-133.333333333333,4,2,98,80,0,0
99563,-133.333333333333,4,2,98,40,0,0
99860,-250,4,2,98,80,0,0
103927,-250,4,2,4,40,0,0
104266,-250,4,2,6,80,0,0
104436,-250,4,2,2,40,0,0
104775,-250,4,2,4,40,0,0
105114,-250,4,2,4,20,0,0
105283,-250,4,2,2,40,0,0
109860,-250,4,2,4,20,0,0
110707,-250,4,2,98,40,0,0
114775,-250,4,2,4,40,0,0
115114,-250,4,2,6,80,0,0
115283,-250,4,2,3,40,0,0
115622,-250,4,2,4,40,0,0
115961,-250,4,2,4,20,0,0
116131,-250,4,2,3,40,0,0
121555,-250,4,2,6,60,0,0
132402,-133.333333333333,4,2,6,80,0,0
132444,-133.333333333333,4,2,6,40,0,0
132741,-400,4,2,6,80,0,0
132783,-400,4,2,6,40,0,0
133080,-200,4,2,6,80,0,0
133122,-200,4,2,6,40,0,0
133249,-400,4,2,6,80,0,0
133292,-400,4,2,6,40,0,0
133419,-400,4,2,6,80,0,0
133461,-400,4,2,6,40,0,0
133588,-400,4,2,6,80,0,0
133631,-400,4,2,6,40,0,0
134097,-400,4,2,6,80,0,0
134139,-400,4,2,6,40,0,0
134436,-200,4,2,6,80,0,0
134478,-200,4,2,6,40,0,0
134605,-400,4,2,6,80,0,0
134648,-400,4,2,6,40,0,0
134775,-400,4,2,6,80,0,0
134817,-400,4,2,6,40,0,0
134944,-400,4,2,6,80,0,0
134987,-400,4,2,6,40,0,0
135029,-400,4,2,6,80,0,0
135071,-400,4,2,6,40,0,0
135453,-400,4,2,6,80,0,0
135495,-400,4,2,6,40,0,0
135792,-200,4,2,6,80,0,0
135834,-200,4,2,6,40,0,0
135961,-400,4,2,6,80,0,0
136004,-400,4,2,6,40,0,0
136131,-400,4,2,6,80,0,0
136173,-400,4,2,6,40,0,0
136300,-400,4,2,6,80,0,0
136343,-400,4,2,6,40,0,0
136470,-200,4,2,6,40,0,0
136512,-200,4,2,6,40,0,0
136639,-400,4,2,6,80,0,0
136682,-400,4,2,6,40,0,0
136809,-200,4,2,6,80,0,0
136851,-200,4,2,6,40,0,0
136978,-400,4,2,6,80,0,0
137021,-400,4,2,6,40,0,0
137063,-400,4,2,6,80,0,0
137105,-400,4,2,6,40,0,0
137148,-200,4,2,6,80,0,0
137190,-200,4,2,6,40,0,0
137317,-400,4,2,6,80,0,0
137360,-400,4,2,6,40,0,0
137402,-400,4,2,6,80,0,0
137444,-400,4,2,6,40,0,0
137487,-200,4,2,6,80,0,0
137529,-200,4,2,6,40,0,0
137656,-400,4,2,6,80,0,0
137699,-400,4,2,6,40,0,0
137826,-266.666666666667,4,2,6,40,0,0
137995,-400,4,2,6,80,0,0
138038,-400,4,2,6,40,0,0
138165,-400,4,2,6,80,0,0
138207,-400,4,2,6,40,0,0
138334,-400,4,2,6,80,0,0
138377,-400,4,2,6,40,0,0
138504,-266.666666666667,4,2,6,80,0,0
138546,-266.666666666667,4,2,6,40,0,0
138673,-400,4,2,6,80,0,0
138716,-400,4,2,6,40,0,0
138843,-400,4,2,6,80,0,0
138885,-400,4,2,6,40,0,0
139012,-400,4,2,6,80,0,0
139055,-400,4,2,6,40,0,0
139097,-400,4,2,6,80,0,0
139139,-400,4,2,6,40,0,0
139182,-266.666666666667,4,2,6,40,0,0
139351,-400,4,2,6,80,0,0
139394,-400,4,2,6,40,0,0
139521,-400,4,2,6,80,0,0
139563,-400,4,2,6,40,0,0
139690,-400,4,2,6,80,0,0
139733,-400,4,2,6,40,0,0
139860,-266.666666666667,4,2,6,80,0,0
139902,-266.666666666667,4,2,6,40,0,0
140029,-400,4,2,6,80,0,0
140071,-400,4,2,6,40,0,0
140199,-400,4,2,6,80,0,0
140241,-400,4,2,6,40,0,0
140368,-400,4,2,6,80,0,0
140410,-400,4,2,6,40,0,0
140453,-400,4,2,6,80,0,0
140495,-400,4,2,6,40,0,0
140538,-200,4,2,6,80,0,0
140580,-200,4,2,6,40,0,0
140707,-400,4,2,6,80,0,0
140749,-400,4,2,6,40,0,0
140877,-200,4,2,6,80,0,0
140919,-200,4,2,6,40,0,0
141046,-400,4,2,6,80,0,0
141088,-400,4,2,6,40,0,0
141131,-400,4,2,6,80,0,0
141173,-400,4,2,6,40,0,0
141216,-200,4,2,6,80,0,0
141258,-200,4,2,6,40,0,0
141385,-400,4,2,6,80,0,0
141427,-400,4,2,6,40,0,0
141555,-200,4,2,6,80,0,0
141597,-200,4,2,6,40,0,0
141724,-400,4,2,6,80,0,0
141766,-400,4,2,6,40,0,0
141809,-400,4,2,6,80,0,0
141851,-400,4,2,6,40,0,0
141894,-800,4,2,6,80,0,0
141936,-800,4,2,6,40,0,0
141978,-800,4,2,6,80,0,0
142021,-800,4,2,6,40,0,0
142063,-800,4,2,6,80,0,0
142105,-800,4,2,6,40,0,0
142148,-800,4,2,6,80,0,0
142190,-800,4,2,6,40,0,0
142233,-800,4,2,6,80,0,0
142275,-800,4,2,6,40,0,0
142317,-800,4,2,6,80,0,0
142360,-800,4,2,6,40,0,0
142402,-800,4,2,6,80,0,0
142444,-800,4,2,6,40,0,0
142487,-800,4,2,6,80,0,0
142529,-800,4,2,6,40,0,0
142571,-200,4,2,6,80,0,0
142593,-200,4,2,6,40,0,0
143249,-250,4,2,80,60,0,0
144266,-250,4,2,81,60,0,0
144605,-250,4,2,80,60,0,0
145622,-250,4,2,81,60,0,0
145961,-250,4,2,80,60,0,0
146300,-250,4,2,82,60,0,0
146639,-250,4,2,83,60,0,0
146978,-250,4,2,82,60,0,0
147317,-250,4,2,80,60,0,0
147995,-250,4,2,81,60,0,0
148673,-166.666666666667,4,2,80,60,0,0
149690,-166.666666666667,4,2,81,60,0,0
150029,-125,4,2,80,60,0,0
151046,-125,4,2,81,60,0,0
151385,-83.3333333333333,4,2,80,60,0,0
151724,-125,4,2,83,60,0,0
152063,-166.666666666667,4,2,84,60,0,0
152402,-250,4,2,85,60,0,0
152741,-100,4,2,84,60,0,0
153080,-200,4,2,98,80,0,0
153588,-133.333333333333,4,2,98,80,0,0
153758,-100,4,2,4,40,0,0
153779,-100,4,2,98,20,0,0
154097,-133.333333333333,4,2,5,100,0,1
154351,-133.333333333333,4,2,98,25,0,1
154436,-200,4,2,21,100,0,1
154690,-200,4,2,98,25,0,1
154775,-158.730158730159,4,2,6,100,0,1
154817,-158.730158730159,4,2,6,25,0,1
154944,-133.333333333333,4,2,98,100,0,1
155029,-133.333333333333,4,2,98,25,0,1
155114,-133.333333333333,4,2,98,100,0,1
155199,-133.333333333333,4,2,98,25,0,1
155283,-200,4,2,98,100,0,1
155495,-200,4,2,98,25,0,1
155622,-200,4,2,98,100,0,1
155707,-200,4,2,98,25,0,1
155792,-200,4,2,98,100,0,1
156131,-133.333333333333,4,2,98,100,0,1
156173,-133.333333333333,4,2,98,25,0,1
156300,-133.333333333333,4,2,98,100,0,1
156555,-133.333333333333,4,2,98,25,0,1
156639,-66.6666666666667,4,2,98,100,0,1
156809,-133.333333333333,4,2,22,100,0,1
157063,-133.333333333333,4,2,98,25,0,1
157148,-200,4,2,23,100,0,1
157402,-200,4,2,98,25,0,1
157487,-158.730158730159,4,2,6,100,0,1
157529,-158.730158730159,4,2,6,25,0,1
157656,-200,4,2,98,100,0,1
157741,-200,4,2,98,25,0,1
157826,-133.333333333333,4,2,98,100,0,1
157910,-133.333333333333,4,2,98,25,0,1
157995,-200,4,2,98,100,0,1
158207,-200,4,2,98,25,0,1
158334,-200,4,2,98,100,0,1
158419,-200,4,2,98,25,0,1
158504,-133.333333333333,4,2,98,100,0,1
158588,-133.333333333333,4,2,98,25,0,1
158673,-200,4,2,98,100,0,1
158716,-200,4,2,98,25,0,1
158843,-133.333333333333,4,2,98,100,0,1
158885,-133.333333333333,4,2,98,25,0,1
159012,-133.333333333333,4,2,98,100,0,1
159097,-133.333333333333,4,2,98,25,0,1
159182,-133.333333333333,4,2,98,100,0,1
159224,-133.333333333333,4,2,98,25,0,1
159351,-200,4,2,98,100,0,1
159521,-133.333333333333,4,2,5,100,0,1
159775,-133.333333333333,4,2,98,25,0,1
159860,-200,4,2,21,100,0,1
160114,-200,4,2,98,25,0,1
160199,-158.730158730159,4,2,6,100,0,1
160241,-158.730158730159,4,2,6,25,0,1
160368,-133.333333333333,4,2,98,100,0,1
160453,-133.333333333333,4,2,98,25,0,1
160538,-133.333333333333,4,2,98,100,0,1
160622,-133.333333333333,4,2,98,25,0,1
160707,-200,4,2,98,100,0,1
160919,-200,4,2,98,25,0,1
161046,-200,4,2,98,100,0,1
161131,-200,4,2,98,25,0,1
161216,-200,4,2,98,100,0,1
161555,-133.333333333333,4,2,98,100,0,1
161597,-133.333333333333,4,2,98,25,0,1
161724,-133.333333333333,4,2,98,100,0,1
161978,-133.333333333333,4,2,98,25,0,1
162063,-66.6666666666667,4,2,98,100,0,1
162233,-133.333333333333,4,2,22,100,0,1
162487,-133.333333333333,4,2,98,25,0,1
162571,-100,4,2,23,100,0,1
162826,-100,4,2,98,25,0,1
162910,-133.333333333333,4,2,98,100,0,1
162995,-133.333333333333,4,2,98,25,0,1
163080,-100,4,2,98,100,0,1
163165,-100,4,2,98,25,0,1
163249,-100,4,2,98,100,0,1
163588,-133.333333333333,4,2,2,75,0,1
163673,-133.333333333333,4,2,98,25,0,1
163758,-100,4,2,98,100,0,1
163843,-100,4,2,98,25,0,1
163927,-200,4,2,6,100,0,1
164012,-200,4,2,6,25,0,1
164097,-200,4,2,98,100,0,1
164182,-200,4,2,98,25,0,1
164266,-100,4,2,98,100,0,0
164309,-100,4,2,98,50,0,0
164605,-133.333333333333,4,2,98,100,0,0
164648,-133.333333333333,4,2,98,50,0,0
164944,-133.333333333333,4,2,5,100,0,1
165199,-133.333333333333,4,2,98,25,0,1
165283,-200,4,2,21,100,0,1
165538,-200,4,2,98,25,0,1
165622,-158.730158730159,4,2,6,100,0,1
165665,-158.730158730159,4,2,6,25,0,1
165792,-133.333333333333,4,2,98,100,0,1
165877,-133.333333333333,4,2,98,25,0,1
165961,-133.333333333333,4,2,98,100,0,1
166046,-133.333333333333,4,2,98,25,0,1
166131,-200,4,2,98,100,0,1
166343,-200,4,2,98,25,0,1
166470,-200,4,2,98,100,0,1
166555,-200,4,2,98,25,0,1
166639,-200,4,2,98,100,0,1
166978,-133.333333333333,4,2,98,100,0,1
167021,-133.333333333333,4,2,98,25,0,1
167148,-133.333333333333,4,2,98,100,0,1
167402,-133.333333333333,4,2,98,25,0,1
167487,-66.6666666666667,4,2,98,100,0,1
167656,-133.333333333333,4,2,22,100,0,1
167910,-133.333333333333,4,2,98,25,0,1
167995,-200,4,2,23,100,0,1
168249,-200,4,2,98,25,0,1
168334,-158.730158730159,4,2,6,100,0,1
168377,-158.730158730159,4,2,6,25,0,1
168504,-200,4,2,98,100,0,1
168588,-200,4,2,98,25,0,1
168673,-133.333333333333,4,2,98,100,0,1
168758,-133.333333333333,4,2,98,25,0,1
168843,-200,4,2,98,100,0,1
169055,-200,4,2,98,25,0,1
169182,-200,4,2,98,100,0,1
169266,-200,4,2,98,25,0,1
169351,-133.333333333333,4,2,98,100,0,1
169436,-133.333333333333,4,2,98,25,0,1
169521,-200,4,2,98,100,0,1
169563,-200,4,2,98,25,0,1
169690,-133.333333333333,4,2,98,100,0,1
169733,-133.333333333333,4,2,98,25,0,1
169860,-133.333333333333,4,2,98,100,0,1
169944,-133.333333333333,4,2,98,25,0,1
170029,-133.333333333333,4,2,98,100,0,1
170071,-133.333333333333,4,2,98,25,0,1
170199,-200,4,2,98,100,0,1
170368,-133.333333333333,4,2,5,100,0,1
170622,-133.333333333333,4,2,98,25,0,1
170707,-200,4,2,21,100,0,1
170961,-200,4,2,98,25,0,1
171046,-158.730158730159,4,2,6,100,0,1
171088,-158.730158730159,4,2,6,25,0,1
171216,-133.333333333333,4,2,98,100,0,1
171300,-133.333333333333,4,2,98,25,0,1
171385,-133.333333333333,4,2,98,100,0,1
171470,-133.333333333333,4,2,98,25,0,1
171555,-200,4,2,98,100,0,1
171766,-200,4,2,98,25,0,1
171894,-200,4,2,98,100,0,1
171978,-200,4,2,98,25,0,1
172063,-200,4,2,98,100,0,1
172402,-133.333333333333,4,2,98,100,0,1
172444,-133.333333333333,4,2,98,25,0,1
172571,-133.333333333333,4,2,98,100,0,1
172826,-133.333333333333,4,2,98,25,0,1
172910,-66.6666666666667,4,2,98,100,0,1
173080,-133.333333333333,4,2,22,100,0,0
173334,-133.333333333333,4,2,98,25,0,0
173419,-200,4,2,23,100,0,0
173673,-200,4,2,98,25,0,0
173758,-200,4,2,98,100,0,0
173843,-200,4,2,98,25,0,0
173927,-133.333333333333,4,2,98,100,0,0
174012,-133.333333333333,4,2,98,25,0,0
174097,-133.333333333333,4,2,98,75,0,0
174436,-133.333333333333,4,2,2,75,0,0
174521,-133.333333333333,4,2,98,25,0,0
174605,-200,4,2,98,100,0,0
174690,-200,4,2,98,25,0,0
174775,-200,4,2,6,100,0,0
174860,-200,4,2,6,25,0,0
174944,-200,4,2,6,100,0,0
175029,-200,4,2,6,25,0,0
175114,-100,4,2,98,100,0,0
175156,-100,4,2,98,50,0,0
175453,-133.333333333333,4,2,98,100,0,0
175495,-133.333333333333,4,2,98,50,0,0
175792,-133.333333333333,4,2,98,80,0,1
175834,-133.333333333333,4,2,98,40,0,1
176470,-50,4,2,7,25,0,1
176491,-50,4,2,7,20,0,1
176809,-50,4,2,8,25,0,1
176830,-50,4,2,8,20,0,1
177148,-50,4,2,11,25,0,1
177169,-50,4,2,11,20,0,1
177826,-200,4,2,98,80,0,0
177910,-200,4,2,98,25,0,0
177995,-133.333333333333,4,2,98,80,0,0
178080,-133.333333333333,4,2,98,25,0,0
178165,-200,4,2,6,80,0,0
178249,-200,4,2,6,25,0,0
178334,-133.333333333333,4,2,98,80,0,0
178419,-133.333333333333,4,2,98,25,0,0
178504,-133.333333333333,4,2,98,80,0,1
178546,-133.333333333333,4,2,98,40,0,1
178843,-200,4,2,98,80,0,1
178885,-200,4,2,98,40,0,1
179182,-50,4,2,9,25,0,1
179203,-50,4,2,9,20,0,1
179521,-50,4,2,10,25,0,1
179542,-50,4,2,10,20,0,1
179860,-50,4,2,11,25,0,1
179881,-50,4,2,11,20,0,1
180368,-50,4,2,2,40,0,1
180453,-50,4,2,2,80,0,1
180538,-200,4,2,4,80,0,0
180622,-200,4,2,98,25,0,0
180707,-133.333333333333,4,2,98,80,0,0
180792,-133.333333333333,4,2,98,25,0,0
180877,-200,4,2,4,80,0,0
180961,-200,4,2,98,25,0,0
181046,-133.333333333333,4,2,98,80,0,0
181131,-133.333333333333,4,2,98,25,0,0
181216,-133.333333333333,4,2,98,80,0,1
181258,-133.333333333333,4,2,98,40,0,1
181894,-50,4,2,7,25,0,1
181915,-50,4,2,7,20,0,1
182233,-50,4,2,8,25,0,1
182254,-50,4,2,8,20,0,1
182571,-50,4,2,11,25,0,1
182593,-50,4,2,11,20,0,1
183249,-200,4,2,98,80,0,0
183334,-200,4,2,98,25,0,0
183419,-133.333333333333,4,2,98,80,0,0
183504,-133.333333333333,4,2,98,25,0,0
183588,-200,4,2,6,80,0,0
183673,-200,4,2,6,25,0,0
183758,-133.333333333333,4,2,98,80,0,0
183843,-133.333333333333,4,2,98,25,0,0
183927,-133.333333333333,4,2,2,40,0,1
183970,-133.333333333333,4,2,98,40,0,1
184266,-200,4,2,98,80,0,1
184309,-200,4,2,98,40,0,1
184605,-200,4,2,98,80,0,1
184775,-133.333333333333,4,2,98,80,0,1
184817,-133.333333333333,4,2,98,40,0,1
185114,-133.333333333333,4,2,98,80,0,1
185199,-133.333333333333,4,2,98,40,0,1
185283,-100,4,2,98,80,0,1
185622,-100,4,2,6,80,0,1
185961,-100,4,2,98,80,0,0
186004,-100,4,2,98,40,0,0
186300,-133.333333333333,4,2,98,80,0,0
186343,-133.333333333333,4,2,98,40,0,0
186639,-133.333333333333,4,2,98,80,0,1
186682,-133.333333333333,4,2,98,40,0,1
187317,-50,4,2,7,25,0,1
187338,-50,4,2,7,20,0,1
187656,-50,4,2,8,25,0,1
187677,-50,4,2,8,20,0,1
187995,-50,4,2,11,25,0,1
188016,-50,4,2,11,20,0,1
188673,-200,4,2,98,80,0,0
188758,-200,4,2,98,25,0,0
188843,-133.333333333333,4,2,98,80,0,0
188927,-133.333333333333,4,2,98,25,0,0
189012,-200,4,2,6,80,0,0
189097,-200,4,2,6,25,0,0
189182,-133.333333333333,4,2,98,80,0,0
189266,-133.333333333333,4,2,98,25,0,0
189351,-133.333333333333,4,2,98,80,0,1
189394,-133.333333333333,4,2,98,40,0,1
189690,-200,4,2,98,80,0,1
189733,-200,4,2,98,40,0,1
190029,-50,4,2,9,25,0,1
190050,-50,4,2,9,20,0,1
190368,-50,4,2,10,25,0,1
190389,-50,4,2,10,20,0,1
190707,-50,4,2,11,25,0,1
190728,-50,4,2,11,20,0,1
191216,-50,4,2,2,40,0,1
191300,-50,4,2,2,80,0,1
191385,-200,4,2,4,80,0,0
191470,-200,4,2,98,25,0,0
191555,-133.333333333333,4,2,98,80,0,0
191639,-133.333333333333,4,2,98,25,0,0
191724,-200,4,2,4,80,0,0
191809,-200,4,2,98,25,0,0
191894,-133.333333333333,4,2,98,80,0,0
191978,-133.333333333333,4,2,98,25,0,0
192063,-133.333333333333,4,2,98,80,0,1
192105,-133.333333333333,4,2,98,40,0,1
192402,-133.333333333333,4,2,98,80,0,1
192444,-133.333333333333,4,2,98,40,0,1
192741,-50,4,2,7,25,0,1
192762,-50,4,2,7,20,0,1
193080,-50,4,2,8,25,0,1
193101,-50,4,2,8,20,0,1
193249,-50,4,2,3,40,0,1
193271,-50,4,2,0,20,0,1
193419,-50,4,2,11,25,0,1
193440,-50,4,2,11,20,0,1
193758,-50,4,2,3,40,0,1
193779,-50,4,2,0,20,0,1
194097,-133.333333333333,4,2,98,80,0,0
194182,-133.333333333333,4,2,98,25,0,0
194266,-100,4,2,98,80,0,0
194351,-100,4,2,98,25,0,0
194436,-100,4,2,6,80,0,0
194521,-100,4,2,6,25,0,0
194605,-100,4,2,98,80,0,0
194690,-100,4,2,98,25,0,0
194775,-133.333333333333,4,2,2,40,0,1
194817,-133.333333333333,4,2,98,40,0,1
195114,-200,4,2,98,80,0,1
195156,-200,4,2,98,40,0,1
195453,-200,4,2,98,80,0,1
195538,-200,4,2,98,25,0,1
195622,-133.333333333333,4,2,98,80,0,1
195665,-133.333333333333,4,2,98,40,0,1
195961,-133.333333333333,4,2,98,80,0,1
196046,-133.333333333333,4,2,98,25,0,1
196131,-100,4,2,2,40,0,1
196216,-100,4,2,98,25,0,1
196300,-200,4,2,98,80,0,1
196385,-200,4,2,98,25,0,1
196470,-200,4,2,6,80,0,1
196555,-200,4,2,6,25,0,1
196639,-200,4,2,6,80,0,1
196724,-200,4,2,6,25,0,1
196809,-100,4,2,98,80,0,1
196851,-100,4,2,98,40,0,1
197148,-133.333333333333,4,2,98,80,0,0
197190,-133.333333333333,4,2,98,40,0,0
197487,-200,4,2,3,60,0,0
197826,-200,4,2,2,60,0,0
198165,-200,4,2,3,60,0,0
198504,-200,4,2,2,60,0,0
198843,-200,4,2,3,60,0,0
199182,-200,4,2,2,60,0,0
199521,-200,4,2,3,60,0,0
199860,-200,4,2,2,60,0,0
200199,-200,4,2,3,60,0,0
200538,-200,4,2,2,60,0,0
200877,-200,4,2,3,60,0,0
201216,-200,4,2,2,60,0,0
201555,-200,4,2,4,60,0,0
201894,-200,4,2,6,100,0,0
202063,-200,4,2,3,60,0,0
202402,-200,4,2,4,60,0,0
202741,-200,4,2,4,40,0,0
202910,-250,4,2,3,60,0,0
203249,-250,4,2,2,60,0,0
203588,-250,4,2,3,60,0,0
203927,-250,4,2,2,60,0,0
204266,-250,4,2,3,60,0,0
204605,-250,4,2,2,60,0,0
204944,-250,4,2,3,60,0,0
205283,-250,4,2,2,60,0,0
205622,-250,4,2,3,60,0,0
205961,-250,4,2,2,60,0,0
206300,-250,4,2,3,60,0,0
206639,-250,4,2,2,60,0,0
206978,-250,4,2,4,60,0,0
207487,-250,4,2,4,20,0,0
208334,-250,4,2,3,60,0,0
208673,-250,4,2,2,60,0,0
209012,-250,4,2,3,60,0,0
209351,-250,4,2,2,60,0,0
209690,-250,4,2,3,60,0,0
210029,-250,4,2,2,60,0,0
210368,-250,4,2,3,60,0,0
210707,-250,4,2,2,60,0,0
211046,-250,4,2,3,60,0,0
211385,-250,4,2,2,60,0,0
211724,-250,4,2,3,60,0,0
212063,-250,4,2,2,60,0,0
212402,-250,4,2,4,60,0,0
212741,-250,4,2,6,100,0,0
212910,-250,4,2,3,60,0,0
213249,-250,4,2,4,60,0,0
213588,-250,4,2,4,40,0,0
213758,-250,4,2,3,60,0,0
214097,-250,4,2,2,60,0,0
214436,-250,4,2,3,60,0,0
214775,-250,4,2,2,60,0,0
215114,-250,4,2,3,60,0,0
215453,-250,4,2,2,60,0,0
215792,-250,4,2,3,60,0,0
216131,-250,4,2,2,60,0,0
216470,-250,4,2,3,60,0,0
216809,-250,4,2,2,60,0,0
217148,-250,4,2,3,60,0,0
217487,-250,4,2,2,60,0,0
217826,-250,4,2,3,60,0,0
217995,-250,4,2,2,60,0,0
218165,-250,4,2,3,60,0,0
218334,-250,4,2,2,60,0,0
218504,-250,4,2,3,60,0,0
218673,-250,4,2,2,60,0,0
218843,-250,4,2,3,60,0,0
219012,-250,4,2,2,60,0,0

[Colours]
Combo1 : 255,255,128
Combo2 : 91,173,255
Combo3 : 255,128,128
Combo4 : 255,128,64

[HitObjects]
256,192,1046,12,0,2063,0:0:0:0:
256,192,2233,5,12,0:0:0:0:
256,52,2571,1,4,0:0:0:0:
256,192,2910,5,4,0:0:0:0:
326,69,3249,1,4,0:0:0:0:
256,192,3588,5,4,0:0:0:0:
316,156,3758,2,0,L|286:173,1,34.9999990463257,2|2,0:1|0:1,0:0:0:0:
377,121,3927,2,0,L|347:138,1,34.9999990463257,4|2,0:0|0:1,0:0:0:0:
316,156,4097,1,0,0:0:0:0:
256,192,4266,5,4,0:0:0:0:
326,192,4436,1,0,0:0:0:0:
396,191,4605,1,4,0:0:0:0:
326,192,4775,1,0,0:0:0:0:
256,192,4944,5,4,0:0:0:0:
316,227,5114,1,0,0:0:0:0:
377,261,5283,1,4,0:0:0:0:
316,227,5453,2,0,L|286:209,1,34.9999990463257,2|2,0:1|0:1,0:0:0:0:
256,192,5622,5,4,0:0:0:0:
291,252,5792,1,0,0:0:0:0:
326,313,5961,1,4,0:0:0:0:
291,252,6131,1,0,0:0:0:0:
396,191,6300,5,2,0:0:0:0:
115,191,6639,1,8,3:0:0:0:
256,121,6809,6,0,L|256:156,1,34.9999990463257,2|2,0:1|0:1,0:0:0:0:
256,52,6978,1,2,0:1:0:0:
256,192,7148,6,0,L|256:51,1,139.999996185303,2|0,0:0|0:0,0:0:0:0:
256,192,7656,5,4,0:0:0:0:
256,332,7994,1,4,0:0:0:0:
256,192,8334,5,4,0:0:0:0:
185,313,8673,1,4,0:0:0:0:
256,192,9012,5,4,0:0:0:0:
195,227,9182,2,0,L|225:210,1,34.9999990463257,2|2,0:1|0:1,0:0:0:0:
134,262,9351,2,0,L|164:245,1,34.9999990463257,6|2,0:1|0:1,0:0:0:0:
195,227,9521,1,0,0:0:0:0:
256,192,9690,5,4,0:0:0:0:
185,192,9860,1,0,0:0:0:0:
116,191,10029,1,4,0:0:0:0:
185,192,10199,1,0,0:0:0:0:
256,192,10368,5,4,0:0:0:0:
195,156,10538,2,0,L|225:173,1,34.9999990463257,2|2,0:1|0:1,0:0:0:0:
134,121,10707,1,4,0:0:0:0:
195,156,10877,1,0,0:0:0:0:
256,192,11046,5,4,0:0:0:0:
220,130,11216,1,0,0:0:0:0:
185,69,11385,1,4,0:0:0:0:
220,130,11555,1,0,0:0:0:0:
116,191,11724,5,2,0:0:0:0:
396,191,12063,1,2,0:0:0:0:
256,262,12233,6,0,L|256:228,1,34.9999990463257,2|2,0:3|0:3,0:0:0:0:
256,332,12402,1,4,0:3:0:0:
256,192,12571,6,0,L|256:226,1,34.9999990463257,2|2,0:3|0:3,0:0:0:0:
256,332,12741,1,8,0:3:0:0:
256,121,12910,1,2,0:3:0:0:
256,332,13080,6,0,L|217:332,7,21.8749994039536,6|0|0|0|0|0|0|0,0:0|0:0|0:0|0:0|0:0|0:0|0:0|0:0,0:0:0:0:
256,332,13758,2,0,L|282:332,7,26.2499984836579
234,332,14436,6,0,L|202:332,7,30.6249982309342
282,332,15114,2,0,L|317:332,7,34.9999990463257
203,332,15792,6,0,L|163:332,7,39.3749977254868
317,332,16470,2,0,L|360:332,7,43.7499988079071
163,332,17148,6,0,L|97:332,3,65.6250007152558,6|0|0|0,0:0|0:0|0:0|0:0,0:0:0:0:
210,252,17487,2,0,L|177:195,3,65.6250007152558,8|0|0|0,3:0|0:0|0:0|0:0,0:0:0:0:
303,253,17826,2,0,L|335:196,1,65.6250007152558,2|0,0:1|0:0,0:0:0:0:
348,334,17995,2,0,L|413:334,5,65.6250007152558,2|0|0|0|0|0,0:0|0:0|0:0|0:0|0:0|0:0,0:0:0:0:
256,192,18504,6,0,L|256:170,60,21.8749994039536
178,114,19860,6,0,L|200:114,28,21.8749994039536
178,114,20538,2,0,L|167:132,12,21.8749994039536
178,114,20877,2,0,L|167:95,12,21.8749994039536
256,37,21216,6,0,L|256:58,44,21.8749994039536
256,36,22233,2,0,L|256:15,12,21.8749994039536
344,114,22571,6,0,L|311:114,60,32.8125003576279
256,192,23927,5,6,0:0:0:0:
395,192,24097,1,0,0:0:0:0:
256,192,24605,5,8,0:0:0:0:
325,192,24775,1,0,0:0:0:0:
256,192,25114,1,0,0:0:0:0:
395,192,25283,5,2,0:0:0:0:
186,192,25622,1,2,0:0:0:0:
325,192,25961,5,8,0:0:0:0:
256,192,26131,1,0,0:0:0:0:
186,192,26300,1,0,0:0:0:0:
116,192,26470,1,0,0:0:0:0:
325,192,26639,5,2,0:0:0:0:
256,192,26809,1,0,0:0:0:0:
116,192,27317,1,8,0:0:0:0:
395,192,27656,5,0,0:0:0:0:
325,192,27826,1,0,0:0:0:0:
116,192,27995,5,2,0:0:0:0:
325,192,28334,1,0,0:0:0:0:
116,192,28504,1,2,0:0:0:0:
395,192,28673,5,8,0:0:0:0:
256,192,28843,1,0,0:0:0:0:
325,192,29012,5,0,0:0:0:0:
186,192,29182,1,0,0:0:0:0:
256,52,29351,5,2,0:0:0:0:
256,122,29521,1,0,0:0:0:0:
256,261,30029,5,8,0:0:0:0:
256,192,30199,1,0,0:0:0:0:
256,261,30538,1,0,0:0:0:0:
256,122,30707,5,2,0:0:0:0:
256,331,31046,1,2,0:0:0:0:
256,122,31385,5,8,0:0:0:0:
256,192,31555,1,0,0:0:0:0:
256,262,31724,1,0,0:0:0:0:
256,332,31894,1,0,0:0:0:0:
256,192,32063,5,2,0:0:0:0:
256,261,32233,1,0,0:0:0:0:
256,192,32741,5,8,0:0:0:0:
256,122,32910,1,0,0:0:0:0:
256,52,33249,1,0,0:0:0:0:
256,261,33419,5,2,0:0:0:0:
256,122,33758,1,0,0:0:0:0:
256,192,33927,1,0,0:0:0:0:
256,52,34097,5,8,0:0:0:0:
256,122,34266,1,0,0:0:0:0:
256,192,34436,1,0,0:0:0:0:
256,261,34605,1,0,0:0:0:0:
472,104,34775,6,0,L|466:136,1,32.8125003576279,4|0,3:1|0:0,0:0:0:0:
256,122,35114,2,0,L|254:132,1,10.9374997019768,0|0,3:0|0:0,0:0:0:0:
472,104,35453,6,0,L|468:125,1,21.8749994039536,8|0,3:2|0:0,0:0:0:0:
400,110,35622,2,0,L|398:120,1,10.9374997019768,0|0,3:0|0:0,0:0:0:0:
328,116,35792,2,0,L|326:126,1,10.9374997019768,0|0,3:0|0:0,0:0:0:0:
256,122,35961,2,0,L|253:138,1,10.9374997019768,0|0,3:0|0:0,0:0:0:0:
375,221,36131,6,0,L|371:199,1,21.8749994039536,2|0,3:2|0:0,0:0:0:0:
159,203,36470,2,0,L|155:181,1,21.8749994039536,2|0,3:2|0:0,0:0:0:0:
375,221,36809,6,0,L|369:187,1,32.8125003576279,8|0,3:2|0:0,0:0:0:0:
303,215,36978,2,0,L|301:204,1,10.9374997019768,0|0,3:0|0:0,0:0:0:0:
231,209,37148,2,0,L|229:198,1,10.9374997019768,0|0,3:0|0:0,0:0:0:0:
159,203,37317,2,0,L|157:192,1,10.9374997019768,0|0,3:0|0:0,0:0:0:0:
159,203,37402,2,0,L|160:213,1,10.9374997019768,0|0,3:0|0:0,0:0:0:0:
91,248,37487,6,0,L|69:244,1,21.8749994039536,2|0,3:1|0:0,0:0:0:0:
73,32,37826,2,0,L|62:30,1,10.9374997019768,0|0,3:0|0:0,0:0:0:0:
91,248,38165,6,0,L|69:244,1,21.8749994039536,8|0,3:2|0:0,0:0:0:0:
85,176,38334,2,0,L|74:174,1,10.9374997019768,0|0,3:0|0:0,0:0:0:0:
79,104,38504,2,0,L|68:102,1,10.9374997019768,0|0,3:0|0:0,0:0:0:0:
73,32,38673,2,0,L|56:29,1,10.9374997019768,0|0,3:0|0:0,0:0:0:0:
91,248,38843,6,0,L|69:244,1,21.8749994039536,2|0,3:2|0:0,0:0:0:0:
172,321,39012,2,0,L|182:319,1,10.9374997019768,0|0,3:0|0:0,0:0:0:0:
84,333,39182,2,0,L|85:343,1,10.9374997019768,0|0,3:0|0:0,0:0:0:0:
177,240,39351,6,0,L|180:218,1,21.8749994039536,2|0,3:2|0:0,0:0:0:0:
177,240,39436,2,0,L|185:233,1,10.9374997019768,0|0,3:0|0:0,0:0:0:0:
177,240,39521,2,0,L|198:236,1,21.8749994039536,8|0,3:2|0:0,0:0:0:0:
282,333,39690,6,0,L|278:311,1,21.8749994039536,0|0,3:0|0:0,0:0:0:0:
282,333,39775,2,0,L|273:326,1,10.9374997019768,2|0,3:2|0:0,0:0:0:0:
282,333,39860,2,0,L|260:329,1,21.8749994039536,0|0,3:0|0:0,0:0:0:0:
177,240,40029,6,0,L|198:236,1,21.8749994039536,2|0,3:2|0:0,0:0:0:0:
362,372,40199,6,0,L|355:340,1,32.8125003576279,2|0,3:2|0:0,0:0:0:0:
437,354,40368,2,0,L|418:343,1,21.8749994039536,0|0,3:0|0:0,0:0:0:0:
470,284,40538,2,0,L|459:287,1,10.9374997019768,0|0,3:0|0:0,0:0:0:0:
437,215,40707,2,0,L|429:235,1,21.8749994039536,0|0,3:0|0:0,0:0:0:0:
362,198,40877,2,0,L|374:216,1,21.8749994039536,8|0,3:2|0:0,0:0:0:0:
301,246,41046,2,0,L|322:247,1,21.8749994039536,2|0,3:2|0:0,0:0:0:0:
301,323,41216,2,0,L|308:314,1,10.9374997019768,0|0,3:0|0:0,0:0:0:0:
136,229,41385,6,0,L|151:213,1,21.8749994039536,2|0,3:2|0:0,0:0:0:0:
136,229,41470,2,0,L|143:208,1,21.8749994039536,0|0,3:0|2:0,2:0:0:0:
136,229,41555,6,0,L|141:197,1,32.8125003576279,2|0,3:2|0:0,0:0:0:0:
60,211,41724,2,0,L|78:200,1,21.8749994039536,0|0,3:0|0:0,0:0:0:0:
27,141,41894,2,0,L|36:144,1,10.9374997019768,2|0,3:2|0:0,0:0:0:0:
60,72,42063,2,0,L|66:92,1,21.8749994039536,0|0,3:0|0:0,0:0:0:0:
136,55,42233,2,0,L|123:72,1,21.8749994039536,8|0,3:2|0:0,0:0:0:0:
196,103,42402,2,0,L|174:103,1,21.8749994039536,0|0,3:0|0:0,0:0:0:0:
196,180,42572,2,0,L|188:172,1,10.9374997019768,0|0,3:0|0:0,0:0:0:0:
415,34,42741,6,0,L|430:18,1,21.8749994039536,0|0,3:0|0:0,0:0:0:0:
415,34,42826,2,0,L|435:26,1,21.8749994039536,0|0,3:0|2:0,2:0:0:0:
415,34,42911,6,0,L|449:27,1,32.8125003576279,2|0,3:2|0:0,0:0:0:0:
317,18,43080,2,0,L|309:9,1,10.9374997019768,0|0,3:0|0:0,0:0:0:0:
353,111,43249,2,0,L|344:134,1,21.8749994039536,0|0,3:0|0:0,0:0:0:0:
97,34,43419,6,0,L|81:18,1,21.8749994039536,0|0,3:0|0:0,0:0:0:0:
97,34,43504,2,0,L|76:26,1,21.8749994039536,0|0,3:0|2:0,2:0:0:0:
97,34,43588,6,0,L|62:27,1,32.8125003576279,8|0,3:2|0:0,0:0:0:0:
195,18,43758,2,0,L|202:9,1,10.9374997019768,0|0,3:0|0:0,0:0:0:0:
159,111,43927,2,0,L|167:134,1,21.8749994039536,0|0,3:0|0:0,0:0:0:0:
370,244,44097,6,0,L|378:267,1,21.8749994039536,0|0,3:0|0:0,0:0:0:0:
370,244,44182,2,0,L|378:221,1,21.8749994039536,0|0,3:0|0:0,0:0:0:0:
292,288,44266,6,0,L|288:282,1,5.46874985098839,2|0,3:1|0:0,0:0:0:0:
244,299,44351,2,0,L|245:293,1,5.46874985098839,0|0,3:0|0:0,0:0:0:0:
205,268,44436,2,0,L|211:265,1,5.46874985098839,0|0,3:0|0:0,0:0:0:0:
205,219,44521,2,0,L|211:223,1,5.46874985098839,0|0,3:0|0:0,0:0:0:0:
244,188,44605,2,0,L|245:195,1,5.46874985098839,0|0,3:2|0:0,0:0:0:0:
292,199,44690,2,0,L|287:204,1,5.46874985098839,0|0,3:0|0:0,0:0:0:0:
313,243,44775,5,2,0:1:0:0:
256,243,44860,1,2,0:1:0:0:
133,244,44944,6,0,L|122:244,28,10.9374997019768,10|0|0|0|0|0|0|0|0|0|0|0|0|0|0|0|0|0|0|0|0|0|0|0|0|0|0|0|0,0:0|0:0|0:0|0:0|0:0|0:0|0:0|0:0|0:0|0:0|0:0|0:0|0:0|0:0|0:0|0:0|0:0|0:0|0:0|0:0|0:0|0:0|0:0|0:0|0:0|0:0|0:0|0:0|0:0,0:0:0:0:
17,346,45622,6,0,L|0:171,7,174.999995231629,6|0|0|0|0|0|0|0,0:0|0:0|0:0|0:0|0:0|0:0|0:0|0:0,0:0:0:0:
183,94,48165,1,0,0:0:0:0:
105,0,48334,6,0,L|87:174,7,174.999995231629,2|0|0|0|0|0|0|0,0:0|0:0|0:0|0:0|0:0|0:0|0:0|0:0,0:0:0:0:
197,312,50877,2,0,L|201:268,1,43.7499988079071
132,244,51046,6,0,L|262:230,6,131.250001430512,2|0|0|0|0|0|0,0:0|0:0|0:0|0:0|0:0|0:0|0:0,0:0:0:0:
388,74,52233,2,0,L|394:139,1,65.6250007152558
478,180,52402,6,0,L|303:162,6,174.999995231629,2|0|0|0|0|0|0,0:0|0:0|0:0|0:0|0:0|0:0|0:0,0:0:0:0:
132,244,53588,2,0,L|140:156,1,87.4999976158143
72,115,53758,6,0,L|202:101,3,131.250001430512,2|0|0|0,0:0|0:0|0:0|0:0,0:0:0:0:
239,23,54097,6,0,L|290:93,3,87.4999976158143,2|0|0|0,0:0|0:0|0:0|0:0,0:0:0:0:
371,94,54436,6,0,L|344:153,3,65.6250007152558,2|0|0|0,0:0|0:0|0:0|0:0,0:0:0:0:
358,229,54775,6,0,L|314:233,3,43.7499988079071,2|0|0|0,0:0|0:0|0:0|0:0,0:0:0:0:
28,120,55114,6,0,L|201:101,1,174.999995231629,6|0,0:0|0:0,0:0:0:0:
221,62,55453,6,0,L|177:66,1,43.7499988079071
91,78,55622,2,0,L|47:82,1,43.7499988079071
239,23,55792,6,0,L|217:25,2,21.8749994039536
97,39,55961,2,0,L|64:42,2,32.8125003576279
334,30,56131,6,0,L|336:8,12,21.8749994039536,8|0|0|0|0|0|0|0|0|0|0|0|0,3:0|0:0|0:0|0:0|0:0|0:0|0:0|0:0|0:0|0:0|0:0|0:0|0:0,0:0:0:0:
490,86,56470,6,0,P|395:65|305:101,1,196.875002145767,6|0,0:0|0:0,0:0:0:0:
467,106,56809,6,0,P|403:93|341:113,1,131.249996423721,2|0,0:0|0:0,0:0:0:0:
275,169,57148,2,0,L|209:163,1,65.6250007152558,8|0,0:0|0:0,0:0:0:0:
471,134,57317,6,0,P|407:122|345:142,1,131.249996423721,2|0,0:0|0:0,0:0:0:0:
275,169,57656,2,0,L|278:212,1,43.7499988079071
156,270,57826,6,0,L|118:266,1,21.8749994039536,2|0,0:0|0:0,0:0:0:0:
132,225,57995,2,0,L|135:268,1,43.7499988079071
359,282,58165,6,0,P|295:294|233:274,1,131.249996423721,2|0,0:0|0:0,0:0:0:0:
132,225,58504,2,0,L|66:219,1,65.6250007152558,8|0,0:0|0:0,0:0:0:0:
0,85,58673,6,0,P|39:65|82:65,1,87.4999976158143
86,42,58843,2,0,P|114:58|134:83,1,65.6250007152558
156,78,59012,2,0,P|157:94|155:110,4,32.8125003576279
6,181,59182,6,0,L|203:199,1,196.875002145767,6|0,0:0|0:0,0:0:0:0:
38,215,59521,6,0,L|169:227,1,131.249996423721,2|0,0:0|0:0,0:0:0:0:
266,237,59860,2,0,P|275:206|271:174,1,65.6250007152558,8|0,0:0|0:0,0:0:0:0:
56,248,60029,6,0,L|143:255,1,87.4999976158143,2|2,0:0|0:0,0:0:0:0:
192,330,60283,1,2,0:0:0:0:
213,327,60368,1,2,0:0:0:0:
234,324,60453,1,2,0:0:0:0:
307,343,60538,6,0,P|309:332|310:321,1,21.8749994039536,2|0,0:0|0:0,0:0:0:0:
351,333,60707,2,0,P|331:323|309:321,1,43.7499988079071
234,324,60877,2,0,L|190:320,1,43.7499988079071,2|0,0:0|0:0,0:0:0:0:
124,384,61046,2,0,L|80:380,1,43.7499988079071
56,248,61216,6,0,L|121:253,1,65.6250007152558,8|0,0:0|0:0,0:0:0:0:
194,111,61385,2,0,L|201:198,1,87.4999976158143
37,229,61555,6,0,L|102:234,1,65.6250007152558,8|0,0:0|0:0,0:0:0:0:
172,90,61724,2,0,L|179:177,1,87.4999976158143
447,283,61894,6,0,B|360:328|360:328|263:306,1,196.875002145767,6|0,0:0|0:0,0:0:0:0:
412,269,62233,6,0,B|357:298|357:298|289:283,1,131.249996423721,2|0,0:0|0:0,0:0:0:0:
194,338,62571,2,0,P|187:307|196:275,1,65.6250007152558,8|0,0:0|0:0,0:0:0:0:
391,253,62741,6,0,B|354:272|354:272|309:261,1,87.4999976158143,2|2,0:0|0:0,0:0:0:0:
219,137,63080,2,0,L|222:180,1,43.7499988079071,2|2,0:0|0:0,0:0:0:0:
215,56,63249,5,2,0:0:0:0:
244,182,63419,2,0,L|222:180,1,21.8749994039536
337,70,63588,6,0,B|282:41|282:41|214:56,1,131.249996423721,2|0,0:0|0:0,0:0:0:0:
244,182,63927,2,0,L|178:176,1,65.6250007152558,8|0,0:0|0:0,0:0:0:0:
72,222,64097,6,0,L|104:219,2,32.8125003576279,2|0|0,0:0|0:0|0:0,0:0:0:0:
110,107,64266,6,0,L|142:104,6,32.8125003576279,2|0|0|0|0|0|0,0:0|0:0|0:0|0:0|0:0|0:0|0:0,0:0:0:0:
2,285,64605,6,0,B|36:306|36:306|158:291|158:291|179:264,1,196.875002145767,6|0,0:1|0:0,0:0:0:0:
242,205,64944,2,0,B|276:184|276:184|458:211|458:211|483:239,1,262.499992847443,10|0,0:0|0:0,0:0:0:0:
512,152,65283,6,0,B|502:129|502:129|508:88,1,65.6250007152558,2|0,0:0|0:0,0:0:0:0:
430,0,65453,2,0,B|438:38|438:38|430:86,1,87.4999976158143,8|0,0:0|0:0,0:0:0:0:
360,120,65622,5,2,0:0:0:0:
333,115,65707,1,2,0:0:0:0:
307,110,65792,1,2,0:0:0:0:
281,106,65877,1,2,0:0:0:0:
198,143,65961,6,2,B|208:120|208:120|202:79,1,65.6250007152558,10|0,0:0|0:0,0:0:0:0:
57,17,66131,2,0,B|49:55|49:55|57:103,1,87.4999976158143,8|0,0:0|0:0,0:0:0:0:
82,179,66300,6,0,L|125:176,1,43.7499988079071,8|0,0:3|0:0,0:0:0:0:
90,193,66470,2,0,L|133:190,1,43.7499988079071,2|0,0:0|0:0,0:0:0:0:
228,338,66639,6,0,P|232:316|231:294,6,43.7499988079071,8|0|0|0|0|0|0,0:0|0:0|0:0|0:0|0:0|0:0|0:0,0:0:0:0:
329,372,66978,2,0,P|340:360|348:346,6,32.8125003576279,2|0|0|0|0|0|0,0:0|0:0|0:0|0:0|0:0|0:0|0:0,0:0:0:0:
490,298,67317,6,0,P|395:319|305:283,1,196.875002145767,6|0,0:0|0:0,0:0:0:0:
467,278,67656,6,0,P|403:291|341:271,1,131.249996423721,2|0,0:0|0:0,0:0:0:0:
275,215,67995,2,0,L|209:221,1,65.6250007152558,8|0,0:0|0:0,0:0:0:0:
471,250,68165,6,0,P|407:262|345:242,1,131.249996423721,2|0,0:0|0:0,0:0:0:0:
275,215,68504,2,0,L|278:172,1,43.7499988079071,2|0,0:0|0:0,0:0:0:0:
156,113,68673,6,0,L|118:117,1,21.8749994039536,2|0,0:0|0:0,0:0:0:0:
132,159,68842,2,0,L|135:116,1,43.7499988079071
359,102,69012,6,0,P|295:90|233:110,1,131.249996423721,2|0,0:0|0:0,0:0:0:0:
132,159,69351,2,0,L|66:165,1,65.6250007152558,8|0,0:0|0:0,0:0:0:0:
0,299,69521,6,0,P|39:319|82:319,1,87.4999976158143,2|0,0:0|0:0,0:0:0:0:
86,342,69690,2,0,P|114:326|134:301,1,65.6250007152558
156,306,69860,2,0,P|157:290|155:274,4,32.8125003576279,2|0|0|0|0,0:0|0:0|0:0|0:0|0:0,0:0:0:0:
6,203,70029,6,0,L|203:185,1,196.875002145767,6|0,0:0|0:0,0:0:0:0:
38,169,70368,6,0,L|169:157,1,131.249996423721,2|0,0:0|0:0,0:0:0:0:
266,147,70707,2,0,P|275:178|271:210,1,65.6250007152558,8|0,0:0|0:0,0:0:0:0:
56,136,70877,6,0,L|143:129,1,87.4999976158143,2|2,0:0|0:0,0:0:0:0:
192,54,71130,1,2,0:0:0:0:
213,57,71215,1,2,0:0:0:0:
234,60,71300,1,2,0:0:0:0:
307,41,71385,6,0,P|309:52|310:63,1,21.8749994039536,2|0,0:0|0:0,0:0:0:0:
351,50,71554,2,0,P|331:60|309:62,1,43.7499988079071
234,60,71724,2,0,L|190:64,1,43.7499988079071,2|0,0:0|0:0,0:0:0:0:
124,0,71893,2,0,L|80:4,1,43.7499988079071
56,136,72063,6,0,L|121:131,1,65.6250007152558,8|0,0:0|0:0,0:0:0:0:
194,273,72233,2,0,L|201:186,1,87.4999976158143,2|0,0:0|0:0,0:0:0:0:
37,155,72402,6,0,L|102:150,1,65.6250007152558,8|0,0:0|0:0,0:0:0:0:
172,294,72571,2,0,L|179:207,1,87.4999976158143,2|0,0:0|0:0,0:0:0:0:
447,101,72741,6,0,B|360:56|360:56|263:78,1,196.875002145767,6|0,0:0|0:0,0:0:0:0:
412,115,73080,6,0,B|357:86|357:86|289:101,1,131.249996423721,2|0,0:0|0:0,0:0:0:0:
194,46,73419,2,0,P|187:77|196:109,1,65.6250007152558,8|0,0:0|0:0,0:0:0:0:
391,131,73588,6,0,B|354:112|354:112|309:123,1,87.4999976158143,2|2,0:0|0:0,0:0:0:0:
219,247,73927,2,0,L|222:204,1,43.7499988079071,2|2,0:0|0:0,0:0:0:0:
215,327,74097,5,2,0:0:0:0:
244,202,74266,2,0,L|222:204,1,21.8749994039536
338,313,74436,6,0,B|283:342|283:342|215:327,1,131.249996423721,2|0,0:0|0:0,0:0:0:0:
244,202,74775,2,0,L|178:208,1,65.6250007152558,8|0,0:0|0:0,0:0:0:0:
72,162,74944,6,0,L|104:165,2,32.8125003576279,2|0|0,0:0|0:0|0:0,0:0:0:0:
110,277,75114,6,0,L|142:280,6,32.8125003576279,2|0|0|0|0|0|0,0:0|0:0|0:0|0:0|0:0|0:0|0:0,0:0:0:0:
2,99,75453,6,0,B|36:78|36:78|158:93|158:93|179:120,1,196.875002145767,6|0,0:1|0:0,0:0:0:0:
247,162,75792,2,0,B|278:183|278:183|331:177|331:177|352:142,1,131.249996423721,2|0,0:0|0:0,0:0:0:0:
439,91,76131,6,0,B|430:108|430:108|432:132,1,43.7499988079071
430,195,76300,2,0,B|439:172|439:172|432:131,1,65.6250007152558
364,64,76469,5,2,0:0:0:0:
350,62,76554,1,2,0:0:0:0:
336,60,76639,1,2,0:0:0:0:
323,57,76724,1,2,0:0:0:0:
243,19,76809,6,0,B|253:42|253:42|247:83,1,65.6250007152558,10|2,0:0|0:0,0:0:0:0:
205,219,76978,2,0,B|198:201|198:201|201:176,1,43.7499988079071
300,150,77148,6,0,L|342:155,1,43.7499988079071,8|0,0:3|0:0,0:0:0:0:
308,136,77317,2,0,L|350:141,1,43.7499988079071
479,169,77487,6,0,P|483:190|482:212,6,43.7499988079071
378,215,77826,2,0,P|389:226|397:240,6,32.8125003576279
312,313,78165,6,0,P|308:297|315:313,14,32.8125003576279,6|0|0|0|0|0|0|0|0|0|0|0|0|0|0,0:0|0:0|0:0|0:0|0:0|0:0|0:0|0:0|0:0|0:0|0:0|0:0|0:0|0:0|0:0,0:0:0:0:
210,368,78843,6,0,P|192:355|171:349,12,43.7499988079071,14|0|0|0|0|0|0|0|0|0|0|0|0,0:0|0:0|0:0|0:0|0:0|0:0|0:0|0:0|0:0|0:0|0:0|0:0|0:0,0:0:0:0:
148,279,79182,2,0,P|128:287|112:303,12,43.7499988079071,4|0|0|0|0|0|0|0|0|0|0|0|0,0:0|0:0|0:0|0:0|0:0|0:0|0:0|0:0|0:0|0:0|0:0|0:0|0:0,0:0:0:0:
39,288,79521,2,0,P|36:309|42:330,28,43.7499988079071,6|0|0|0|0|0|0|0|0|0|0|0|0|0|0|0|0|0|0|0|0|0|0|0|0|0|0|0|0,0:0|0:0|0:0|0:0|0:0|0:0|0:0|0:0|0:0|0:0|0:0|0:0|0:0|0:0|0:0|0:0|0:0|0:0|0:0|0:0|0:0|0:0|0:0|0:0|0:0|0:0|0:0|0:0|0:0,0:0:0:0:
108,212,80199,6,0,L|113:168,1,43.7499988079071,8|0,0:0|0:0,0:0:0:0:
55,51,80368,2,0,L|46:116,1,65.6250007152558
117,208,80538,6,0,L|122:164,1,43.7499988079071,8|0,0:3|0:0,0:0:0:0:
63,45,80707,2,0,L|54:110,1,65.6250007152558
215,10,80877,6,0,L|211:42,6,32.8125003576279,2|0|0|0|0|0|0,0:0|0:0|0:0|0:0|0:0|0:0|0:0,0:0:0:0:
275,104,81216,2,0,L|253:106,6,21.8749994039536,2|0|0|0|0|0|0,0:0|0:0|0:0|0:0|0:0|0:0|0:0,0:0:0:0:
302,16,81555,6,0,P|320:29|341:35,12,43.7499988079071,12|0|0|0|0|0|0|0|0|0|0|0|0,0:0|0:0|0:0|0:0|0:0|0:0|0:0|0:0|0:0|0:0|0:0|0:0|0:0,0:0:0:0:
364,105,81894,2,0,P|384:97|400:81,12,43.7499988079071,4|0|0|0|0|0|0|0|0|0|0|0|0,0:0|0:0|0:0|0:0|0:0|0:0|0:0|0:0|0:0|0:0|0:0|0:0|0:0,0:0:0:0:
473,96,82233,2,0,P|476:75|470:54,20,43.7499988079071,6|0|0|0|0|0|0|0|0|0|0|0|0|0|0|0|0|0|0|0|0,0:0|0:0|0:0|0:0|0:0|0:0|0:0|0:0|0:0|0:0|0:0|0:0|0:0|0:0|0:0|0:0|0:0|0:0|0:0|0:0|0:0,0:0:0:0:
465,203,82741,5,2,0:0:0:0:
477,195,82826,1,2,0:0:0:0:
489,187,82910,2,0,L|445:182,1,43.7499988079071,8|0,1:3|0:0,0:0:0:0:
328,240,83080,2,0,L|393:249,1,65.6250007152558
485,178,83249,6,0,L|441:173,1,43.7499988079071,8|0,1:3|0:0,0:0:0:0:
322,232,83419,2,0,L|387:241,1,65.6250007152558
275,104,83588,6,0,L|279:136,14,32.8125003576279,6|0|0|0|0|0|0|0|0|0|0|0|0|0|0,0:0|0:0|0:0|0:0|0:0|0:0|0:0|0:0|0:0|0:0|0:0|0:0|0:0|0:0|0:0,0:0:0:0:
196,36,84266,6,0,P|183:54|177:75,12,43.7499988079071,12|0|0|0|0|0|0|0|0|0|0|0|0,0:0|0:0|0:0|0:0|0:0|0:0|0:0|0:0|0:0|0:0|0:0|0:0|0:0,0:0:0:0:
107,98,84605,2,0,P|115:118|131:134,12,43.7499988079071,4|0|0|0|0|0|0|0|0|0|0|0|0,0:0|0:0|0:0|0:0|0:0|0:0|0:0|0:0|0:0|0:0|0:0|0:0|0:0,0:0:0:0:
116,207,84944,2,0,P|137:210|158:204,28,43.7499988079071,6|0|0|0|0|0|0|0|0|0|0|0|0|0|0|0|0|0|0|0|0|0|0|0|0|0|0|0|0,0:0|0:0|0:0|0:0|0:0|0:0|0:0|0:0|0:0|0:0|0:0|0:0|0:0|0:0|0:0|0:0|0:0|0:0|0:0|0:0|0:0|0:0|0:0|0:0|0:0|0:0|0:0|0:0|0:0,0:0:0:0:
257,203,85622,6,0,L|301:208,1,43.7499988079071,8|0,0:0|0:0,0:0:0:0:
418,150,85792,2,0,L|353:141,1,65.6250007152558
261,212,85961,6,0,L|305:217,1,43.7499988079071,8|0,0:3|0:0,0:0:0:0:
424,158,86131,2,0,L|359:149,1,65.6250007152558
250,88,86300,6,0,L|253:120,6,32.8125003576279,10|0|0|0|0|0|0,0:0|0:0|0:0|0:0|0:0|0:0|0:0,0:0:0:0:
386,271,86639,2,0,L|387:249,6,21.8749994039536,8|0|0|0|0|0|0,0:0|0:0|0:0|0:0|0:0|0:0|0:0,0:0:0:0:
271,74,86978,5,2,0:0:0:0:
416,285,87148,2,0,L|419:252,6,32.8125003576279,8|0|0|0|0|0|0,0:0|0:0|0:0|0:0|0:0|0:0|0:0,0:0:0:0:
296,58,87487,6,0,L|302:123,1,65.6250007152558,2|2,0:0|0:0,0:0:0:0:
194,161,87656,6,0,L|368:177,3,174.999995231629,6|8|8|0,0:0|0:0|0:3|0:0,0:0:0:0:
19,274,88334,6,0,L|16:317,6,43.7499988079071,8|0|0|0|0|0|0,0:0|0:0|0:0|0:0|0:0|0:0|0:0,0:0:0:0:
134,286,88673,2,0,L|109:307,6,32.8125003576279,2|0|0|0|0|0|0,0:0|0:0|0:0|0:0|0:0|0:0|0:0,0:0:0:0:
207,375,89012,6,0,L|174:372,14,32.8125003576279,6|0|0|0|0|0|0|0|0|0|0|0|0|0|0,0:0|0:0|0:0|0:0|0:0|0:0|0:0|0:0|0:0|0:0|0:0|0:0|0:0|0:0|0:0,0:0:0:0:
302,368,89690,6,0,B|320:355|320:355|341:349,12,43.7499988079071,12|0|0|0|0|0|0|0|0|0|0|0|0,0:0|0:0|0:0|0:0|0:0|0:0|0:0|0:0|0:0|0:0|0:0|0:0|0:0,0:0:0:0:
364,279,90029,2,0,B|384:287|384:287|400:303,12,43.7499988079071,4|0|0|0|0|0|0|0|0|0|0|0|0,0:0|0:0|0:0|0:0|0:0|0:0|0:0|0:0|0:0|0:0|0:0|0:0|0:0,0:0:0:0:
473,288,90368,2,0,B|476:309|476:309|470:330,28,43.7499988079071,6|0|0|0|0|0|0|0|0|0|0|0|0|0|0|0|0|0|0|0|0|0|0|0|0|0|0|0|0,0:0|0:0|0:0|0:0|0:0|0:0|0:0|0:0|0:0|0:0|0:0|0:0|0:0|0:0|0:0|0:0|0:0|0:0|0:0|0:0|0:0|0:0|0:0|0:0|0:0|0:0|0:0|0:0|0:0,0:0:0:0:
404,212,91046,6,0,L|399:168,1,43.7499988079071,8|0,0:0|0:0,0:0:0:0:
457,51,91216,2,0,L|466:116,1,65.6250007152558
395,208,91385,6,0,L|390:164,1,43.7499988079071,8|0,0:3|0:0,0:0:0:0:
449,45,91555,2,0,L|458:110,1,65.6250007152558
297,10,91724,6,0,L|301:42,6,32.8125003576279,2|0|0|0|0|0|0,0:0|0:0|0:0|0:0|0:0|0:0|0:0,0:0:0:0:
237,104,92063,2,0,L|259:106,6,21.8749994039536,2|0|0|0|0|0|0,0:0|0:0|0:0|0:0|0:0|0:0|0:0,0:0:0:0:
210,16,92402,6,0,B|192:29|192:29|171:35,12,43.7499988079071,12|0|0|0|0|0|0|0|0|0|0|0|0,0:0|0:0|0:0|0:0|0:0|0:0|0:0|0:0|0:0|0:0|0:0|0:0|0:0,0:0:0:0:
148,105,92741,2,0,B|128:97|128:97|112:81,12,43.7499988079071,4|0|0|0|0|0|0|0|0|0|0|0|0,0:0|0:0|0:0|0:0|0:0|0:0|0:0|0:0|0:0|0:0|0:0|0:0|0:0,0:0:0:0:
39,96,93080,2,0,B|36:75|36:75|42:54,20,43.7499988079071,6|0|0|0|0|0|0|0|0|0|0|0|0|0|0|0|0|0|0|0|0,0:0|0:0|0:0|0:0|0:0|0:0|0:0|0:0|0:0|0:0|0:0|0:0|0:0|0:0|0:0|0:0|0:0|0:0|0:0|0:0|0:0,0:0:0:0:
47,203,93588,5,2,0:0:0:0:
35,195,93673,1,2,0:0:0:0:
23,187,93758,2,0,L|67:182,1,43.7499988079071,8|0,1:3|0:0,0:0:0:0:
184,240,93927,2,0,L|119:249,1,65.6250007152558
27,178,94097,6,0,L|71:173,1,43.7499988079071,8|0,1:3|0:0,0:0:0:0:
190,232,94266,2,0,L|125:241,1,65.6250007152558
237,104,94436,6,0,L|233:136,6,32.8125003576279,6|0|0|0|0|0|0,0:0|0:0|0:0|0:0|0:0|0:0|0:0,0:0:0:0:
310,176,94775,2,0,L|306:144,6,32.8125003576279,2|0|0|0|0|0|0,0:0|0:0|0:0|0:0|0:0|0:0|0:0,0:0:0:0:
316,36,95114,6,0,B|329:54|329:54|335:75,12,43.7499988079071,12|0|0|0|0|0|0|0|0|0|0|0|0,0:0|0:0|0:0|0:0|0:0|0:0|0:0|0:0|0:0|0:0|0:0|0:0|0:0,0:0:0:0:
405,98,95453,2,0,B|397:118|397:118|381:134,4,43.7499988079071,4|0|0|0|0,0:0|0:0|0:0|0:0|0:0,0:0:0:0:
396,207,95622,2,0,B|375:210|375:210|354:204,4,43.7499988079071,2|0|0|0|0,0:0|0:0|0:0|0:0|0:0,0:0:0:0:
210,191,95792,6,0,B|218:171|218:171|234:156,12,43.7499988079071,6|0|0|0|0|0|0|0|0|0|0|0|0,0:0|0:0|0:0|0:0|0:0|0:0|0:0|0:0|0:0|0:0|0:0|0:0|0:0,0:0:0:0:
220,83,96131,2,0,B|242:80|242:80|263:86,12,43.7499988079071,2|0|0|0|0|0|0|0|0|0|0|0|0,0:0|0:0|0:0|0:0|0:0|0:0|0:0|0:0|0:0|0:0|0:0|0:0|0:0,0:0:0:0:
289,211,96470,6,0,L|355:203,1,65.6250007152558,8|0,0:0|0:0,0:0:0:0:
486,261,96639,2,0,L|400:273,1,87.4999976158143
273,200,96809,6,0,L|360:190,1,87.4999976158143,8|0,0:3|0:0,0:0:0:0:
478,275,96978,2,0,L|391:286,1,87.4999976158143,2|0,0:0|0:0,0:0:0:0:
255,326,97148,6,0,L|252:294,6,32.8125003576279,10|0|0|0|0|0|0,0:0|0:0|0:0|0:0|0:0|0:0|0:0,0:0:0:0:
198,196,97487,2,0,L|197:218,6,21.8749994039536
233,340,97826,6,0,L|229:296,1,43.7499988079071
168,189,97995,2,0,L|165:222,6,32.8125003576279
209,356,98334,6,0,L|203:291,1,65.6250007152558
39,280,98504,6,0,L|127:288,1,87.4999976158143,8|0,0:0|0:0,0:0:0:0:
273,200,98673,6,0,L|317:196,1,43.7499988079071
277,210,98843,2,0,L|321:206,1,43.7499988079071,8|0,0:3|0:0,0:0:0:0:
281,220,99012,2,0,L|325:216,1,43.7499988079071
91,88,99182,6,0,P|86:66|88:45,6,43.7499988079071,2|0|0|0|0|0|0,0:0|0:0|0:0|0:0|0:0|0:0|0:0,0:0:0:0:
185,61,99521,2,0,P|198:52|213:45,6,32.8125003576279
256,129,99860,5,6,0:0:0:0:
396,192,103927,5,2,0:0:0:0:
115,192,104266,1,8,3:0:0:0:
256,262,104436,6,0,L|256:228,1,34.9999990463257,2|2,0:1|0:1,0:0:0:0:
256,332,104605,1,2,0:1:0:0:
256,192,104775,6,0,L|256:332,1,139.999996185303,2|0,0:0|0:0,0:0:0:0:
256,192,105283,5,4,0:0:0:0:
256,121,109860,6,0,L|256:156,1,34.9999990463257,2|2,0:3|0:3,0:0:0:0:
256,51,110029,1,4,0:3:0:0:
256,192,110199,6,0,L|256:157,1,34.9999990463257,2|2,0:3|0:3,0:0:0:0:
256,51,110368,1,8,0:3:0:0:
256,262,110537,1,2,0:3:0:0:
256,51,110707,5,4,0:0:0:0:
116,201,114775,5,2,0:0:0:0:
396,201,115114,1,8,3:0:0:0:
256,271,115283,6,0,L|256:236,1,34.9999990463257,2|2,0:1|0:1,0:0:0:0:
256,341,115453,1,2,0:1:0:0:
256,200,115622,6,0,L|256:340,1,139.999996185303,2|0,0:0|0:0,0:0:0:0:
256,200,116131,5,4,0:0:0:0:
256,192,117487,12,0,121385,0:0:0:0:
256,192,121555,5,4,0:1:0:0:
156,92,121724,1,0,0:0:0:0:
256,192,122233,5,8,0:3:0:0:
305,241,122402,1,0,0:0:0:0:
355,291,122741,1,0,0:0:0:0:
305,241,122910,5,0,0:0:0:0:
256,192,123249,1,0,0:0:0:0:
156,92,123588,5,8,0:3:0:0:
205,141,123758,1,0,0:0:0:0:
305,241,124097,1,0,0:0:0:0:
256,192,124266,5,0,0:0:0:0:
305,241,124436,1,0,0:0:0:0:
156,92,124944,5,8,0:3:0:0:
256,192,125283,1,0,0:0:0:0:
205,141,125453,1,0,0:0:0:0:
305,241,125622,5,0,0:0:0:0:
205,141,125961,1,0,0:0:0:0:
355,291,126300,5,8,0:3:0:0:
256,192,126470,1,0,0:0:0:0:
156,92,126809,1,0,0:0:0:0:
256,192,126978,5,0,0:0:0:0:
205,241,127148,1,0,0:0:0:0:
305,141,127656,5,8,0:3:0:0:
355,92,127826,1,0,0:0:0:0:
256,192,128165,1,0,0:0:0:0:
205,241,128334,5,0,0:0:0:0:
305,141,128673,1,0,0:0:0:0:
156,291,129012,5,8,0:3:0:0:
205,241,129182,1,0,0:0:0:0:
305,141,129521,1,0,0:0:0:0:
256,192,129690,5,0,0:0:0:0:
305,141,129860,1,0,0:0:0:0:
156,291,130368,5,8,0:3:0:0:
205,241,130538,1,0,0:0:0:0:
305,141,130877,1,0,0:0:0:0:
256,192,131046,5,0,0:0:0:0:
355,92,131385,5,0,0:0:0:0:
305,141,131555,1,0,0:0:0:0:
205,241,131724,5,8,0:3:0:0:
256,192,131894,1,0,0:0:0:0:
156,291,132063,5,0,0:0:0:0:
256,192,132233,1,0,0:0:0:0:
348,59,132402,6,0,L|354:91,1,32.8125003576279,4|0,3:1|0:0,0:0:0:0:
132,86,132741,2,0,L|134:96,1,10.9374997019768,0|0,3:0|0:0,0:0:0:0:
348,59,133080,6,0,L|352:80,1,21.8749994039536,8|0,3:0|0:0,0:0:0:0:
276,68,133249,2,0,L|278:79,1,10.9374997019768,0|0,3:0|0:0,0:0:0:0:
204,77,133419,2,0,L|206:87,1,10.9374997019768,0|0,3:0|0:0,0:0:0:0:
132,86,133588,2,0,L|134:96,1,10.9374997019768,0|0,3:0|0:0,0:0:0:0:
40,165,133758,6,0,L|37:175,1,10.9374997019768,2|0,3:1|0:0,0:0:0:0:
256,192,134097,2,0,L|253:202,1,10.9374997019768,0|0,3:0|0:0,0:0:0:0:
40,165,134436,6,0,L|35:186,1,21.8749994039536,8|0,3:0|0:0,0:0:0:0:
112,174,134605,2,0,L|109:185,1,10.9374997019768,0|0,3:0|0:0,0:0:0:0:
184,183,134775,2,0,L|181:193,1,10.9374997019768,0|0,3:0|0:0,0:0:0:0:
256,192,134944,2,0,L|253:202,1,10.9374997019768,0|0,3:0|0:0,0:0:0:0:
256,192,135029,2,0,L|258:181,1,10.9374997019768,0|0,3:0|0:0,0:0:0:0:
298,261,135114,6,0,L|300:271,1,10.9374997019768,2|0,3:1|0:0,0:0:0:0:
82,288,135453,2,0,L|84:298,1,10.9374997019768,0|0,3:0|0:0,0:0:0:0:
298,261,135792,6,0,L|302:282,1,21.8749994039536,8|0,3:0|0:0,0:0:0:0:
226,270,135962,2,0,L|228:281,1,10.9374997019768,0|0,3:0|0:0,0:0:0:0:
154,279,136131,2,0,L|156:289,1,10.9374997019768,0|0,3:0|0:0,0:0:0:0:
82,288,136300,2,0,L|84:298,1,10.9374997019768,0|0,3:0|0:0,0:0:0:0:
298,261,136470,6,0,L|302:282,1,21.8749994039536,2|0,3:1|0:0,0:0:0:0:
382,362,136639,2,0,L|384:351,1,10.9374997019768,0|0,3:0|0:0,0:0:0:0:
402,275,136809,2,0,L|380:270,1,21.8749994039536,2|0,3:2|0:0,0:0:0:0:
278,377,136978,6,0,L|288:374,1,10.9374997019768,0|0,3:0|0:0,0:0:0:0:
278,377,137063,2,0,L|284:367,1,10.9374997019768,0|0,3:0|0:0,0:0:0:0:
278,377,137148,2,0,L|282:355,1,21.8749994039536,8|0,3:0|0:0,0:0:0:0:
177,337,137317,6,0,L|166:334,1,10.9374997019768,2|0,3:2|0:0,0:0:0:0:
177,337,137402,2,0,L|170:327,1,10.9374997019768,0|0,3:0|0:0,0:0:0:0:
177,337,137487,2,0,L|172:315,1,21.8749994039536,0|0,3:0|0:0,0:0:0:0:
278,377,137656,6,0,L|280:366,1,10.9374997019768,0|0,3:0|0:0,0:0:0:0:
97,311,137826,6,0,L|92:292,1,16.4062501788139,2|0,3:1|0:0,0:0:0:0:
43,321,137995,2,0,L|49:311,1,10.9374997019768,0|0,3:0|0:0,0:0:0:0:
0,288,138165,2,0,L|11:288,1,10.9374997019768,0|0,3:0|0:0,0:0:0:0:
0,234,138334,2,0,L|7:242,1,10.9374997019768,0|0,3:0|0:0,0:0:0:0:
43,200,138504,2,0,L|38:216,1,16.4062501788139,8|0,3:0|0:0,0:0:0:0:
97,212,138673,2,0,L|85:216,1,10.9374997019768,0|0,3:0|0:0,0:0:0:0:
119,260,138843,2,0,L|107:253,1,10.9374997019768,0|0,3:0|0:0,0:0:0:0:
249,166,139012,6,0,L|259:163,1,10.9374997019768,0|0,3:0|0:0,0:0:0:0:
249,166,139097,2,0,L|255:156,1,10.9374997019768,0|0,3:0|0:0,0:0:0:0:
249,166,139182,6,0,L|253:147,1,16.4062501788139,2|0,3:1|0:0,0:0:0:0:
303,176,139351,2,0,L|296:166,1,10.9374997019768,0|0,3:0|0:0,0:0:0:0:
346,143,139521,2,0,L|334:143,1,10.9374997019768,0|0,3:0|0:0,0:0:0:0:
346,89,139690,2,0,L|338:97,1,10.9374997019768,0|0,3:0|0:0,0:0:0:0:
303,55,139860,2,0,L|307:71,1,16.4062501788139,8|0,3:0|0:0,0:0:0:0:
249,67,140029,2,0,L|260:71,1,10.9374997019768,0|0,3:0|0:0,0:0:0:0:
227,115,140199,2,0,L|238:108,1,10.9374997019768,0|0,3:0|0:0,0:0:0:0:
61,96,140368,6,0,L|50:93,1,10.9374997019768,0|0,3:0|0:0,0:0:0:0:
61,96,140453,2,0,L|54:86,1,10.9374997019768,0|0,3:0|0:0,0:0:0:0:
61,96,140538,6,0,L|56:74,1,21.8749994039536,2|0,3:2|0:0,0:0:0:0:
51,192,140707,2,0,L|42:199,1,10.9374997019768,0|0,3:0|0:0,0:0:0:0:
140,153,140877,2,0,L|161:159,1,21.8749994039536,0|0,3:0|0:0,0:0:0:0:
232,308,141046,6,0,L|221:311,1,10.9374997019768,0|0,3:0|0:0,0:0:0:0:
232,308,141131,2,0,L|225:318,1,10.9374997019768,0|0,3:0|0:0,0:0:0:0:
232,308,141216,6,0,L|227:330,1,21.8749994039536,8|0,3:0|0:0,0:0:0:0:
222,212,141385,2,0,L|213:204,1,10.9374997019768,0|0,3:0|0:0,0:0:0:0:
311,251,141555,2,0,L|332:244,1,21.8749994039536,0|0,3:0|0:0,0:0:0:0:
443,131,141724,6,0,L|445:141,1,10.9374997019768,0|0,3:0|0:0,0:0:0:0:
443,131,141809,2,0,L|452:137,1,10.9374997019768,0|0,3:0|0:0,0:0:0:0:
443,131,141894,6,0,L|451:131,1,5.46874985098839,2|0,3:2|0:0,0:0:0:0:
424,93,141978,2,0,L|429:84,1,5.46874985098839,0|0,3:0|0:0,0:0:0:0:
385,83,142063,2,0,L|385:77,1,5.46874985098839,0|0,3:0|0:0,0:0:0:0:
353,109,142148,2,0,L|348:105,1,5.46874985098839,0|0,3:0|0:0,0:0:0:0:
353,149,142233,2,0,L|346:149,1,5.46874985098839,0|0,3:0|0:0,0:0:0:0:
385,175,142317,2,0,L|379:181,1,5.46874985098839,0|0,3:0|0:0,0:0:0:0:
424,166,142402,2,0,L|426:174,1,5.46874985098839,0|0,3:0|0:0,0:0:0:0:
443,131,142487,2,0,L|452:131,1,5.46874985098839,0|0,3:0|0:0,0:0:0:0:
495,197,142571,6,0,L|505:195,28,10.9374997019768,10|0|0|0|0|0|0|0|0|0|0|0|0|0|0|0|0|0|0|0|0|0|0|0|0|0|0|0|0,3:2|0:0|0:0|0:0|0:0|0:0|0:0|0:0|0:0|0:0|0:0|0:0|0:0|0:0|0:0|0:0|0:0|0:0|0:0|0:0|0:0|0:0|0:0|0:0|0:0|0:0|0:0|0:0|0:0,0:0:0:0:
414,331,143249,6,0,L|275:307,7,139.999996185303,14|0|8|8|8|0|0|8,0:0|0:0|0:0|0:0|0:0|0:0|0:0|0:0,0:0:0:0:
115,195,145792,1,0,0:0:0:0:
61,289,145961,6,0,L|199:265,7,139.999996185303,10|8|8|8|8|0|8|0,0:0|0:0|0:0|0:0|0:0|0:0|0:0|0:0,0:0:0:0:
415,193,148504,2,0,L|380:198,1,34.9999990463257
324,247,148673,6,0,L|341:143,6,104.999993934632,10|0|0|0|8|0|8,0:0|0:0|0:0|0:0|0:0|0:0|0:0,0:0:0:0:
147,65,149860,2,0,L|198:73,1,52.4999969673158
226,4,150029,6,0,L|250:143,6,139.999996185303,10|0|0|0|0|0|8,0:0|0:0|0:0|0:0|0:0|0:0|0:0,0:0:0:0:
419,249,151216,2,0,L|349:260,1,69.9999980926514
289,301,151385,6,0,L|306:197,3,104.999993934632,10|0|0|0,0:0|0:0|0:0|0:0,0:0:0:0:
250,142,151724,6,0,L|315:117,3,69.9999980926514,10|0|0|0,0:0|0:0|0:0|0:0,0:0:0:0:
341,45,152063,6,0,L|381:78,3,52.4999969673158,10|0|0|0,0:0|0:0|0:0|0:0,0:0:0:0:
459,76,152402,6,0,L|453:110,3,34.9999990463257,10|0|0|0,0:0|0:0|0:0|0:0,0:0:0:0:
508,218,152741,6,0,L|335:237,1,174.999995231629,14|0,0:1|0:0,0:0:0:0:
315,276,153080,6,0,L|359:272,1,43.7499988079071
445,260,153249,2,0,L|489:256,1,43.7499988079071
297,315,153419,6,0,L|319:313,2,21.8749994039536
439,299,153588,2,0,L|472:296,2,32.8125003576279
215,305,153758,6,0,L|213:327,12,21.8749994039536,8|0|0|0|0|0|0|0|0|0|0|0|0,0:3|0:0|0:0|0:0|0:0|0:0|0:0|0:0|0:0|0:0|0:0|0:0|0:0,0:0:0:0:
71,363,154097,6,0,P|46:270|96:188,1,196.875002145767,6|0,0:0|0:0,0:0:0:0:
167,14,154436,6,0,P|179:77|154:137,1,131.249996423721,10|0,0:0|0:0,0:0:0:0:
96,188,154775,6,0,L|68:189,1,27.5624984078408,8|0,0:3|0:0,0:0:0:0:
137,40,154944,2,0,P|141:72|131:103,1,65.6250007152558,2|0,0:0|0:0,0:0:0:0:
29,194,155114,2,0,L|94:188,1,65.6250007152558,8|0,0:0|0:0,0:0:0:0:
208,217,155283,2,0,L|164:213,1,43.7499988079071,2|2,0:0|0:0,0:0:0:0:
12,120,155453,6,0,L|34:118,1,21.8749994039536,2|0,0:0|0:0,0:0:0:0:
37,74,155622,2,0,L|33:117,1,43.7499988079071,2|0,0:0|0:0,0:0:0:0:
108,345,155792,6,0,P|98:303|111:262,1,87.4999976158143,8|2,0:0|0:0,0:0:0:0:
208,217,156046,1,2,0:0:0:0:
208,217,156131,2,0,L|240:214,1,32.8125003576279,2|0,0:0|0:0,0:0:0:0:
374,242,156300,1,2,0:0:0:0:
377,209,156385,1,2,0:0:0:0:
380,177,156470,2,0,L|314:171,1,65.6250007152558,8|0,0:0|0:0,0:0:0:0:
281,293,156639,6,0,L|313:290,4,32.8125003576279,2|0|0|0|0,0:0|0:0|0:0|0:0|0:0,0:0:0:0:
449,384,156809,6,0,L|466:187,1,196.875002145767,6|0,0:0|0:0,0:0:0:0:
368,46,157148,6,0,L|379:176,1,131.249996423721,10|0,0:0|0:0,0:0:0:0:
492,196,157487,6,0,P|479:190|465:187,1,27.5624984078408,8|0,0:3|0:0,0:0:0:0:
404,83,157656,2,0,L|407:126,1,43.7499988079071,2|0,0:0|0:0,0:0:0:0:
310,233,157826,2,0,P|278:242|246:240,1,65.6250007152558,8|0,0:0|0:0,0:0:0:0:
208,217,157995,2,0,P|229:217|250:223,1,43.7499988079071,2|2,0:0|0:0,0:0:0:0:
468,165,158165,6,0,L|466:186,1,21.8749994039536,2|0,0:0|0:0,0:0:0:0:
509,183,158334,2,0,L|465:186,1,43.7499988079071,2|0,0:0|0:0,0:0:0:0:
423,313,158504,6,0,L|427:247,1,65.6250007152558,8|0,0:0|0:0,0:0:0:0:
317,340,158673,6,0,L|296:342,1,21.8749994039536,2|0,0:0|0:0,0:0:0:0:
300,310,158843,2,0,L|296:342,1,32.8125003576279,2|0,0:0|0:0,0:0:0:0:
512,365,159012,6,0,P|482:379|450:384,1,65.6250007152558,8|0,0:0|0:0,0:0:0:0:
271,205,159182,6,0,L|267:237,1,32.8125003576279
310,233,159351,2,0,L|266:237,1,43.7499988079071,2|2,0:0|0:0,0:0:0:0:
71,363,159521,6,0,B|40:269|40:269|95:188,1,196.875002145767,6|0,0:0|0:0,0:0:0:0:
167,14,159860,6,0,B|182:71|182:71|154:137,1,131.249996423721,10|0,0:0|0:0,0:0:0:0:
95,188,160199,6,0,L|67:189,1,27.5624984078408,8|0,0:3|0:0,0:0:0:0:
137,40,160368,2,0,B|143:74|143:74|130:102,1,65.6250007152558,2|0,0:0|0:0,0:0:0:0:
29,194,160538,2,0,L|94:188,1,65.6250007152558,8|0,0:0|0:0,0:0:0:0:
212,214,160707,2,0,L|168:210,1,43.7499988079071,2|2,0:0|0:0,0:0:0:0:
12,120,160877,6,0,L|34:118,1,21.8749994039536,2|0,0:0|0:0,0:0:0:0:
37,74,161046,2,0,L|33:117,1,43.7499988079071,2|0,0:0|0:0,0:0:0:0:
108,345,161216,6,0,B|96:300|96:300|110:261,1,87.4999976158143,8|2,0:0|0:0,0:0:0:0:
212,214,161470,1,2,0:0:0:0:
212,214,161555,2,0,L|244:211,1,32.8125003576279,2|0,0:0|0:0,0:0:0:0:
379,238,161724,1,2,0:0:0:0:
379,205,161809,1,2,0:0:0:0:
382,173,161894,2,0,L|316:167,1,65.6250007152558,8|0,0:0|0:0,0:0:0:0:
281,293,162063,6,0,L|313:290,4,32.8125003576279,2|0|0|0|0,0:0|0:0|0:0|0:0|0:0,0:0:0:0:
493,181,162233,6,0,B|471:155|471:155|349:144|349:144|316:167,1,196.875002145767,6|0,0:1|0:0,0:0:0:0:
256,113,162571,2,0,B|228:143|228:143|50:176|50:176|14:156,1,262.499992847443,10|0,0:0|0:0,0:0:0:0:
0,235,162910,6,0,B|19:248|19:248|21:290,1,65.6250007152558,2|0,0:0|0:0,0:0:0:0:
122,363,163080,2,0,B|101:337|101:337|96:283,1,87.4999976158143,8|0,0:0|0:0,0:0:0:0:
153,232,163249,5,2,0:0:0:0:
179,227,163334,1,2,0:0:0:0:
205,222,163419,1,2,0:0:0:0:
232,219,163504,1,2,0:0:0:0:
315,167,163588,6,0,B|299:183|299:183|306:226,1,65.6250007152558,10|0,0:0|0:0,0:0:0:0:
446,367,163758,2,0,B|459:336|459:336|450:283,1,87.4999976158143,8|0,0:0|0:0,0:0:0:0:
430,212,163927,6,0,L|387:217,1,43.7499988079071,8|0,0:3|0:0,0:0:0:0:
421,199,164097,2,0,L|378:203,1,43.7499988079071,2|0,0:0|0:0,0:0:0:0:
305,88,164266,6,0,P|284:93|267:105,6,43.7499988079071,8|0|0|0|0|0|0,0:0|0:0|0:0|0:0|0:0|0:0|0:0,0:0:0:0:
194,155,164605,2,0,P|177:152|163:144,6,32.8125003576279,2|0|0|0|0|0|0,0:0|0:0|0:0|0:0|0:0|0:0|0:0,0:0:0:0:
71,21,164944,6,0,P|46:114|96:196,1,196.875002145767,6|0,0:0|0:0,0:0:0:0:
167,370,165283,6,0,P|179:307|154:247,1,131.249996423721,10|0,0:0|0:0,0:0:0:0:
96,196,165622,6,0,L|68:195,1,27.5624984078408,8|0,0:3|0:0,0:0:0:0:
137,344,165792,2,0,P|141:312|131:281,1,65.6250007152558,2|0,0:0|0:0,0:0:0:0:
29,190,165961,2,0,L|94:196,1,65.6250007152558,8|0,0:0|0:0,0:0:0:0:
208,167,166131,2,0,L|164:171,1,43.7499988079071,2|2,0:0|0:0,0:0:0:0:
12,264,166300,6,0,L|34:266,1,21.8749994039536,2|0,0:0|0:0,0:0:0:0:
37,310,166470,2,0,L|33:267,1,43.7499988079071,2|0,0:0|0:0,0:0:0:0:
108,39,166639,6,0,P|98:81|111:122,1,87.4999976158143,8|2,0:0|0:0,0:0:0:0:
208,167,166893,1,2,0:0:0:0:
208,167,166978,2,0,L|240:170,1,32.8125003576279,2|0,0:0|0:0,0:0:0:0:
374,142,167147,1,2,0:0:0:0:
377,175,167232,1,2,0:0:0:0:
380,207,167317,2,0,L|314:213,1,65.6250007152558,8|0,0:0|0:0,0:0:0:0:
281,91,167487,6,0,L|313:94,4,32.8125003576279,2|0|0|0|0,0:0|0:0|0:0|0:0|0:0,0:0:0:0:
449,0,167656,6,0,L|466:197,1,196.875002145767,6|0,0:0|0:0,0:0:0:0:
368,338,167995,6,0,L|379:208,1,131.249996423721,10|0,0:0|0:0,0:0:0:0:
492,188,168334,6,0,P|479:194|465:197,1,27.5624984078408,8|0,0:3|0:0,0:0:0:0:
404,301,168504,2,0,L|407:258,1,43.7499988079071,2|0,0:0|0:0,0:0:0:0:
310,151,168673,2,0,P|278:142|246:144,1,65.6250007152558,8|0,0:0|0:0,0:0:0:0:
208,167,168843,2,0,P|229:167|250:161,1,43.7499988079071,2|2,0:0|0:0,0:0:0:0:
468,219,169012,6,0,L|466:198,1,21.8749994039536,2|0,0:0|0:0,0:0:0:0:
509,201,169182,2,0,L|465:198,1,43.7499988079071,2|0,0:0|0:0,0:0:0:0:
423,71,169351,6,0,L|427:137,1,65.6250007152558,8|0,0:0|0:0,0:0:0:0:
317,44,169521,6,0,L|296:42,1,21.8749994039536,2|0,0:0|0:0,0:0:0:0:
300,74,169690,2,0,L|296:42,1,32.8125003576279,2|0,0:0|0:0,0:0:0:0:
512,19,169859,6,0,P|482:5|450:0,1,65.6250007152558,8|0,0:0|0:0,0:0:0:0:
271,179,170029,6,0,L|267:147,1,32.8125003576279
310,151,170199,2,0,L|266:147,1,43.7499988079071,2|2,0:0|0:0,0:0:0:0:
71,21,170368,6,0,B|40:115|40:115|95:196,1,196.875002145767,6|0,0:0|0:0,0:0:0:0:
167,370,170707,6,0,B|182:313|182:313|154:247,1,131.249996423721,10|0,0:0|0:0,0:0:0:0:
95,196,171046,6,0,L|67:195,1,27.5624984078408,8|0,0:3|0:0,0:0:0:0:
137,344,171216,2,0,B|143:310|143:310|130:282,1,65.6250007152558,2|0,0:0|0:0,0:0:0:0:
29,190,171385,2,0,L|94:196,1,65.6250007152558,8|0,0:0|0:0,0:0:0:0:
212,170,171555,2,0,L|168:174,1,43.7499988079071,2|2,0:0|0:0,0:0:0:0:
12,264,171724,6,0,L|34:266,1,21.8749994039536,2|0,0:0|0:0,0:0:0:0:
37,310,171894,2,0,L|33:267,1,43.7499988079071,2|0,0:0|0:0,0:0:0:0:
108,39,172063,6,0,B|96:84|96:84|110:123,1,87.4999976158143,8|2,0:0|0:0,0:0:0:0:
212,170,172317,1,2,0:0:0:0:
212,170,172402,2,0,L|244:173,1,32.8125003576279,2|0,0:0|0:0,0:0:0:0:
379,146,172571,1,2,0:0:0:0:
379,179,172656,1,2,0:0:0:0:
382,211,172741,2,0,L|316:217,1,65.6250007152558,8|0,0:0|0:0,0:0:0:0:
281,91,172910,6,0,L|313:94,4,32.8125003576279,2|0|0|0|0,0:0|0:0|0:0|0:0|0:0,0:0:0:0:
493,203,173080,6,0,B|471:229|471:229|349:240|349:240|316:217,1,196.875002145767,6|0,0:1|0:0,0:0:0:0:
244,173,173419,2,0,B|215:144|215:144|167:138|167:138|130:157,1,131.249996423721,2|0,0:0|0:0,0:0:0:0:
38,190,173758,6,0,B|50:178|50:178|53:151,1,43.7499988079071
76,96,173927,2,0,B|58:107|58:107|53:151,1,65.6250007152558
72,272,174097,5,2,0:0:0:0:
85,269,174182,1,2,0:0:0:0:
99,267,174266,1,2,0:0:0:0:
113,265,174352,1,2,0:0:0:0:
202,278,174436,6,0,B|184:266|184:266|179:222,1,65.6250007152558,10|0,0:0|0:0,0:0:0:0:
281,330,174605,2,0,B|278:356|278:356|266:368,1,43.7499988079071
282,245,174775,6,0,L|325:248,1,43.7499988079071,8|0,0:3|0:0,0:0:0:0:
290,231,174944,2,0,L|333:234,1,43.7499988079071
479,215,175114,6,0,P|483:194|482:172,6,43.7499988079071
378,169,175453,2,0,P|389:158|397:144,6,32.8125003576279
312,71,175792,6,0,P|308:87|315:71,14,32.8125003576279,6|0|0|0|0|0|0|0|0|0|0|0|0|0|0,0:0|0:0|0:0|0:0|0:0|0:0|0:0|0:0|0:0|0:0|0:0|0:0|0:0|0:0|0:0,0:0:0:0:
210,16,176470,6,0,B|192:29|192:29|171:35,12,43.7499988079071,14|0|0|0|0|0|0|0|0|0|0|0|0,0:0|0:0|0:0|0:0|0:0|0:0|0:0|0:0|0:0|0:0|0:0|0:0|0:0,0:0:0:0:
148,105,176809,2,0,B|128:97|128:97|112:81,12,43.7499988079071,4|0|0|0|0|0|0|0|0|0|0|0|0,0:0|0:0|0:0|0:0|0:0|0:0|0:0|0:0|0:0|0:0|0:0|0:0|0:0,0:0:0:0:
39,96,177148,2,0,B|36:75|36:75|42:54,28,43.7499988079071,6|0|0|0|0|0|0|0|0|0|0|0|0|0|0|0|0|0|0|0|0|0|0|0|0|0|0|0|0,0:0|0:0|0:0|0:0|0:0|0:0|0:0|0:0|0:0|0:0|0:0|0:0|0:0|0:0|0:0|0:0|0:0|0:0|0:0|0:0|0:0|0:0|0:0|0:0|0:0|0:0|0:0|0:0|0:0,0:0:0:0:
108,172,177826,6,0,L|113:216,1,43.7499988079071,8|0,0:0|0:0,0:0:0:0:
55,333,177995,2,0,L|46:268,1,65.6250007152558
117,176,178165,6,0,L|122:220,1,43.7499988079071,8|0,0:3|0:0,0:0:0:0:
63,339,178334,2,0,L|54:274,1,65.6250007152558
215,374,178504,6,0,L|211:342,6,32.8125003576279,2|0|0|0|0|0|0,0:0|0:0|0:0|0:0|0:0|0:0|0:0,0:0:0:0:
275,280,178843,2,0,L|253:278,6,21.8749994039536,2|0|0|0|0|0|0,0:0|0:0|0:0|0:0|0:0|0:0|0:0,0:0:0:0:
302,368,179182,6,0,B|320:355|320:355|341:349,12,43.7499988079071,12|0|0|0|0|0|0|0|0|0|0|0|0,0:0|0:0|0:0|0:0|0:0|0:0|0:0|0:0|0:0|0:0|0:0|0:0|0:0,0:0:0:0:
364,279,179521,2,0,B|384:287|384:287|400:303,12,43.7499988079071,4|0|0|0|0|0|0|0|0|0|0|0|0,0:0|0:0|0:0|0:0|0:0|0:0|0:0|0:0|0:0|0:0|0:0|0:0|0:0,0:0:0:0:
473,288,179860,2,0,B|476:309|476:309|470:330,20,43.7499988079071,6|0|0|0|0|0|0|0|0|0|0|0|0|0|0|0|0|0|0|0|0,0:0|0:0|0:0|0:0|0:0|0:0|0:0|0:0|0:0|0:0|0:0|0:0|0:0|0:0|0:0|0:0|0:0|0:0|0:0|0:0|0:0,0:0:0:0:
465,181,180368,5,2,0:0:0:0:
477,189,180453,1,2,0:0:0:0:
489,197,180538,2,0,L|445:202,1,43.7499988079071,8|0,1:3|0:0,0:0:0:0:
328,144,180707,2,0,L|393:135,1,65.6250007152558
485,206,180877,6,0,L|441:211,1,43.7499988079071,8|0,1:3|0:0,0:0:0:0:
322,152,181046,2,0,L|387:143,1,65.6250007152558
275,280,181215,6,0,L|279:248,14,32.8125003576279,6|0|0|0|0|0|0|0|0|0|0|0|0|0|0,0:0|0:0|0:0|0:0|0:0|0:0|0:0|0:0|0:0|0:0|0:0|0:0|0:0|0:0|0:0,0:0:0:0:
196,348,181894,6,0,B|183:330|183:330|177:309,12,43.7499988079071,12|0|0|0|0|0|0|0|0|0|0|0|0,0:0|0:0|0:0|0:0|0:0|0:0|0:0|0:0|0:0|0:0|0:0|0:0|0:0,0:0:0:0:
107,286,182233,2,0,B|115:266|115:266|131:250,12,43.7499988079071,4|0|0|0|0|0|0|0|0|0|0|0|0,0:0|0:0|0:0|0:0|0:0|0:0|0:0|0:0|0:0|0:0|0:0|0:0|0:0,0:0:0:0:
116,177,182571,2,0,B|137:174|137:174|158:180,28,43.7499988079071,6|0|0|0|0|0|0|0|0|0|0|0|0|0|0|0|0|0|0|0|0|0|0|0|0|0|0|0|0,0:0|0:0|0:0|0:0|0:0|0:0|0:0|0:0|0:0|0:0|0:0|0:0|0:0|0:0|0:0|0:0|0:0|0:0|0:0|0:0|0:0|0:0|0:0|0:0|0:0|0:0|0:0|0:0|0:0,0:0:0:0:
257,181,183249,6,0,L|301:176,1,43.7499988079071,8|0,0:0|0:0,0:0:0:0:
418,234,183419,2,0,L|353:243,1,65.6250007152558
261,172,183588,6,0,L|305:167,1,43.7499988079071,8|0,0:3|0:0,0:0:0:0:
424,226,183758,2,0,L|359:235,1,65.6250007152558
250,296,183927,6,0,L|253:264,6,32.8125003576279,10|0|0|0|0|0|0,0:0|0:0|0:0|0:0|0:0|0:0|0:0,0:0:0:0:
386,113,184266,2,0,L|387:135,6,21.8749994039536,8|0|0|0|0|0|0,0:0|0:0|0:0|0:0|0:0|0:0|0:0,0:0:0:0:
271,310,184605,5,2,0:0:0:0:
416,99,184775,2,0,L|419:132,6,32.8125003576279,8|0|0|0|0|0|0,0:0|0:0|0:0|0:0|0:0|0:0|0:0,0:0:0:0:
296,326,185114,6,0,L|302:261,1,65.6250007152558,2|2,0:0|0:0,0:0:0:0:
194,223,185283,6,0,L|368:207,3,174.999995231629,6|8|8|2,0:0|0:0|0:3|0:0,0:0:0:0:
19,110,185961,6,0,L|16:67,6,43.7499988079071,8|0|0|0|0|0|0,0:0|0:0|0:0|0:0|0:0|0:0|0:0,0:0:0:0:
134,98,186300,2,0,L|109:77,6,32.8125003576279,2|0|0|0|0|0|0,0:0|0:0|0:0|0:0|0:0|0:0|0:0,0:0:0:0:
207,9,186639,6,0,L|174:12,14,32.8125003576279,6|0|0|0|0|0|0|0|0|0|0|0|0|0|0,0:0|0:0|0:0|0:0|0:0|0:0|0:0|0:0|0:0|0:0|0:0|0:0|0:0|0:0|0:0,0:0:0:0:
302,16,187317,6,0,P|320:29|341:35,12,43.7499988079071,12|0|0|0|0|0|0|0|0|0|0|0|0,0:0|0:0|0:0|0:0|0:0|0:0|0:0|0:0|0:0|0:0|0:0|0:0|0:0,0:0:0:0:
364,105,187656,2,0,P|384:97|400:81,12,43.7499988079071,4|0|0|0|0|0|0|0|0|0|0|0|0,0:0|0:0|0:0|0:0|0:0|0:0|0:0|0:0|0:0|0:0|0:0|0:0|0:0,0:0:0:0:
473,96,187995,2,0,P|476:75|470:54,28,43.7499988079071,6|0|0|0|0|0|0|0|0|0|0|0|0|0|0|0|0|0|0|0|0|0|0|0|0|0|0|0|0,0:0|0:0|0:0|0:0|0:0|0:0|0:0|0:0|0:0|0:0|0:0|0:0|0:0|0:0|0:0|0:0|0:0|0:0|0:0|0:0|0:0|0:0|0:0|0:0|0:0|0:0|0:0|0:0|0:0,0:0:0:0:
404,172,188673,6,0,L|399:216,1,43.7499988079071,8|0,0:0|0:0,0:0:0:0:
457,333,188843,2,0,L|466:268,1,65.6250007152558
395,176,189012,6,0,L|390:220,1,43.7499988079071,8|0,0:3|0:0,0:0:0:0:
449,339,189182,2,0,L|458:274,1,65.6250007152558
297,374,189351,6,0,L|301:342,6,32.8125003576279,2|0|0|0|0|0|0,0:0|0:0|0:0|0:0|0:0|0:0|0:0,0:0:0:0:
237,280,189690,2,0,L|259:278,6,21.8749994039536,2|0|0|0|0|0|0,0:0|0:0|0:0|0:0|0:0|0:0|0:0,0:0:0:0:
210,368,190029,6,0,P|192:355|171:349,12,43.7499988079071,12|0|0|0|0|0|0|0|0|0|0|0|0,0:0|0:0|0:0|0:0|0:0|0:0|0:0|0:0|0:0|0:0|0:0|0:0|0:0,0:0:0:0:
148,279,190368,2,0,P|128:287|112:303,12,43.7499988079071,4|0|0|0|0|0|0|0|0|0|0|0|0,0:0|0:0|0:0|0:0|0:0|0:0|0:0|0:0|0:0|0:0|0:0|0:0|0:0,0:0:0:0:
39,288,190707,2,0,P|36:309|42:330,20,43.7499988079071,6|0|0|0|0|0|0|0|0|0|0|0|0|0|0|0|0|0|0|0|0,0:0|0:0|0:0|0:0|0:0|0:0|0:0|0:0|0:0|0:0|0:0|0:0|0:0|0:0|0:0|0:0|0:0|0:0|0:0|0:0|0:0,0:0:0:0:
47,181,191216,5,2,0:0:0:0:
35,189,191300,1,2,0:0:0:0:
23,197,191385,2,0,L|67:202,1,43.7499988079071,8|0,1:3|0:0,0:0:0:0:
184,144,191555,2,0,L|119:135,1,65.6250007152558
27,206,191724,6,0,L|71:211,1,43.7499988079071,8|0,1:3|0:0,0:0:0:0:
190,152,191894,2,0,L|125:143,1,65.6250007152558
237,280,192063,6,0,L|233:248,6,32.8125003576279,6|0|0|0|0|0|0,0:0|0:0|0:0|0:0|0:0|0:0|0:0,0:0:0:0:
310,208,192402,2,0,L|306:240,6,32.8125003576279,2|0|0|0|0|0|0,0:0|0:0|0:0|0:0|0:0|0:0|0:0,0:0:0:0:
316,348,192741,6,0,P|329:330|335:309,12,43.7499988079071,12|0|0|0|0|0|0|0|0|0|0|0|0,0:0|0:0|0:0|0:0|0:0|0:0|0:0|0:0|0:0|0:0|0:0|0:0|0:0,0:0:0:0:
405,286,193080,2,0,P|397:266|381:250,4,43.7499988079071,6|0|0|0|0,0:0|0:0|0:0|0:0|0:0,0:0:0:0:
396,177,193249,2,0,P|375:174|354:180,4,43.7499988079071,2|0|0|0|0,0:0|0:0|0:0|0:0|0:0,0:0:0:0:
210,193,193419,6,0,P|218:213|234:228,12,43.7499988079071,6|0|0|0|0|0|0|0|0|0|0|0|0,0:0|0:0|0:0|0:0|0:0|0:0|0:0|0:0|0:0|0:0|0:0|0:0|0:0,0:0:0:0:
219,301,193758,2,0,P|241:304|261:298,12,43.7499988079071,2|0|0|0|0|0|0|0|0|0|0|0|0,0:0|0:0|0:0|0:0|0:0|0:0|0:0|0:0|0:0|0:0|0:0|0:0|0:0,0:0:0:0:
289,173,194097,6,0,L|355:181,1,65.6250007152558,8|0,0:0|0:0,0:0:0:0:
486,123,194266,2,0,L|400:111,1,87.4999976158143
273,184,194436,6,0,L|360:194,1,87.4999976158143,8|0,0:3|0:0,0:0:0:0:
478,109,194605,2,0,L|372:95,1,87.4999976158143,2|0,0:0|0:0,0:0:0:0:
255,58,194775,6,0,L|252:90,6,32.8125003576279,10|0|0|0|0|0|0,0:0|0:0|0:0|0:0|0:0|0:0|0:0,0:0:0:0:
198,188,195114,2,0,L|197:166,6,21.8749994039536
233,44,195453,6,0,L|229:88,1,43.7499988079071
168,195,195622,2,0,L|165:162,6,32.8125003576279
209,28,195961,6,0,L|203:93,1,65.6250007152558
39,104,196131,6,0,L|127:96,1,87.4999976158143,8|0,0:0|0:0,0:0:0:0:
273,184,196300,6,0,L|317:188,1,43.7499988079071
277,174,196470,2,0,L|321:178,1,43.7499988079071,8|0,0:3|0:0,0:0:0:0:
281,164,196639,2,0,L|325:168,1,43.7499988079071
90,231,196809,6,0,P|85:253|87:274,6,43.7499988079071,2|0|0|0|0|0|0,0:0|0:0|0:0|0:0|0:0|0:0|0:0,0:0:0:0:
184,258,197148,2,0,P|197:267|212:274,6,32.8125003576279
256,192,197487,5,6,0:0:0:0:
256,17,197825,1,4,0:0:0:0:
256,192,198164,5,12,0:0:0:0:
168,38,198503,1,4,0:0:0:0:
256,192,198842,5,6,0:0:0:0:
181,147,199012,2,0,L|218:168,1,43.7499988079071,2|2,0:1|0:1,0:0:0:0:
104,103,199181,2,0,L|142:124,1,43.7499988079071,6|2,0:1|0:1,0:0:0:0:
181,147,199351,1,0,0:0:0:0:
256,192,199520,5,12,0:0:0:0:
168,192,199690,1,0,0:0:0:0:
81,190,199859,1,4,0:0:0:0:
168,192,200029,1,0,0:0:0:0:
256,192,200198,5,6,0:0:0:0:
181,235,200368,1,0,0:0:0:0:
104,278,200537,1,4,0:0:0:0:
181,235,200707,2,0,L|218:213,1,43.7499988079071,2|2,0:1|0:1,0:0:0:0:
256,192,200877,5,12,0:0:0:0:
212,267,201046,1,0,0:0:0:0:
168,343,201215,1,4,0:0:0:0:
212,267,201385,1,0,0:0:0:0:
81,190,201554,5,6,0:0:0:0:
432,190,201893,5,8,3:0:0:0:
256,103,202063,6,0,L|256:147,1,43.7499988079071,2|2,0:1|0:1,0:0:0:0:
256,17,202232,1,8,0:0:0:0:
256,192,202402,6,0,L|256:15,1,174.999995231629,6|0,0:0|0:0,0:0:0:0:
256,192,202910,5,6,0:0:0:0:
256,332,203248,1,4,0:0:0:0:
256,192,203588,5,12,0:0:0:0:
326,312,203927,1,4,0:0:0:0:
256,192,204266,5,6,0:0:0:0:
316,226,204436,2,0,L|286:209,1,34.9999990463257,2|2,0:1|0:1,0:0:0:0:
377,261,204605,2,0,L|348:244,1,34.9999990463257,6|2,0:1|0:1,0:0:0:0:
316,226,204775,1,0,0:0:0:0:
256,192,204944,5,12,0:0:0:0:
326,192,205114,1,0,0:0:0:0:
396,190,205283,1,6,0:0:0:0:
326,192,205453,1,0,0:0:0:0:
256,192,205622,5,6,0:0:0:0:
316,156,205792,2,0,L|286:172,1,34.9999990463257,2|2,0:1|0:1,0:0:0:0:
377,120,205961,1,4,0:0:0:0:
316,156,206131,1,0,0:0:0:0:
256,192,206300,5,12,0:0:0:0:
292,129,206470,1,0,0:0:0:0:
326,68,206639,1,4,0:0:0:0:
292,129,206809,1,0,0:0:0:0:
396,190,206978,5,6,0:0:0:0:
116,190,207317,1,2,0:0:0:0:
256,262,207487,6,0,L|256:227,1,34.9999990463257,2|2,0:3|0:3,0:0:0:0:
256,332,207656,1,4,0:3:0:0:
256,192,207826,6,0,L|256:226,1,34.9999990463257,2|2,0:3|0:3,0:0:0:0:
256,332,207995,1,8,0:3:0:0:
256,120,208164,1,2,0:3:0:0:
256,192,208334,5,6,0:0:0:0:
256,51,208672,1,4,0:0:0:0:
256,192,209011,5,12,0:0:0:0:
186,69,209350,1,4,0:0:0:0:
256,192,209690,5,6,0:0:0:0:
196,156,209859,2,0,L|226:173,1,34.9999990463257,2|2,0:1|0:1,0:0:0:0:
135,121,210029,2,0,L|165:138,1,34.9999990463257,6|2,0:1|0:1,0:0:0:0:
196,156,210198,1,0,0:0:0:0:
256,192,210367,5,12,0:0:0:0:
186,192,210537,1,0,0:0:0:0:
116,191,210706,1,4,0:0:0:0:
186,192,210876,1,0,0:0:0:0:
256,192,211045,5,6,0:0:0:0:
196,227,211215,1,0,0:0:0:0:
135,261,211384,1,4,0:0:0:0:
196,227,211554,2,0,L|226:209,1,34.9999990463257,2|2,0:1|0:1,0:0:0:0:
256,192,211723,5,12,0:0:0:0:
221,252,211893,1,0,0:0:0:0:
186,313,212062,1,4,0:0:0:0:
221,252,212232,1,0,0:0:0:0:
116,191,212401,5,6,0:0:0:0:
397,191,212741,1,8,3:0:0:0:
256,121,212910,6,0,L|256:156,1,34.9999990463257,2|2,0:1|0:1,0:0:0:0:
256,52,213080,1,8,0:0:0:0:
256,192,213249,6,0,L|256:51,1,139.999996185303,6|0,0:0|0:0,0:0:0:0:
256,192,213758,5,6,0:0:0:0:
256,304,214097,1,4,0:0:0:0:
256,192,214435,5,4,0:0:0:0:
312,288,214775,1,4,0:0:0:0:
256,192,215113,5,4,0:0:0:0:
353,248,215453,1,4,0:0:0:0:
256,192,215791,5,4,0:0:0:0:
312,191,215961,1,0,0:0:0:0:
368,191,216130,1,4,0:0:0:0:
312,191,216300,1,0,0:0:0:0:
256,192,216469,5,4,0:0:0:0:
353,135,216808,1,4,0:0:0:0:
256,192,217147,5,4,0:0:0:0:
312,93,217486,1,4,0:0:0:0:
256,192,217826,5,4,0:0:0:0:
256,136,217995,1,4,0:0:0:0:
256,192,218165,5,4,0:0:0:0:
221,131,218334,1,4,0:0:0:0:
256,192,218504,5,4,0:0:0:0:
183,150,218673,1,4,0:0:0:0:
256,192,218843,5,4,0:0:0:0:
158,192,219012,1,4,0:0:0:0:
