osu file format v14

[General]
AudioFilename: audio.mp3
AudioLeadIn: 0
PreviewTime: 78082
Countdown: 0
SampleSet: Soft
StackLeniency: 0.2
Mode: 0
LetterboxInBreaks: 0
WidescreenStoryboard: 1

[Editor]
DistanceSpacing: 1.8
BeatDivisor: 8
GridSize: 4
TimelineZoom: 4.599998

[Metadata]
Title:KAEDE
TitleUnicode:KAEDE
Artist:Ocelot
ArtistUnicode:Ocelot
Creator:Hollow Wings
Version:Kalindraz's EX
Source:
Tags:japan diverse system dubstep Hatsune Miku DJ Ginsuke Ocelot SiSTEMA Function Phantom Thinktech fanzhen0019 Kalindraz Kawashiro Moecho Koiyuki Minakami Yuki mtbbsben Skystar Amamiya Yuko Irreversible
BeatmapID:1404975
BeatmapSetID:660630

[Difficulty]
HPDrainRate:6
CircleSize:3
OverallDifficulty:8
ApproachRate:9.2
SliderMultiplier:1.6
SliderTickRate:1

[Events]
//Background and Video events
0,0,"KAEDE.jpg",0,0
//Break Periods
2,100060,109290
2,110907,118273
//Storyboard Layer 0 (Background)
//Storyboard Layer 1 (Fail)
//Storyboard Layer 2 (Pass)
//Storyboard Layer 3 (Foreground)
//Storyboard Sound Samples

[TimingPoints]
2233,338.983050847458,4,2,99,60,1,0
23927,-133.333333333333,4,2,99,60,0,0
55114,-100,4,2,99,60,0,0
55622,-66.6666666666667,4,2,99,60,0,0
55792,-71.4285714285714,4,2,99,60,0,0
56131,-200,4,2,99,60,0,0
56470,-76.9230769230769,4,2,99,60,0,1
56809,-66.6666666666667,4,1,99,100,0,1
58504,-100,4,1,99,100,0,1
59182,-133.333333333333,4,1,99,100,0,1
59521,-66.6666666666667,4,1,99,100,0,1
60538,-71.4285714285714,4,1,99,100,0,1
60877,-71.4285714285714,4,1,99,100,0,1
61216,-66.6666666666667,4,1,99,100,0,1
61894,-133.333333333333,4,1,99,100,0,1
62233,-62.5,4,1,99,100,0,1
63249,-66.6666666666667,4,1,99,100,0,1
63927,-142.857142857143,4,1,99,100,0,1
64605,-66.6666666666667,4,1,99,100,0,1
64944,-62.5,4,1,99,100,0,1
65961,-55.5555555555556,4,1,99,100,0,1
66131,-71.4285714285714,4,1,99,100,0,1
66300,-100,4,1,99,100,0,1
66470,-166.666666666667,4,1,99,100,0,1
66639,-1000,4,1,99,100,0,1
66978,-100,4,1,99,100,0,1
67317,-133.333333333333,4,1,99,100,0,1
67656,-62.5,4,1,99,100,0,1
69182,-100,4,1,99,100,0,1
70029,-133.333333333333,4,1,99,100,0,1
70368,-71.4285714285714,4,1,99,100,0,1
72063,-62.5,4,1,99,100,0,1
72741,-133.333333333333,4,1,99,100,0,1
73080,-66.6666666666667,4,1,99,100,0,1
74775,-133.333333333333,4,1,99,100,0,1
75453,-62.5,4,1,99,100,0,1
76809,-55.5555555555556,4,1,99,100,0,1
76978,-71.4285714285714,4,1,99,100,0,1
77148,-100,4,1,99,100,0,1
77317,-166.666666666667,4,1,99,100,0,1
77487,-1000,4,1,99,100,0,1
77826,-100,4,1,99,100,0,1
78165,-76.9230769230769,4,1,99,80,0,0
78843,-100,4,1,99,80,0,0
79521,-200,4,1,99,80,0,0
80877,-200,4,1,99,80,0,0
81555,-100,4,1,99,80,0,0
82233,-200,4,1,99,80,0,0
83588,-76.9230769230769,4,1,99,80,0,0
84266,-100,4,1,99,80,0,0
84944,-200,4,1,99,80,0,0
86300,-62.5,4,1,99,80,0,1
87656,-55.5555555555556,4,1,99,80,0,1
87826,-71.4285714285714,4,1,99,80,0,1
87995,-100,4,1,99,80,0,1
88165,-166.666666666667,4,1,99,80,0,1
88334,-1000,4,1,99,80,0,1
88673,-133.333333333333,4,1,99,80,0,0
89012,-76.9230769230769,4,1,99,80,0,0
89690,-100,4,1,99,80,0,0
90368,-200,4,1,99,80,0,0
91724,-200,4,1,99,80,0,0
92402,-100,4,1,99,80,0,0
93080,-200,4,1,99,80,0,0
94436,-76.9230769230769,4,1,99,80,0,0
95453,-83.3333333333333,4,1,99,80,0,0
96470,-200,4,1,99,80,0,0
97148,-66.6666666666667,4,1,99,80,0,1
98504,-55.5555555555556,4,1,99,80,0,1
98673,-71.4285714285714,4,1,99,80,0,1
98843,-100,4,1,99,80,0,1
99012,-166.666666666667,4,1,99,80,0,1
99182,-1000,4,1,99,80,0,1
99521,-133.333333333333,4,1,99,80,0,0
109860,-133.333333333333,4,1,99,30,0,0
118843,-133.333333333333,4,2,99,80,0,0
120114,-133.333333333333,4,2,99,15,0,0
120199,-133.333333333333,4,2,99,80,0,0
121470,-133.333333333333,4,2,99,15,0,0
121555,-133.333333333333,4,2,99,80,0,0
143249,-133.333333333333,4,2,99,80,0,0
152741,-100,4,2,99,80,0,0
153080,-58.8235294117647,4,1,99,100,0,0
153249,-55.5555555555556,4,2,99,80,0,0
153419,-66.6666666666667,4,2,99,80,0,0
153758,-200,4,2,99,80,0,0
154097,-71.4285714285714,4,1,99,100,0,1
154436,-66.6666666666667,4,1,99,100,0,1
155453,-71.4285714285714,4,1,99,100,0,1
156809,-76.9230769230769,4,1,99,100,0,1
157148,-71.4285714285714,4,1,99,100,0,1
158165,-100,4,1,99,100,0,1
158843,-142.857142857143,4,1,99,100,0,1
159521,-100,4,1,99,100,0,1
159860,-66.6666666666667,4,1,99,100,0,1
160877,-100,4,1,99,100,0,1
162233,-68.9655172413792,4,1,99,100,0,1
162571,-64.5161290322581,4,1,99,100,0,1
163588,-55.5555555555556,4,1,99,100,0,1
163758,-71.4285714285714,4,1,99,100,0,1
163927,-100,4,1,99,100,0,1
164097,-166.666666666667,4,1,99,100,0,1
164266,-1000,4,1,99,100,0,1
164605,-133.333333333333,4,1,99,100,0,1
164944,-76.9230769230769,4,1,99,100,0,1
165283,-66.6666666666667,4,1,99,100,0,1
166300,-76.9230769230769,4,1,99,100,0,1
167656,-71.4285714285714,4,1,99,100,0,1
167995,-62.5,4,1,99,100,0,1
169012,-60.6060606060606,4,1,99,100,0,1
169690,-100,4,1,99,100,0,1
170368,-133.333333333333,4,1,99,100,0,1
170707,-66.6666666666667,4,1,99,100,0,1
173080,-62.5,4,1,99,100,0,1
174436,-55.5555555555556,4,1,99,100,0,1
174605,-71.4285714285714,4,1,99,100,0,1
174775,-100,4,1,99,100,0,1
174944,-166.666666666667,4,1,99,100,0,1
175114,-1000,4,1,99,100,0,1
175453,-100,4,1,99,100,0,1
175792,-76.9230769230769,4,1,99,80,0,0
176470,-100,4,1,99,80,0,0
177148,-200,4,1,99,80,0,0
178504,-200,4,1,99,80,0,0
179182,-100,4,1,99,80,0,0
179860,-200,4,1,99,80,0,0
181216,-76.9230769230769,4,1,99,80,0,0
181894,-100,4,1,99,80,0,0
182571,-200,4,1,99,80,0,0
183927,-66.6666666666667,4,1,99,100,0,1
185283,-55.5555555555556,4,1,99,100,0,1
185453,-71.4285714285714,4,1,99,100,0,1
185622,-100,4,1,99,100,0,1
185792,-166.666666666667,4,1,99,100,0,1
185961,-1000,4,1,99,100,0,1
186300,-66.6666666666667,4,1,99,80,0,0
186639,-76.9230769230769,4,1,99,80,0,0
187317,-100,4,1,99,80,0,0
187995,-200,4,1,99,80,0,0
189351,-200,4,1,99,80,0,0
190029,-100,4,1,99,80,0,0
190707,-200,4,1,99,80,0,0
192063,-76.9230769230769,4,1,99,80,0,0
193080,-71.4285714285714,4,1,99,80,0,0
194097,-200,4,1,99,80,0,0
194775,-66.6666666666667,4,1,99,100,0,1
196131,-55.5555555555556,4,1,99,100,0,1
196300,-71.4285714285714,4,1,99,100,0,1
196470,-100,4,1,99,100,0,1
196639,-166.666666666667,4,1,99,100,0,1
196809,-1000,4,1,99,100,0,1
197148,-100,4,2,99,70,0,0

[Colours]
Combo1 : 78,0,155
Combo2 : 91,173,255
Combo3 : 255,128,128
Combo4 : 255,128,64
Combo5 : 255,255,128

[HitObjects]
72,76,23927,5,6,0:0:0:0:
184,56,24605,1,0,0:0:0:0:
72,76,25283,5,2,0:0:0:0:
184,56,25622,1,2,0:0:0:0:
72,76,25961,1,2,3:0:0:0:
32,256,26639,53,2,0:0:0:0:
144,232,27317,1,0,0:0:0:0:
32,256,27995,37,2,0:0:0:0:
144,232,28504,1,2,0:0:0:0:
32,256,28673,1,2,0:3:0:0:
144,232,29012,1,0,0:0:0:0:
256,336,29351,21,2,0:0:0:0:
316,216,30029,1,0,0:0:0:0:
256,336,30707,5,2,0:0:0:0:
316,216,31046,1,2,0:0:0:0:
256,336,31385,1,2,0:3:0:0:
472,276,32063,53,2,0:0:0:0:
424,152,32741,1,0,0:0:0:0:
472,276,33419,37,2,0:0:0:0:
424,152,33927,1,2,0:0:0:0:
472,276,34097,1,2,0:3:0:0:
424,152,34436,1,0,0:0:0:0:
312,88,34775,21,6,0:0:0:0:
428,48,35453,1,0,0:0:0:0:
312,88,35792,37,0,0:0:0:0:
312,88,35961,1,0,0:0:0:0:
428,48,36131,37,2,0:0:0:0:
312,88,36470,1,2,0:0:0:0:
428,48,36809,1,2,0:3:0:0:
304,200,37317,5,0,0:0:0:0:
304,200,37401,1,0,0:0:0:0:
304,200,37487,37,2,0:0:0:0:
168,176,38165,1,0,0:0:0:0:
304,200,38504,37,0,0:0:0:0:
304,200,38673,1,0,0:0:0:0:
168,176,38843,21,2,0:0:0:0:
304,200,39351,1,2,0:0:0:0:
304,200,39436,1,0,0:0:0:0:
304,200,39521,1,2,0:3:0:0:
168,176,39690,1,0,0:0:0:0:
168,176,39775,1,0,0:0:0:0:
168,176,39860,37,0,0:0:0:0:
304,200,40029,1,0,0:0:0:0:
216,300,40199,21,2,0:0:0:0:
36,280,40877,1,0,0:0:0:0:
36,280,41384,37,0,0:0:0:0:
36,280,41470,1,0,0:0:0:0:
36,280,41555,37,2,0:0:0:0:
216,300,41894,1,2,0:0:0:0:
36,280,42233,1,2,0:3:0:0:
120,360,42741,5,0,0:0:0:0:
120,360,42826,1,0,0:0:0:0:
120,360,42910,37,2,0:0:0:0:
264,324,43419,1,0,0:0:0:0:
264,324,43504,1,0,0:0:0:0:
264,324,43588,1,0,0:0:0:0:
120,360,43927,5,0,0:0:0:0:
264,324,44097,1,0,0:0:0:0:
264,324,44182,1,0,0:0:0:0:
264,324,44266,5,2,0:0:0:0:
284,328,44351,1,0,0:0:0:0:
304,328,44436,1,0,0:0:0:0:
324,320,44521,1,0,0:0:0:0:
340,308,44605,2,0,L|332:252,1,30.0000011444092,0|0,0:0|0:0,0:0:0:0:
324,140,44775,53,2,0:0:0:0:
324,140,44860,1,2,0:0:0:0:
394,79,44944,22,0,P|382:65|366:53,1,30.0000011444092,2|0,0:3|0:0,0:0:0:0:
263,68,45114,2,0,P|249:79|237:95,1,30.0000011444092,0|0,0:0|0:0,0:0:0:0:
252,199,45283,2,0,P|263:212|279:224,1,30.0000011444092,0|0,0:0|0:0,0:0:0:0:
383,210,45453,2,0,P|396:198|408:182,1,30.0000011444092,0|0,0:0|0:0,0:0:0:0:
476,128,45622,37,2,0:0:0:0:
476,128,45961,1,0,0:0:0:0:
476,128,46300,1,0,0:0:0:0:
476,128,46639,1,0,0:0:0:0:
476,128,46978,1,0,0:0:0:0:
476,128,47317,1,0,0:0:0:0:
476,128,47656,1,0,0:0:0:0:
476,128,47995,5,2,0:0:0:0:
324,140,48165,1,2,0:0:0:0:
412,276,48334,53,2,0:0:0:0:
412,276,48673,1,0,0:0:0:0:
412,276,49012,1,0,0:0:0:0:
412,276,49351,1,0,0:0:0:0:
412,276,49690,1,0,0:0:0:0:
412,276,50029,1,0,0:0:0:0:
412,276,50368,1,0,0:0:0:0:
412,276,50707,5,2,0:0:0:0:
288,372,50877,1,2,0:0:0:0:
288,372,50961,1,2,0:0:0:0:
288,372,51046,5,2,0:0:0:0:
232,352,51216,1,0,0:0:0:0:
168,348,51385,1,0,0:0:0:0:
108,364,51555,1,0,0:0:0:0:
108,364,51724,53,0,0:0:0:0:
99,276,51894,1,0,0:0:0:0:
60,197,52063,1,0,0:0:0:0:
4,130,52233,1,2,0:0:0:0:
20,116,52317,1,2,0:0:0:0:
32,104,52402,5,2,0:0:0:0:
128,124,52571,1,0,0:0:0:0:
224,112,52741,1,0,0:0:0:0:
312,68,52910,1,0,0:0:0:0:
312,68,53080,37,0,0:0:0:0:
304,176,53249,1,0,0:0:0:0:
344,276,53419,1,0,0:0:0:0:
428,344,53588,1,2,0:0:0:0:
444,292,53673,1,2,0:0:0:0:
456,240,53758,6,0,L|448:192,3,30.0000011444092,2|0|8|2,0:0|0:0|0:0|0:0,0:0:0:0:
344,276,54097,2,0,L|336:228,3,30.0000011444092,2|0|8|2,0:0|0:0|0:0|0:0,0:0:0:0:
372,152,54436,2,0,L|368:123,3,30.0000011444092,2|0|8|2,0:0|0:0|0:0|0:0,0:0:0:0:
260,188,54775,2,0,L|256:159,3,30.0000011444092,2|0|8|2,0:0|0:0|0:0|0:0,0:0:0:0:
156,212,55114,5,2,0:0:0:0:
156,212,55453,38,0,L|96:220,1,40
184,348,55622,21,0,0:0:0:0:
184,348,55707,2,0,L|176:388,1,30.0000011444092,0|0,0:0|0:0,0:0:0:0:
184,348,55792,54,0,P|188:320|180:288,1,55.9999982910157
56,300,55961,2,0,P|50:327|54:354,1,55.9999982910157,0|0,0:0|0:0,0:0:0:0:
184,348,56131,38,0,L|244:340,1,60,2|0,0:0|0:0,0:0:0:0:
360,301,56470,22,0,P|381:235|337:159,1,155.999992858887,6|0,0:0|0:0,0:0:0:0:
292,240,56809,6,0,B|368:240|368:240|394:222|394:222|470:222,1,180.000006866455,2|0,0:0|0:0,0:0:0:0:
512,136,57148,2,0,L|448:136,1,60.0000022888184,8|0,0:0|0:0,0:0:0:0:
288,36,57317,38,0,B|360:36|360:36|386:53|386:53|462:53,1,180.000006866455,0|0,0:0|0:0,0:0:0:0:
264,140,57656,1,0,0:0:0:0:
264,140,57741,1,0,0:0:0:0:
264,140,57826,6,0,P|225:147|198:158,1,60.0000022888184
60,98,57995,2,0,P|84:125|109:143,1,60.0000022888184
123,292,58165,2,0,P|132:253|137:225,1,60.0000022888184
165,63,58334,1,0,0:0:0:0:
165,63,58419,1,0,0:0:0:0:
165,63,58504,6,0,L|172:12,1,40,8|0,0:0|0:0,0:0:0:0:
43,217,58673,2,0,L|0:236,1,40
236,248,58843,2,0,L|274:273,1,40
340,336,59012,1,2,0:0:0:0:
340,336,59097,1,0,0:0:0:0:
340,336,59182,22,0,P|364:280|360:244,1,90.0000034332277,2|0,0:0|0:0,0:0:0:0:
328,168,59521,6,0,P|320:132|412:156,1,180.000006866455,2|0,0:0|0:0,0:0:0:0:
504,168,59860,2,0,P|504:128|500:108,1,60.0000022888184,8|0,0:0|0:0,0:0:0:0:
400,12,60029,2,0,P|372:8|340:8,1,60.0000022888184,0|0,0:0|0:0,0:0:0:0:
232,56,60199,5,0,0:0:0:0:
192,72,60283,1,0,0:0:0:0:
104,48,60368,53,0,0:0:0:0:
64,64,60452,1,0,0:0:0:0:
0,136,60538,6,0,L|8:200,1,55.9999982910157,2|0,0:0|0:0,0:0:0:0:
20,280,60707,2,0,L|28:344,1,55.9999982910157,0|0,0:0|0:0,0:0:0:0:
120,320,60877,6,0,L|96:144,1,167.999994873047,2|0,0:0|0:0,0:0:0:0:
192,72,61216,54,0,B|232:56|232:56|316:56,1,120.000004577637,8|0,0:0|0:0,0:0:0:0:
316,216,61470,1,0,0:0:0:0:
316,216,61555,2,0,B|276:232|276:232|192:232,1,120.000004577637,8|0,0:0|0:0,0:0:0:0:
260,144,61809,1,0,0:0:0:0:
260,144,61894,38,0,P|308:128|352:136,1,90.0000034332277,4|0,0:0|0:0,0:0:0:0:
408,204,62233,6,0,B|398:153|348:133|348:133|399:120|420:52,1,192,2|0,0:0|0:0,0:0:0:0:
511,70,62571,2,0,P|494:115|484:133,1,64,8|0,0:0|0:0,0:0:0:0:
324,48,62741,6,0,B|268:78|200:57|200:57|239:59|264:41,1,192,0|0,0:0|0:0,0:0:0:0:
108,124,63080,1,0,0:0:0:0:
108,124,63165,1,0,0:0:0:0:
108,124,63249,54,0,P|100:164|104:188,1,60.0000022888184,2|0,0:0|0:0,0:0:0:0:
124,268,63419,2,0,P|162:254|181:239,1,60.0000022888184,0|0,0:0|0:0,0:0:0:0:
244,184,63588,2,0,P|213:157|190:148,1,60.0000022888184,0|0,0:0|0:0,0:0:0:0:
36,244,63758,1,0,0:0:0:0:
36,244,63843,1,0,0:0:0:0:
36,244,63927,6,0,L|8:256,1,27.9999991455078,8|0,0:0|0:0,0:0:0:0:
260,272,64097,2,0,L|284:290,1,27.9999991455078,2|0,0:0|0:0,0:0:0:0:
176,68,64266,2,0,L|179:37,1,27.9999991455078,2|0,0:0|0:0,0:0:0:0:
160,188,64436,1,0,0:0:0:0:
160,188,64521,1,0,0:0:0:0:
160,188,64605,6,0,B|252:164|256:228|344:192,1,180.000006866455,2|0,0:0|0:0,0:0:0:0:
428,168,64944,38,0,P|456:140|372:64,1,192,8|0,0:0|0:0,0:0:0:0:
292,112,65283,2,0,L|280:48,1,64,2|0,0:0|0:0,0:0:0:0:
204,272,65453,2,0,L|215:334,1,64,8|0,0:0|0:0,0:0:0:0:
288,380,65622,21,0,0:0:0:0:
324,376,65707,1,0,0:0:0:0:
396,320,65792,37,0,0:0:0:0:
432,316,65877,1,0,0:0:0:0:
472,236,65961,6,0,L|460:160,1,71.9999978027344,12|0,0:0|0:0,0:0:0:0:
380,232,66131,6,0,L|368:156,1,55.9999982910157,0|0,0:0|0:0,0:0:0:0:
288,228,66300,38,0,L|279:171,1,40,8|0,0:3|0:0,0:0:0:0:
196,224,66470,54,0,L|191:195,1,23.9999992675781,0|0,0:0|0:0,0:0:0:0:
104,220,66639,54,0,L|101:207,1,12,2|0,0:0|0:0,0:0:0:0:
16,216,66978,22,0,L|12:196,6,20,2|0|0|0|0|0|0,0:0|0:0|0:0|0:0|0:0|0:0|0:0,0:0:0:0:
0,108,67317,54,0,P|41:83|84:85,1,90.0000034332277,6|0,0:0|0:0,0:0:0:0:
168,136,67656,6,0,B|188:80|153:18|153:18|176:56|212:62,1,192,2|0,0:0|0:0,0:0:0:0:
284,168,67995,2,0,L|284:104,1,64,8|0,0:0|0:0,0:0:0:0:
364,60,68165,6,0,B|393:54|416:17|416:17|381:78|401:134,1,192,0|0,0:0|0:0,0:0:0:0:
424,220,68504,1,0,0:0:0:0:
424,220,68588,1,0,0:0:0:0:
424,220,68673,54,0,L|444:288,1,64,2|0,0:0|0:0,0:0:0:0:
316,376,68843,2,0,L|336:308,1,64,0|0,0:0|0:0,0:0:0:0:
200,228,69012,2,0,L|220:300,1,64,0|0,0:0|0:0,0:0:0:0:
452,328,69182,1,0,0:0:0:0:
452,328,69266,1,0,0:0:0:0:
452,328,69351,6,0,L|440:366,1,40,8|0,0:0|0:0,0:0:0:0:
336,268,69521,2,0,L|324:229,1,40,0|0,0:0|0:0,0:0:0:0:
220,336,69690,2,0,L|209:374,1,40,2|0,0:0|0:0,0:0:0:0:
116,272,69860,1,0,0:0:0:0:
116,272,69944,1,0,0:0:0:0:
116,272,70029,38,0,L|104:176,1,90.0000034332277,2|0,0:0|0:0,0:0:0:0:
174,52,70368,38,0,L|194:218,1,167.999994873047,2|0,0:0|0:0,0:0:0:0:
116,272,70707,2,0,P|99:233|96:209,1,55.9999982910157,8|0,0:0|0:0,0:0:0:0:
284,199,70877,2,0,P|284:226|278:254,1,55.9999982910157,0|0,0:0|0:0,0:0:0:0:
216,320,71046,37,0,0:0:0:0:
188,328,71131,1,0,0:0:0:0:
116,272,71216,5,0,0:0:0:0:
88,280,71301,1,0,0:0:0:0:
20,220,71385,54,0,P|16:188|20:160,1,55.9999982910157,2|0,0:0|0:0,0:0:0:0:
232,60,71555,2,0,P|236:92|232:120,1,55.9999982910157,0|0,0:0|0:0,0:0:0:0:
108,188,71724,2,0,B|172:184|172:184|212:200|212:200|284:196,1,167.999994873047,0|0,0:0|0:0,0:0:0:0:
366,204,72063,22,0,B|454:208|454:208|494:232,1,128,8|0,0:0|0:0,0:0:0:0:
490,336,72317,1,0,0:0:0:0:
490,336,72402,2,0,B|455:356|455:356|367:360,1,128,8|0,0:0|0:0,0:0:0:0:
290,284,72656,1,0,0:0:0:0:
290,284,72741,22,0,L|270:184,1,90.0000034332277,2|0,0:0|0:0,0:0:0:0:
192,164,73080,6,0,P|144:176|200:248,1,180.000006866455,2|0,0:0|0:0,0:0:0:0:
76,296,73419,2,0,P|56:268|48:244,1,60.0000022888184,8|0,0:0|0:0,0:0:0:0:
4,92,73588,6,0,B|46:92|84:115|84:115|112:87|172:76,1,180.000006866455,0|0,0:0|0:0,0:0:0:0:
312,72,73927,1,0,0:0:0:0:
312,72,74012,1,0,0:0:0:0:
312,72,74097,54,0,P|348:64|380:64,1,60.0000022888184,2|0,0:0|0:0,0:0:0:0:
360,152,74266,2,0,P|395:163|422:179,1,60.0000022888184,0|0,0:0|0:0,0:0:0:0:
360,248,74436,2,0,P|384:275|400:302,1,60.0000022888184,0|0,0:0|0:0,0:0:0:0:
316,332,74605,1,0,0:0:0:0:
316,332,74690,1,0,0:0:0:0:
316,332,74775,6,0,P|300:343|292:360,1,30.0000011444092,8|0,0:0|0:0,0:0:0:0:
212,300,74944,2,0,P|204:318|205:336,1,30.0000011444092,0|0,0:0|0:0,0:0:0:0:
104,308,75114,2,0,P|106:327|116:342,1,30.0000011444092,2|0,0:0|0:0,0:0:0:0:
8,348,75283,1,0,0:0:0:0:
8,348,75368,1,0,0:0:0:0:
8,348,75453,6,0,B|0:212|0:212|20:248|52:252,1,192,2|0,0:0|0:0,0:0:0:0:
120,72,75792,2,0,B|128:208|128:208|108:172|76:168,1,192,0|0,0:0|0:0,0:0:0:0:
24,80,76131,2,0,L|36:8,1,64,0|0,0:0|0:0,0:0:0:0:
200,16,76300,2,0,L|210:79,1,64,0|0,0:0|0:0,0:0:0:0:
228,160,76470,37,0,0:0:0:0:
264,156,76555,1,0,0:0:0:0:
328,104,76640,21,0,0:0:0:0:
364,100,76725,1,0,0:0:0:0:
416,36,76809,38,0,L|492:32,1,71.9999978027344,6|0,0:0|0:0,0:0:0:0:
408,124,76978,6,0,L|483:120,1,55.9999982910157,0|0,0:0|0:0,0:0:0:0:
404,212,77148,6,0,L|460:209,1,40,8|0,0:3|0:0,0:0:0:0:
400,300,77317,22,0,L|428:298,1,23.9999992675781,0|0,0:0|0:0,0:0:0:0:
400,384,77487,54,0,L|412:383,1,12,2|0,0:0|0:0,0:0:0:0:
312,344,77826,22,0,L|308:320,6,20
208,312,78165,6,0,B|152:288|104:292|104:292|60:304|44:384|128:364|128:316|120:300|120:300|84:252|104:180,1,363.999983337403,6|0,0:0|0:0,0:0:0:0:
132,112,78843,6,0,P|192:96|248:112,1,120,8|0,0:0|0:0,0:0:0:0:
372,64,79182,2,0,P|355:123|314:164,1,120,0|0,0:0|0:0,0:0:0:0:
304,316,79521,22,0,P|258:270|244:212,1,120,2|0,0:0|0:0,0:0:0:0:
344,228,80199,38,0,L|368:224,1,20,8|0,0:0|0:0,0:0:0:0:
448,208,80368,2,0,L|472:204,1,20,0|0,0:0|0:0,0:0:0:0:
512,288,80538,2,0,L|488:292,1,20,2|0,0:0|0:0,0:0:0:0:
408,308,80707,2,0,L|384:312,1,20,0|0,0:0|0:0,0:0:0:0:
304,316,80877,22,0,L|240:308,1,60,2|0,0:0|0:0,0:0:0:0:
176,193,81216,2,0,L|235:200,1,60
336,164,81555,6,0,B|348:116|348:116|328:40,1,120,8|0,0:0|0:0,0:0:0:0:
384,136,81894,2,0,B|419:170|419:170|495:191,1,120,0|0,0:0|0:0,0:0:0:0:
384,192,82233,54,0,B|336:205|336:205|280:260,1,120,2|2,0:0|0:0,0:0:0:0:
252,344,82910,6,0,L|248:372,1,20,8|0,0:0|0:0,0:0:0:0:
160,328,83080,2,0,L|156:356,1,20,0|0,0:0|0:0,0:0:0:0:
72,252,83249,2,0,L|68:224,1,20,8|0,0:0|0:0,0:0:0:0:
164,236,83419,2,0,L|160:208,1,20,0|0,0:0|0:0,0:0:0:0:
152,136,83588,22,0,P|170:86|88:160,1,363.999983337403,6|0,0:0|0:0,0:0:0:0:
97,88,84266,38,0,L|217:80,1,120,8|0,0:0|0:0,0:0:0:0:
163,187,84605,2,0,L|96:87,1,120,0|0,0:0|0:0,0:0:0:0:
216,80,84944,54,0,L|162:187,1,120,2|0,0:0|0:0,0:0:0:0:
252,216,85622,6,0,L|264:192,1,20,8|0,0:0|0:0,0:0:0:0:
296,124,85792,2,0,L|308:100,1,20,0|0,0:0|0:0,0:0:0:0:
420,120,85961,2,0,L|428:137,1,20,2|0,0:0|0:0,0:0:0:0:
464,211,86131,2,0,L|472:228,1,20,0|0,0:0|0:0,0:0:0:0:
500,320,86300,6,0,B|444:308|404:328|404:328|372:312|372:312|412:312|436:296,1,192,6|0,0:0|0:0,0:0:0:0:
252,216,86639,2,0,B|308:228|348:208|348:208|380:224|380:224|340:224|316:240,1,192,8|0,0:0|0:0,0:0:0:0:
268,340,86978,2,0,P|236:344|200:336,1,64,2|0,0:0|0:0,0:0:0:0:
68,272,87148,6,0,B|19:229|43:145|43:145|43:185|66:198,1,192,8|0,0:0|0:0,0:0:0:0:
136,136,87487,1,2,0:0:0:0:
136,136,87571,1,2,0:0:0:0:
136,136,87656,38,0,P|136:104|120:64,1,71.9999978027344,6|0,0:0|0:0,0:0:0:0:
228,128,87826,6,0,P|228:160|212:200,1,55.9999982910157,8|0,0:0|0:0,0:0:0:0:
320,128,87995,6,0,P|320:104|308:74,1,40,8|0,0:3|0:0,0:0:0:0:
412,128,88165,22,0,P|412:141|405:158,1,23.9999992675781,2|0,0:0|0:0,0:0:0:0:
500,124,88334,54,0,P|500:118|497:112,1,12,8|0,0:0|0:0,0:0:0:0:
440,40,88673,22,0,L|444:16,6,15.0000005722046,2|0|0|0|0|0|0,0:0|0:0|0:0|0:0|0:0|0:0|0:0,0:0:0:0:
412,128,89012,6,0,B|416:192|480:212|480:212|472:236|448:252|448:252|456:292|456:292|408:272|408:272|368:292|320:272,1,337.999984527589,6|0,0:0|0:0,0:0:0:0:
216,240,89690,6,0,B|168:276|168:276|120:240,1,120,8|0,0:0|0:0,0:0:0:0:
216,73,90029,2,0,B|271:96|271:96|264:156,1,120,0|0,0:0|0:0,0:0:0:0:
72,156,90368,22,0,B|64:96|64:96|120:72,1,120,2|0,0:0|0:0,0:0:0:0:
216,73,91046,6,0,L|250:71,1,20,8|0,0:0|0:0,0:0:0:0:
316,64,91216,2,0,L|350:62,1,20,0|0,0:0|0:0,0:0:0:0:
448,149,91385,2,0,L|428:150,1,20,2|0,0:0|0:0,0:0:0:0:
348,158,91555,2,0,L|328:159,1,20,0|0,0:0|0:0,0:0:0:0:
276,232,91724,54,0,P|272:264|276:296,1,60,2|0,0:0|0:0,0:0:0:0:
416,292,92063,2,0,P|418:262|414:232,1,60,0|0,0:0|0:0,0:0:0:0:
348,158,92402,6,0,B|356:114|356:114|369:101|369:101|369:80|369:80|392:42,1,120,8|0,0:0|0:0,0:0:0:0:
216,73,92741,2,0,B|249:102|249:102|253:119|253:119|272:130|272:130|294:169,1,120,0|0,0:0|0:0,0:0:0:0:
354,0,93080,54,0,B|311:14|311:14|294:9|294:9|276:20|276:20|231:19,1,120,2|2,0:0|0:0,0:0:0:0:
128,64,93758,6,0,L|132:32,1,20,8|0,0:0|0:0,0:0:0:0:
32,64,93927,2,0,L|36:32,1,20,0|0,0:0|0:0,0:0:0:0:
0,148,94097,2,0,L|2:167,1,20,8|0,0:0|0:0,0:0:0:0:
96,148,94266,2,0,L|98:167,1,20,0|0,0:0|0:0,0:0:0:0:
108,268,94436,6,0,B|160:284|196:264|196:264|224:284|212:308|184:328,1,155.999992858887,6|0,0:0|0:0,0:0:0:0:
404,268,94775,2,0,B|352:284|316:264|316:264|288:284|300:308|328:328,1,155.999992858887,2|0,0:0|0:0,0:0:0:0:
184,172,95114,2,0,B|216:160|240:188|240:188|256:176|256:176|272:188|272:188|296:160|324:172,1,155.999992858887,10|0,0:0|0:0,0:0:0:0:
364,92,95453,6,0,P|336:84|304:80,1,47.9999985351563,2|0,0:0|0:0,0:0:0:0:
180,84,95622,2,0,P|156:88|133:94,1,47.9999985351563,2|0,0:0|0:0,0:0:0:0:
256,20,95792,54,0,L|256:168,1,143.999995605469,2|0,0:0|0:0,0:0:0:0:
256,308,96131,2,0,L|256:164,1,143.999995605469,2|0,0:0|0:0,0:0:0:0:
344,140,96470,54,0,L|367:135,1,20,10|0,0:0|0:0,0:0:0:0:
445,176,96639,2,0,L|468:171,1,20,0|0,0:0|0:0,0:0:0:0:
469,267,96809,2,0,L|445:271,1,20,8|0,0:3|0:0,0:0:0:0:
368,230,96978,2,0,L|344:234,1,20,2|0,0:0|0:0,0:0:0:0:
256,308,97148,6,0,B|240:260|200:244|200:244|176:212|200:188|200:188|232:200|224:216,1,180.000006866455,6|0,0:0|0:0,0:0:0:0:
24,312,97487,2,0,B|40:264|80:248|80:248|104:216|80:192|80:192|48:204|56:220,1,180.000006866455,0|0,0:0|0:0,0:0:0:0:
144,376,97826,1,0,0:0:0:0:
144,376,97910,1,0,0:0:0:0:
144,376,97995,2,0,L|144:312,2,60.0000022888184,0|0|0,0:0|0:0|0:0,0:0:0:0:
140,120,98334,1,0,0:0:0:0:
140,120,98419,1,0,0:0:0:0:
140,120,98504,6,0,L|64:116,1,71.9999978027344,6|0,0:0|0:0,0:0:0:0:
224,96,98673,38,0,L|148:92,1,55.9999982910157,0|0,0:0|0:0,0:0:0:0:
300,76,98843,6,0,L|224:72,1,40,8|0,0:3|0:0,0:0:0:0:
372,52,99012,38,0,L|328:49,1,23.9999992675781
440,32,99182,54,0,L|428:31,1,12,2|0,0:0|0:0,0:0:0:0:
508,92,99521,22,0,L|512:112,6,15.0000005722046
428,132,99860,5,6,0:1:0:0:
44,172,109860,5,2,0:0:0:0:
44,172,109944,1,2,0:0:0:0:
44,172,110029,1,2,0:0:0:0:
121,115,110199,1,0,0:0:0:0:
199,172,110369,1,2,0:0:0:0:
169,263,110538,1,0,0:0:0:0:
73,263,110707,37,6,0:1:0:0:
256,192,118843,12,0,120114,0:0:0:0:
256,192,120199,12,0,121470,0:0:0:0:
144,184,121555,21,6,0:0:0:0:
144,184,122233,2,0,L|128:64,2,120.000004577637,0|0|0,0:0|0:0|0:0,0:0:0:0:
84,272,123249,1,0,0:0:0:0:
160,364,123588,38,0,B|192:368|192:368|232:360,1,60.0000022888184,2|0,0:3|0:0,0:0:0:0:
288,300,123927,2,0,B|320:296|320:296|360:304,1,60.0000022888184,0|0,0:0|0:0,0:0:0:0:
432,332,124266,54,0,L|416:208,1,120.000004577637,0|0,0:0|0:0,0:0:0:0:
272,180,124944,2,0,L|287:299,1,120.000004577637,0|0,0:0|0:0,0:0:0:0:
142,266,125622,2,0,L|127:147,1,120.000004577637,0|0,0:0|0:0,0:0:0:0:
116,64,126131,37,0,0:0:0:0:
208,96,126300,2,0,P|240:100|268:96,1,60.0000022888184,0|8,0:0|0:3,0:0:0:0:
352,64,126639,2,0,P|384:60|412:64,1,60.0000022888184,0|0,0:0|0:0,0:0:0:0:
496,96,126978,21,0,0:0:0:0:
496,96,127656,2,0,L|488:224,2,120.000004577637,0|0|0,0:0|0:0|0:0,0:0:0:0:
484,304,128673,1,0,0:0:0:0:
484,304,129012,6,0,L|416:300,1,60.0000022888184,2|0,0:3|0:0,0:0:0:0:
344,328,129351,2,0,L|276:324,1,60.0000022888184,0|0,0:0|0:0,0:0:0:0:
204,348,129690,54,0,P|196:288|216:232,1,120.000004577637
356,208,130368,2,0,P|364:148|344:92,1,120.000004577637,0|0,0:0|0:0,0:0:0:0:
228,20,131046,1,0,0:0:0:0:
100,128,131385,37,0,0:0:0:0:
100,128,131470,1,0,0:0:0:0:
100,128,131555,1,0,0:0:0:0:
72,248,131724,1,0,0:0:0:0:
192,212,131894,1,8,0:3:0:0:
100,128,132063,1,0,0:0:0:0:
72,248,132233,1,8,0:3:0:0:
192,212,132402,38,0,P|252:204|312:232,1,120.000004577637,4|0,0:0|0:0,0:0:0:0:
372,296,133080,1,0,0:0:0:0:
456,240,133249,1,0,0:0:0:0:
456,240,133334,1,0,0:0:0:0:
456,240,133419,1,0,0:0:0:0:
384,160,133588,1,0,0:0:0:0:
448,80,133758,6,0,P|400:64|316:80,1,120.000004577637,0|0,0:0|0:0,0:0:0:0:
244,136,134436,1,2,0:3:0:0:
112,112,134605,1,0,0:0:0:0:
192,44,134775,1,0,0:0:0:0:
160,200,134944,1,0,0:0:0:0:
160,200,135029,1,0,0:0:0:0:
160,200,135114,54,0,B|148:256|148:256|160:324,1,120.000004577637
256,364,135792,1,0,0:0:0:0:
344,304,135961,1,0,0:0:0:0:
428,364,136131,1,0,0:0:0:0:
508,296,136300,1,0,0:0:0:0:
424,232,136470,6,0,L|416:152,2,60.0000022888184
328,168,136978,1,0,0:0:0:0:
328,168,137063,1,0,0:0:0:0:
328,168,137148,1,0,0:0:0:0:
216,200,137317,1,0,0:0:0:0:
216,200,137402,1,0,0:0:0:0:
216,200,137487,1,0,0:0:0:0:
248,108,137656,1,0,0:0:0:0:
172,48,137826,6,0,P|108:40|56:68,1,120.000004577637,0|0,0:0|0:0,0:0:0:0:
12,140,138504,1,0,0:0:0:0:
84,216,138673,1,0,0:0:0:0:
28,300,138843,1,0,0:0:0:0:
144,304,139012,1,0,0:0:0:0:
144,304,139097,1,0,0:0:0:0:
144,304,139182,38,0,L|272:320,1,120.000004577637,0|0,0:0|0:0,0:0:0:0:
384,340,139860,1,2,0:3:0:0:
348,244,140029,1,0,0:0:0:0:
460,272,140199,1,0,0:0:0:0:
424,176,140368,1,0,0:0:0:0:
424,176,140453,1,0,0:0:0:0:
424,176,140538,6,0,P|380:156|356:152,1,60.0000022888184,0|0,0:0|0:0,0:0:0:0:
360,68,140877,2,0,P|313:80|292:93,1,60.0000022888184,0|0,0:0|0:0,0:0:0:0:
208,88,141216,2,0,P|180:75|151:69,1,60.0000022888184,0|0,0:0|0:0,0:0:0:0:
142,155,141555,2,0,P|113:163|86:177,1,60.0000022888184,0|0,0:0|0:0,0:0:0:0:
256,372,141894,53,0,0:0:0:0:
256,352,141978,1,0,0:0:0:0:
256,332,142063,1,0,0:0:0:0:
256,312,142148,1,0,0:0:0:0:
256,292,142233,2,0,L|256:256,1,30.0000011444092,0|0,0:0|0:0,0:0:0:0:
256,152,142402,5,0,0:0:0:0:
256,152,142487,1,0,0:0:0:0:
344,116,142571,6,0,P|348:140|348:148,1,30.0000011444092,0|0,0:0|0:0,0:0:0:0:
292,240,142741,2,0,P|268:244|260:244,1,30.0000011444092,8|0,0:3|0:0,0:0:0:0:
168,188,142910,2,0,P|164:164|164:156,1,30.0000011444092,0|0,0:0|0:0,0:0:0:0:
220,64,143080,2,0,P|244:60|252:60,1,30.0000011444092,8|0,0:3|0:0,0:0:0:0:
408,44,143249,53,6,0:0:0:0:
408,44,143588,1,0,0:0:0:0:
408,44,143927,1,0,0:0:0:0:
408,44,144266,1,0,0:0:0:0:
408,44,144605,1,0,0:0:0:0:
408,44,144944,1,0,0:0:0:0:
408,44,145283,1,0,0:0:0:0:
408,44,145622,5,2,0:0:0:0:
256,100,145792,1,2,0:0:0:0:
104,44,145961,37,2,0:0:0:0:
104,44,146300,1,0,0:0:0:0:
104,44,146639,1,0,0:0:0:0:
104,44,146978,1,0,0:0:0:0:
104,44,147317,1,0,0:0:0:0:
104,44,147656,1,0,0:0:0:0:
104,44,147995,1,0,0:0:0:0:
104,44,148334,5,2,0:0:0:0:
152,124,148504,1,2,0:0:0:0:
152,124,148588,1,0,0:0:0:0:
152,124,148673,5,2,0:0:0:0:
124,148,148843,1,0,0:0:0:0:
92,160,149012,1,0,0:0:0:0:
56,156,149182,1,0,0:0:0:0:
56,156,149351,37,0,0:0:0:0:
100,188,149521,1,0,0:0:0:0:
128,236,149690,1,0,0:0:0:0:
128,292,149860,1,2,0:0:0:0:
124,320,149944,1,2,0:0:0:0:
120,348,150029,5,2,0:0:0:0:
212,320,150199,1,0,0:0:0:0:
308,324,150368,1,0,0:0:0:0:
396,363,150538,1,0,0:0:0:0:
396,363,150707,5,0,0:0:0:0:
434,260,150877,1,0,0:0:0:0:
437,143,151046,1,0,0:0:0:0:
400,36,151216,1,2,0:0:0:0:
372,84,151300,1,2,0:0:0:0:
344,132,151385,38,0,L|336:80,3,30.0000011444092,2|0|8|2,0:0|0:0|0:0|0:0,0:0:0:0:
248,40,151724,2,0,L|256:-12,3,30.0000011444092,2|0|8|2,0:0|0:0|0:0|0:0,0:0:0:0:
248,156,152063,2,0,L|240:104,3,30.0000011444092,2|0|8|2,0:0|0:0|0:0|0:0,0:0:0:0:
156,80,152402,2,0,L|164:28,3,30.0000011444092,2|0|8|2,0:0|0:0|0:0|0:0,0:0:0:0:
152,196,152741,21,2,0:0:0:0:
152,196,153080,54,0,L|152:268,1,68.0000012969971,0|0,0:0|0:0,0:0:0:0:
236,364,153249,5,0,0:0:0:0:
236,364,153334,2,0,L|292:356,1,35.9999989013672,0|0,0:0|0:0,0:0:0:0:
236,364,153419,38,0,P|247:336|252:307,1,60.0000022888184
52,304,153588,2,0,P|60:344|72:368,1,60.0000022888184,0|0,0:0|0:0,0:0:0:0:
152,264,153758,54,0,L|152:200,1,60,2|0,0:0|0:0,0:0:0:0:
168,112,154097,38,0,P|224:96|240:188,1,167.999994873047,6|0,0:0|0:0,0:0:0:0:
335,211,154436,38,0,B|335:235|315:255|315:255|403:255|403:255|423:203,1,180.000006866455,10|0,0:0|0:0,0:0:0:0:
512,212,154775,2,0,L|488:280,1,60.0000022888184,0|0,0:0|0:0,0:0:0:0:
300,340,154944,2,0,L|424:340,1,120.000004577637,2|8,0:0|0:0,0:0:0:0:
444,340,155199,1,0,0:0:0:0:
468,340,155283,1,0,0:0:0:0:
419,216,155453,6,0,L|411:152,1,55.9999982910157,2|0,0:0|0:0,0:0:0:0:
244,28,155622,2,0,P|276:28|304:32,1,55.9999982910157,0|0,0:0|0:0,0:0:0:0:
436,80,155792,2,0,B|399:72|364:84|364:84|342:105|342:105|312:120|270:109,1,167.999994873047,8|0,0:0|0:0,0:0:0:0:
184,96,156131,6,0,P|128:84|64:104,1,111.999996582031,0|2,0:0|0:0,0:0:0:0:
20,160,156385,1,0,0:0:0:0:
20,160,156470,2,0,P|12:200|16:228,1,55.9999982910157,8|0,0:0|0:0,0:0:0:0:
112,284,156639,2,0,P|120:244|116:216,1,55.9999982910157,2|0,0:0|0:0,0:0:0:0:
48,348,156809,38,0,P|116:376|188:332,1,155.999992858887,2|0,0:0|0:0,0:0:0:0:
240,260,157148,6,0,B|256:204|240:140|240:140|256:168|284:180,1,167.999994873047,10|0,0:0|0:0,0:0:0:0:
352,224,157487,2,0,P|385:228|415:219,1,55.9999982910157,0|0,0:0|0:0,0:0:0:0:
487,164,157656,2,0,P|491:130|482:96,1,55.9999982910157,2|0,0:0|0:0,0:0:0:0:
400,40,157826,1,8,0:0:0:0:
400,40,157910,1,0,0:0:0:0:
400,40,157995,2,0,P|370:33|341:37,1,55.9999982910157,0|0,0:0|0:0,0:0:0:0:
260,72,158165,6,0,L|244:16,1,40,2|0,0:0|0:0,0:0:0:0:
334,127,158334,2,0,L|388:141,1,40,0|0,0:0|0:0,0:0:0:0:
245,164,158504,2,0,L|204:202,1,40,8|0,0:0|0:0,0:0:0:0:
278,258,158673,1,0,0:0:0:0:
278,258,158758,1,0,0:0:0:0:
278,258,158843,38,0,L|300:229,1,27.9999991455078,8|0,0:3|0:0,0:0:0:0:
175,116,159012,2,0,L|153:133,1,27.9999991455078,8|0,0:0|0:0,0:0:0:0:
221,337,159182,2,0,L|243:308,1,27.9999991455078,0|0,0:0|0:0,0:0:0:0:
97,173,159351,2,0,L|75:190,1,27.9999991455078,2|0,0:0|0:0,0:0:0:0:
112,300,159521,54,0,L|200:212,1,120,6|0,0:0|0:0,0:0:0:0:
268,144,159860,6,0,P|320:128|400:224,1,180.000006866455,10|0,0:0|0:0,0:0:0:0:
488,232,160199,2,0,P|488:196|480:160,1,60.0000022888184,0|0,0:0|0:0,0:0:0:0:
316,212,160368,2,0,L|336:344,1,120.000004577637,2|8,0:0|0:0,0:0:0:0:
336,352,160622,1,0,0:0:0:0:
340,376,160707,1,0,0:0:0:0:
432,352,160877,6,0,L|424:304,1,40,2|0,0:0|0:0,0:0:0:0:
236,308,161046,2,0,L|242:347,1,40,0|0,0:0|0:0,0:0:0:0:
124,360,161216,2,0,L|112:268,1,80,8|0,0:0|0:0,0:0:0:0:
100,168,161555,6,0,L|88:76,1,80,0|2,0:0|0:0,0:0:0:0:
160,32,161809,1,0,0:0:0:0:
160,32,161894,2,0,P|192:28|208:32,1,40,8|0,0:0|0:0,0:0:0:0:
276,76,162063,2,0,P|308:80|324:76,1,40,2|0,0:0|0:0,0:0:0:0:
412,56,162233,38,0,B|444:100|444:100|432:224,1,174.000005310059,6|0,0:0|0:0,0:0:0:0:
360,372,162571,6,0,B|348:248|348:248|356:280|392:300,1,186.000001419067,10|0,0:0|0:0,0:0:0:0:
494,223,162910,2,0,L|419:217,1,62.0000004730225,2|0,0:0|0:0,0:0:0:0:
348,248,163080,2,0,L|273:242,1,62.0000004730225,8|0,0:0|0:0,0:0:0:0:
212,288,163249,5,0,0:0:0:0:
184,288,163334,1,0,0:0:0:0:
112,236,163419,37,2,0:0:0:0:
84,236,163504,1,2,0:0:0:0:
16,180,163588,6,0,L|8:104,1,71.9999978027344,12|0,0:0|0:0,0:0:0:0:
104,152,163758,6,0,L|96:76,1,55.9999982910157,8|0,0:0|0:0,0:0:0:0:
192,128,163927,38,0,L|186:73,1,40,8|0,0:3|0:0,0:0:0:0:
280,104,164097,54,0,L|277:76,1,23.9999992675781,2|0,0:0|0:0,0:0:0:0:
368,80,164266,54,0,L|366:68,1,12,10|0,0:0|0:0,0:0:0:0:
456,56,164605,22,0,L|460:32,6,15.0000005722046,2|0|0|0|0|0|0,0:0|0:0|0:0|0:0|0:0|0:0|0:0,0:0:0:0:
416,168,164944,6,0,B|396:208|396:208|396:276|396:276|416:320,1,155.999992858887,6|0,0:0|0:0,0:0:0:0:
488,244,165283,6,0,B|412:240|412:240|376:252|376:252|304:248,1,180.000006866455,10|0,0:0|0:0,0:0:0:0:
224,304,165622,2,0,L|156:300,1,60.0000022888184,0|0,0:0|0:0,0:0:0:0:
60,360,165792,2,0,B|40:300|40:300|64:236,1,120.000004577637,2|8,0:0|0:0,0:0:0:0:
72,220,166046,1,0,0:0:0:0:
84,188,166131,1,0,0:0:0:0:
193,148,166300,38,0,P|225:148|249:152,1,51.999997619629,2|0,0:0|0:0,0:0:0:0:
456,80,166470,2,0,P|424:80|400:76,1,51.999997619629,0|0,0:0|0:0,0:0:0:0:
320,40,166639,2,0,B|300:116|352:116|324:196,1,155.999992858887,8|0,0:0|0:0,0:0:0:0:
376,268,166978,6,0,P|328:256|268:268,1,103.999995239258,0|2,0:0|0:0,0:0:0:0:
208,324,167233,1,0,0:0:0:0:
208,324,167317,2,0,P|176:332|152:332,1,51.999997619629,8|0,0:0|0:0,0:0:0:0:
104,236,167487,2,0,P|136:228|160:228,1,51.999997619629,2|0,0:0|0:0,0:0:0:0:
56,312,167656,54,0,P|16:256|64:160,1,167.999994873047,2|0,0:0|0:0,0:0:0:0:
120,108,167995,6,0,B|168:76|168:76|248:76|248:76|306:116,1,192,10|0,0:0|0:0,0:0:0:0:
264,204,168334,2,0,L|208:164,1,64,0|0,0:0|0:0,0:0:0:0:
331,26,168504,2,0,L|384:64,1,64,2|0,0:0|0:0,0:0:0:0:
388,180,168673,1,8,0:0:0:0:
388,180,168758,1,0,0:0:0:0:
388,180,168843,2,0,P|396:228|392:256,1,64,0|0,0:0|0:0,0:0:0:0:
331,367,169012,54,0,L|293:314,1,66.0000006294251,2|0,0:0|0:0,0:0:0:0:
289,143,169182,2,0,L|264:204,1,66.0000006294251,0|0,0:0|0:0,0:0:0:0:
123,290,169351,2,0,L|189:282,1,66.0000006294251,8|0,0:0|0:0,0:0:0:0:
251,267,169520,1,0,0:0:0:0:
251,267,169605,1,0,0:0:0:0:
251,267,169690,6,0,L|211:230,1,40,2|0,0:0|0:0,0:0:0:0:
365,215,169860,2,0,L|394:242,1,40,8|0,0:0|0:0,0:0:0:0:
145,167,170029,2,0,L|105:130,1,40,0|0,0:0|0:0,0:0:0:0:
259,115,170199,2,0,L|288:142,1,40,0|0,0:0|0:0,0:0:0:0:
212,40,170368,38,0,P|264:28|300:40,1,90.0000034332277,2|0,0:0|0:0,0:0:0:0:
372,84,170707,6,0,P|412:100|392:16,1,180.000006866455,10|0,0:0|0:0,0:0:0:0:
512,124,171046,2,0,P|484:156|456:172,1,60.0000022888184,0|0,0:0|0:0,0:0:0:0:
328,156,171216,2,0,B|352:176|376:180|376:180|364:224|388:264,1,120.000004577637,2|8,0:0|0:0,0:0:0:0:
392,280,171470,1,0,0:0:0:0:
404,312,171555,1,0,0:0:0:0:
296,308,171724,6,0,P|268:300|232:304,1,60.0000022888184,2|0,0:0|0:0,0:0:0:0:
160,352,171894,2,0,P|130:354|101:346,1,60.0000022888184,0|0,0:0|0:0,0:0:0:0:
40,272,172063,2,0,P|32:200|48:148,1,120.000004577637,8|0,0:0|0:0,0:0:0:0:
164,9,172402,6,0,P|179:64|163:128,1,120.000004577637,0|2,0:0|0:0,0:0:0:0:
132,205,172656,1,0,0:0:0:0:
132,205,172741,2,0,P|164:209|196:205,1,60.0000022888184,8|0,0:0|0:0,0:0:0:0:
268,157,172910,2,0,P|300:153|332:157,1,60.0000022888184,2|0,0:0|0:0,0:0:0:0:
440,168,173080,38,0,B|431:120|431:120|440:86|440:86|431:34|431:34|422:64|396:81,1,192,6|0,0:0|0:0,0:0:0:0:
327,155,173419,2,0,B|336:203|336:203|327:237|327:237|336:289|336:289|345:259|371:242,1,192,10|0,0:0|0:0,0:0:0:0:
424,316,173758,2,0,P|460:324|492:316,1,64
240,200,173927,2,0,P|204:192|172:200,1,64
304,76,174097,5,0,0:0:0:0:
336,80,174182,1,0,0:0:0:0:
396,136,174266,53,0,0:0:0:0:
428,140,174351,1,0,0:0:0:0:
500,192,174436,6,0,P|504:148|504:120,1,71.9999978027344,12|0,0:0|0:0,0:0:0:0:
416,240,174605,6,0,P|415:268|412:296,1,55.9999982910157,0|0,0:0|0:0,0:0:0:0:
332,188,174775,38,0,P|330:160|327:132,1,40,8|0,0:3|0:0,0:0:0:0:
256,248,174944,54,0,P|255:261|253:275,1,23.9999992675781,0|0,0:0|0:0,0:0:0:0:
180,188,175114,54,0,P|179:181|179:175,1,12,0|0,0:0|0:0,0:0:0:0:
100,240,175453,22,0,L|96:264,6,20
8,240,175792,6,0,B|16:168|88:152|88:152|80:52|80:52|116:80|144:56|144:56|172:76|204:56,1,363.999983337403,6|0,0:0|0:0,0:0:0:0:
308,28,176470,6,0,B|348:45|348:45|375:36|375:36|421:52,1,120,8|0,0:0|0:0,0:0:0:0:
448,92,176809,2,0,B|412:118|412:118|406:146|406:146|369:178,1,120,0|0,0:0|0:0,0:0:0:0:
322,182,177148,22,0,B|316:138|316:138|295:118|295:118|286:71,1,120,2|0,0:0|0:0,0:0:0:0:
232,184,177826,6,0,L|240:220,1,20,8|0,0:0|0:0,0:0:0:0:
168,276,177995,2,0,L|204:268,1,20,0|0,0:0|0:0,0:0:0:0:
92,224,178165,2,0,L|84:188,1,20,2|0,0:0|0:0,0:0:0:0:
156,132,178334,2,0,L|120:140,1,20,0|0,0:0|0:0,0:0:0:0:
32,144,178504,54,0,L|24:80,1,60,2|0,0:0|0:0,0:0:0:0:
148,72,178843,2,0,L|155:131,1,60,0|0,0:0|0:0,0:0:0:0:
169,235,179182,6,0,P|220:208|271:238,1,120,8|0,0:0|0:0,0:0:0:0:
218,322,179521,2,0,P|169:291|169:232,1,120,0|0,0:0|0:0,0:0:0:0:
270,236,179860,54,0,P|268:293|216:322,1,120,2|2,0:0|0:0,0:0:0:0:
96,304,180538,6,0,L|68:304,1,20,8|0,0:0|0:0,0:0:0:0:
72,216,180707,2,0,L|44:216,1,20,0|0,0:0|0:0,0:0:0:0:
44,128,180877,2,0,L|16:128,1,20,8|0,0:0|0:0,0:0:0:0:
20,40,181046,2,0,L|-8:40,1,20,0|0,0:0|0:0,0:0:0:0:
112,64,181216,22,0,B|156:117|156:117|206:104|228:126|228:126|255:153|255:153|282:126|282:126|305:104|354:117|354:117|399:64,1,363.999983337403,6|0,0:0|0:0,0:0:0:0:
440,168,181894,38,0,B|418:218|445:265|445:265|406:253,1,120,8|0,0:0|0:0,0:0:0:0:
353,203,182233,2,0,B|407:196|434:149|434:149|443:189,1,120,0|0,0:0|0:0,0:0:0:0:
427,259,182571,54,0,B|394:215|339:215|339:215|369:187,1,120,2|0,0:0|0:0,0:0:0:0:
344,308,183249,6,0,L|312:312,1,20,8|0,0:0|0:0,0:0:0:0:
256,256,183419,2,0,L|224:260,1,20,0|0,0:0|0:0,0:0:0:0:
244,352,183588,2,0,L|212:356,1,20,2|0,0:0|0:0,0:0:0:0:
156,300,183758,2,0,L|124:304,1,20,0|0,0:0|0:0,0:0:0:0:
24,308,183927,6,0,B|16:268|16:268|28:240|28:240|16:212|24:180|24:180|40:212|72:216,1,180.000006866455,6|0,0:0|0:0,0:0:0:0:
140,40,184266,2,0,B|148:80|148:80|136:108|136:108|148:136|140:168|140:168|124:136|92:132,1,180.000006866455,8|0,0:0|0:0,0:0:0:0:
0,84,184605,2,0,L|60:68,1,60.0000022888184,2|0,0:0|0:0,0:0:0:0:
240,36,184775,6,0,B|304:16|356:48|356:48|320:48|292:68,1,180.000006866455,8|0,0:0|0:0,0:0:0:0:
356,136,185114,1,2,0:0:0:0:
356,136,185199,1,2,0:0:0:0:
356,136,185283,38,0,P|388:136|428:152,1,71.9999978027344,12|0,0:0|0:0,0:0:0:0:
376,224,185453,6,0,P|400:244|420:282,1,55.9999982910157,8|0,0:0|0:0,0:0:0:0:
336,300,185622,6,0,P|341:331|332:373,1,40,8|0,0:3|0:0,0:0:0:0:
256,328,185792,22,0,P|247:342|229:356,1,23.9999992675781,2|0,0:0|0:0,0:0:0:0:
180,292,185961,54,0,P|174:293|167:293,1,12,12|0,0:0|0:0,0:0:0:0:
152,208,186300,22,0,L|152:176,6,30.0000011444092,2|0|0|0|0|0|0,0:0|0:0|0:0|0:0|0:0|0:0|0:0,0:0:0:0:
64,192,186639,6,0,B|80:144|80:144|72:96|72:96|120:112|152:80|152:80|184:112|232:96|232:96|224:144|224:144|248:200,1,363.999983337403,6|0,0:0|0:0,0:0:0:0:
312,244,187317,6,0,B|348:268|348:268|384:272|384:272|424:264,1,120,8|0,0:0|0:0,0:0:0:0:
386,157,187656,2,0,B|347:176|347:176|325:205|325:205|312:243,1,120,0|0,0:0|0:0,0:0:0:0:
424,264,187995,22,0,B|426:220|426:220|412:187|412:187|385:157,1,120,2|0,0:0|0:0,0:0:0:0:
328,88,188673,6,0,L|324:64,1,20,8|0,0:0|0:0,0:0:0:0:
235,68,188843,2,0,L|232:88,1,20,0|0,0:0|0:0,0:0:0:0:
144,88,189012,2,0,L|140:64,1,20,2|0,0:0|0:0,0:0:0:0:
51,68,189182,2,0,L|47:87,1,20,0|0,0:0|0:0,0:0:0:0:
28,172,189351,54,0,L|32:232,1,60,2|0,0:0|0:0,0:0:0:0:
160,232,189690,2,0,L|164:172,1,60,0|0,0:0|0:0,0:0:0:0:
256,120,190029,6,0,B|288:136|320:120|320:120|348:116|376:128,1,120,8|0,0:0|0:0,0:0:0:0:
308,224,190368,2,0,B|305:188|275:168|275:168|258:146|254:116,1,120,0|0,0:0|0:0,0:0:0:0:
372,126,190707,54,0,B|342:145|340:181|340:181|329:207|305:225,1,120,2|2,0:0|0:0,0:0:0:0:
256,312,191385,6,0,L|284:316,1,20,8|0,0:0|0:0,0:0:0:0:
360,268,191555,2,0,L|388:272,1,20,0|0,0:0|0:0,0:0:0:0:
472,340,191724,2,0,L|444:336,1,20,8|0,0:0|0:0,0:0:0:0:
368,384,191894,2,0,L|340:380,1,20,0|0,0:0|0:0,0:0:0:0:
200,348,192063,6,0,B|164:359|164:359|129:348|110:315|129:278|157:264,1,155.999992858887,6|0,0:0|0:0,0:0:0:0:
360,268,192402,2,0,B|382:278|401:315|382:348|347:359|347:359|311:347,1,155.999992858887,2|0,0:0|0:0,0:0:0:0:
200,192,192741,2,0,B|220:160|220:160|256:140|256:140|292:160|292:160|320:204,1,155.999992858887,10|0,0:0|0:0,0:0:0:0:
144,124,193080,6,0,B|160:100|160:100|188:84,1,55.9999982910157,2|0,0:0|0:0,0:0:0:0:
328,86,193249,2,0,B|352:100|352:100|368:124,1,55.9999982910157,2|0,0:0|0:0,0:0:0:0:
452,156,193419,38,0,P|400:204|299:180,1,167.999994873047,2|0,0:0|0:0,0:0:0:0:
60,156,193758,2,0,P|112:204|213:180,1,167.999994873047,2|0,0:0|0:0,0:0:0:0:
256,116,194097,6,0,L|256:92,1,20,6|0,0:0|0:0,0:0:0:0:
256,268,194266,2,0,L|256:292,1,20,0|0,0:0|0:0,0:0:0:0:
332,192,194436,2,0,L|356:192,1,20,8|0,0:3|0:0,0:0:0:0:
180,192,194605,2,0,L|156:192,1,20,2|0,0:0|0:0,0:0:0:0:
104,76,194775,6,0,B|77:35|77:35|130:44|130:44|153:35|153:35|206:44,1,180.000006866455,6|0,0:0|0:0,0:0:0:0:
408,76,195114,2,0,B|434:35|434:35|381:44|381:44|358:35|358:35|305:44,1,180.000006866455,0|0,0:0|0:0,0:0:0:0:
256,116,195453,1,0,0:0:0:0:
256,128,195538,1,0,0:0:0:0:
256,140,195622,2,0,L|256:204,2,60.0000022888184,0|0|0,0:0|0:0|0:0,0:0:0:0:
256,316,195961,1,0,0:0:0:0:
256,316,196046,1,0,0:0:0:0:
256,316,196131,38,0,L|256:240,1,71.9999978027344,6|0,0:0|0:0,0:0:0:0:
158,268,196300,6,0,L|218:221,1,55.9999982910157
135,161,196470,6,0,L|185:174,1,40
205,77,196639,22,0,L|219:107,1,23.9999992675781
315,81,196809,54,0,L|309:91,1,12
379,170,197148,22,0,L|349:174,6,20
349,276,197487,5,6,0:1:0:0:
