osu file format v14

[General]
AudioFilename: audio.mp3
AudioLeadIn: 0
PreviewTime: 78082
Countdown: 0
SampleSet: Normal
StackLeniency: 0.4
Mode: 0
LetterboxInBreaks: 0
WidescreenStoryboard: 1

[Editor]
DistanceSpacing: 1
BeatDivisor: 2
GridSize: 4
TimelineZoom: 2.899999

[Metadata]
Title:KAEDE
TitleUnicode:KAEDE
Artist:Ocelot
ArtistUnicode:Ocelot
Creator:Hollow Wings
Version:Irre's Normal EX
Source:
Tags:japan diverse system dubstep Hatsune Miku DJ Ginsuke Ocelot SiSTEMA Function Phantom Thinktech fanzhen0019 Kalindraz Kawashiro Moecho Koiyuki Minakami Yuki mtbbsben Skystar Amamiya Yuko Irreversible
BeatmapID:1491540
BeatmapSetID:660630

[Difficulty]
HPDrainRate:2
CircleSize:7
OverallDifficulty:2
ApproachRate:3
SliderMultiplier:0.609999904632568
SliderTickRate:1

[Events]
//Background and Video events
0,0,"KAEDE.jpg",0,0
//Break Periods
2,100060,120115
//Storyboard Layer 0 (Background)
//Storyboard Layer 1 (Fail)
//Storyboard Layer 2 (Pass)
//Storyboard Layer 3 (Foreground)
//Storyboard Sound Samples

[TimingPoints]
2233,338.983050847458,4,2,99,80,1,0
23927,-100,4,2,99,80,0,0
45622,-100,4,2,99,70,0,0
51046,-100,4,2,99,80,0,0
55114,-100,4,2,99,80,0,0
55453,-100,4,2,99,80,0,0
56131,-100,4,2,99,80,0,0
56470,-100,4,1,99,100,0,1
66639,-100,4,1,99,100,0,0
67317,-100,4,1,99,100,0,1
67656,-100,4,1,99,100,0,1
67995,-100,4,1,99,100,0,1
70029,-100,4,1,99,100,0,1
70368,-100,4,1,99,100,0,1
70707,-100,4,1,99,100,0,1
72741,-100,4,1,99,100,0,1
73080,-100,4,1,99,100,0,1
73419,-100,4,1,99,100,0,1
75114,-100,4,1,99,100,0,1
75453,-100,4,1,99,100,0,1
76131,-100,4,1,99,100,0,1
77487,-100,4,1,99,100,0,0
78165,-100,4,1,99,80,0,1
86300,-100,4,1,99,80,0,1
86639,-100,4,1,99,80,0,1
88334,-100,4,1,99,80,0,0
89012,-100,4,1,99,80,0,1
97148,-100,4,1,99,80,0,1
97487,-100,4,1,99,80,0,1
99182,-100,4,1,99,80,0,1
99860,-100,4,2,99,60,0,0
121555,-100,4,2,99,80,0,0
143249,-100,4,2,99,70,0,0
148673,-100,4,2,99,80,0,0
152741,-100,4,2,99,80,0,0
153080,-100,4,2,99,80,0,0
153758,-100,4,2,99,80,0,0
154097,-100,4,1,99,100,0,1
154436,-100,4,1,99,100,0,1
154775,-100,4,1,99,100,0,1
156809,-100,4,1,99,100,0,1
157148,-100,4,1,99,100,0,1
157487,-100,4,1,99,100,0,1
159521,-100,4,1,99,100,0,1
159860,-100,4,1,99,100,0,1
160199,-100,4,1,99,100,0,1
162233,-100,4,1,99,100,0,1
162910,-100,4,1,99,100,0,1
164266,-100,4,1,99,100,0,0
164944,-100,4,1,99,100,0,1
165283,-100,4,1,99,100,0,1
165622,-100,4,1,99,100,0,1
167656,-100,4,1,99,100,0,1
167995,-100,4,1,99,100,0,1
168334,-100,4,1,99,100,0,1
170368,-100,4,1,99,100,0,1
170707,-100,4,1,99,100,0,1
171046,-100,4,1,99,100,0,1
172741,-100,4,1,99,100,0,1
173080,-100,4,1,99,100,0,1
173758,-100,4,1,99,100,0,1
175114,-100,4,1,99,100,0,0
175792,-100,4,1,99,80,0,1
183927,-100,4,1,99,80,0,1
184266,-100,4,1,99,80,0,1
185961,-100,4,1,99,80,0,0
186639,-100,4,1,99,80,0,1
194775,-100,4,1,99,80,0,1
195114,-100,4,1,99,80,0,1
196809,-100,4,1,99,80,0,1
197487,-100,4,2,99,60,0,0

[Colours]
Combo1 : 147,255,147
Combo2 : 91,173,255
Combo3 : 255,128,128
Combo4 : 255,255,147
Combo5 : 255,157,111

[HitObjects]
96,328,23927,6,0,P|95:232|163:298,1,243.999961853027,6|2,0:0|0:0,0:0:0:0:
264,368,25961,1,2,3:0:0:0:
342,273,26639,6,0,B|376:245|430:258|430:258|403:216|403:216|432:173|414:120,2,243.999961853027,2|2|2,0:0|0:0|0:0,0:0:0:0:
170,273,30707,2,0,L|178:337,2,60.9999904632568,2|2|2,0:0|0:0|0:3,0:0:0:0:
60,236,32063,6,0,B|52:192|84:168|84:168|48:132|60:80|60:80|92:108|124:107,1,243.999961853027,2|2,0:0|0:0,0:0:0:0:
212,24,34097,2,0,L|276:28,1,60.9999904632568,2|0,0:3|0:0,0:0:0:0:
315,71,34775,6,0,P|343:173|435:121,1,243.999961853027,6|2,0:0|0:0,0:0:0:0:
460,240,36809,1,2,0:3:0:0:
373,326,37487,6,0,B|289:381|206:351|206:351|232:328|270:335,2,243.999961853027,2|2|2,0:0|0:0|0:0,0:0:0:0:
176,192,41555,2,0,B|104:196,2,60.9999904632568,2|2|2,0:0|0:0|0:3,0:0:0:0:
219,86,42910,6,0,B|252:80|280:101|292:128|292:128|316:112|316:112|364:160|416:128|416:128|401:119,1,243.999961853027,2|2,0:0|0:0,0:0:0:0:
366,237,44944,2,0,L|374:305,2,60.9999904632568,2|0|2,0:3|0:0|0:0,0:0:0:0:
255,288,46300,6,0,P|232:298|196:297,2,60.9999904632568,0|0|0,0:0|0:0|0:0,0:0:0:0:
256,164,47656,2,0,P|279:153|315:154,2,60.9999904632568,0|2|2,0:0|0:0|0:0,0:0:0:0:
342,78,49012,6,0,L|346:10,2,60.9999904632568,0|0|0,0:0|0:0|0:0,0:0:0:0:
428,164,50368,2,0,L|431:224,2,60.9999904632568,0|2|2,0:0|0:0|0:0,0:0:0:0:
341,250,51724,5,0,0:0:0:0:
256,160,52402,1,2,0:0:0:0:
171,250,53080,1,0,0:0:0:0:
84,164,53758,6,0,B|55:109|55:109|80:53|80:53|137:72|137:72|162:126,1,243.999961853027,2|2,0:0|0:0,0:0:0:0:
44,340,56470,6,0,B|104:344|104:344|224:324|224:324|279:354,2,243.999961853027,6|0|2,0:0|0:0|0:0,0:0:0:0:
68,220,59860,1,8,0:0:0:0:
108,104,60538,1,2,0:0:0:0:
336,192,61894,6,0,B|395:199|395:199|481:73|481:73|454:88,2,243.999961853027,4|2|2,0:0|0:0|0:0,0:0:0:0:
256,100,65283,2,0,B|247:70|247:70|251:40,2,60.9999904632568,2|0|12,0:0|0:0|0:0,0:0:0:0:
336,192,66639,1,2,0:0:0:0:
249,278,67317,6,0,B|308:288|308:288|428:276|428:276|484:320,2,243.999961853027,6|2|2,0:0|0:0|0:0,0:0:0:0:
144,216,70707,1,8,0:0:0:0:
112,96,71385,1,2,0:0:0:0:
344,168,72741,6,0,B|392:228|392:228|372:356|372:356|403:333,2,243.999961853027,2|2|2,0:0|0:0|0:0,0:0:0:0:
128,52,76809,1,6,0:0:0:0:
56,284,78165,5,6,0:0:0:0:
168,332,78843,2,0,L|300:328,3,121.999980926514,8|2|8|2,0:0|0:0|0:0|0:0,0:0:0:0:
376,241,81555,2,0,L|372:373,3,121.999980926514,8|2|8|6,0:0|0:0|0:0|0:0,0:0:0:0:
284,276,84266,6,0,B|256:236|256:236|180:244,1,121.999980926514,8|2,0:0|0:0,0:0:0:0:
72,192,85622,2,0,B|100:152|100:152|176:160,1,121.999980926514,8|6,0:0|0:0,0:0:0:0:
256,72,86978,6,0,L|256:16,2,30.4999952316284,2|8|0,0:0|0:0|0:0,0:0:0:0:
299,115,87656,2,0,L|355:115,2,30.4999952316284,6|8|8,0:0|0:0|0:3,0:0:0:0:
256,156,88334,1,8,0:0:0:0:
342,242,89012,5,6,0:0:0:0:
255,328,89690,2,0,L|123:324,3,121.999980926514,8|2|8|2,0:0|0:0|0:0|0:0,0:0:0:0:
219,237,92402,2,0,L|87:241,3,121.999980926514,8|2|8|6,0:0|0:0|0:0|0:0,0:0:0:0:
183,154,95114,6,0,B|151:118|151:118|160:40,1,121.999980926514,10|2,0:0|0:0,0:0:0:0:
245,131,96470,2,0,B|235:83|235:83|282:20,1,121.999980926514,10|6,0:0|0:0,0:0:0:0:
365,110,97826,6,0,L|409:110,2,30.4999952316284,0|0|0,0:0|0:0|0:0,0:0:0:0:
365,171,98504,2,0,L|409:171,2,30.4999952316284,6|0|8,0:0|0:0|0:3,0:0:0:0:
365,232,99182,1,2,0:0:0:0:
256,176,99860,5,4,0:0:0:0:
416,56,121555,6,0,P|417:152|349:86,1,243.999961853027,6|0,0:0|0:0,0:0:0:0:
248,16,123589,1,2,0:3:0:0:
170,111,124267,6,0,B|136:139|82:126|82:126|109:168|109:168|80:211|98:264,2,243.999961853027,0|0|0,0:0|0:0|0:0,0:0:0:0:
342,111,128335,2,0,L|334:47,2,60.9999904632568,0|0|2,0:0|0:0|0:3,0:0:0:0:
452,148,129691,6,0,B|460:192|428:216|428:216|464:252|452:304|452:304|420:276|388:277,1,243.999961853027,0|0,0:0|0:0,0:0:0:0:
300,360,131725,2,0,L|236:356,1,60.9999904632568,0|0,0:0|0:0,0:0:0:0:
197,313,132403,6,0,P|169:211|77:263,1,243.999961853027,4|0,0:0|0:0,0:0:0:0:
52,144,134437,1,2,0:3:0:0:
139,58,135115,6,0,B|223:3|306:33|306:33|280:56|242:49,2,243.999961853027,0|0|0,0:0|0:0|0:0,0:0:0:0:
336,192,139183,2,0,B|408:188,2,60.9999904632568,0|0|2,0:0|0:0|0:3,0:0:0:0:
293,298,140538,6,0,B|260:304|232:283|220:256|220:256|196:272|196:272|148:224|96:256|96:256|111:265,1,243.999961853027,0|0,0:0|0:0,0:0:0:0:
146,147,142572,2,0,L|138:79,2,60.9999904632568,0|0|6,0:0|0:0|0:0,0:0:0:0:
257,96,143928,6,0,P|280:86|316:87,2,60.9999904632568,0|0|0,0:0|0:0|0:0,0:0:0:0:
256,220,145284,2,0,P|233:231|197:230,2,60.9999904632568,0|2|2,0:0|0:0|0:0,0:0:0:0:
170,306,146640,6,0,L|166:374,2,60.9999904632568,0|0|0,0:0|0:0|0:0,0:0:0:0:
84,220,147996,2,0,L|81:160,2,60.9999904632568,0|2|2,0:0|0:0|0:0,0:0:0:0:
171,134,149352,5,0,0:0:0:0:
256,224,150030,1,2,0:0:0:0:
341,134,150708,1,0,0:0:0:0:
428,220,151386,6,0,B|432:256|457:275|457:275|432:296|429:326|429:326|404:308|375:312|375:312|374:275|347:257,1,243.999961853027,2|2,0:0|0:0,0:0:0:0:
468,44,154098,6,0,B|424:68|424:68|384:48|384:48|333:58|333:58|276:48|276:48|239:60,2,243.999961853027,6|2|2,0:0|0:0|0:0,0:0:0:0:
444,164,157488,1,8,3:0:0:0:
404,280,158166,1,2,0:0:0:0:
176,192,159522,6,0,B|117:185|117:185|108:240|108:240|31:311|31:311|64:304,2,243.999961853027,6|2|6,0:0|0:0|0:0,0:0:0:0:
256,284,162911,2,0,B|263:306|263:306|256:324|256:324|261:344,2,60.9999904632568,2|0|12,0:0|0:0|0:0,0:0:0:0:
176,192,164267,1,10,0:0:0:0:
263,106,164945,6,0,B|220:104|220:104|172:88|172:88|108:100|108:100|96:116|96:116|64:96|64:96|21:83,2,243.999961853027,6|2|2,0:0|0:0|0:0,0:0:0:0:
368,168,168335,1,8,3:0:0:0:
400,288,169013,1,2,0:0:0:0:
168,216,170369,6,0,B|152:180|152:180|120:156|120:156|144:108|144:108|140:28|140:28|109:51,2,243.999961853027,2|2|6,0:0|0:0|0:0,0:0:0:0:
384,332,174437,1,12,0:0:0:0:
456,100,175793,5,6,0:0:0:0:
344,52,176471,2,0,L|212:56,3,121.999980926514,8|2|8|2,0:0|0:0|0:0|0:0,0:0:0:0:
136,143,179183,2,0,L|140:11,3,121.999980926514,8|2|8|6,0:0|0:0|0:0|0:0,0:0:0:0:
228,108,181894,6,0,B|256:148|256:148|332:140,1,121.999980926514,8|2,0:0|0:0,0:0:0:0:
440,192,183250,2,0,B|412:232|412:232|336:224,1,121.999980926514,8|6,0:0|0:0,0:0:0:0:
256,312,184606,6,0,L|256:368,2,30.4999952316284,2|8|0,0:0|0:0|0:0,0:0:0:0:
213,269,185284,2,0,L|157:269,2,30.4999952316284,12|8|8,0:0|0:0|0:3,0:0:0:0:
256,228,185962,1,12,0:0:0:0:
170,142,186640,5,6,0:0:0:0:
257,56,187318,2,0,L|389:60,3,121.999980926514,8|2|8|2,0:0|0:0|0:0|0:0,0:0:0:0:
293,147,190030,2,0,L|425:143,3,121.999980926514,8|2|8|6,0:0|0:0|0:0|0:0,0:0:0:0:
329,230,192742,6,0,B|361:266|361:266|352:344,1,121.999980926514,10|2,0:0|0:0,0:0:0:0:
267,253,194098,2,0,B|277:301|277:301|230:364,1,121.999980926514,6|6,0:0|0:0,0:0:0:0:
147,274,195454,6,0,L|103:274,2,30.4999952316284,0|0|0,0:0|0:0|0:0,0:0:0:0:
147,213,196132,2,0,L|103:213,2,30.4999952316284,6|0|0,0:0|0:0|0:0,0:0:0:0:
147,152,196810,1,0,0:0:0:0:
256,208,197487,5,4,0:0:0:0:
