osu file format v14

[General]
AudioFilename: audio.mp3
AudioLeadIn: 0
PreviewTime: 78082
Countdown: 0
SampleSet: Normal
StackLeniency: 0.7
Mode: 0
LetterboxInBreaks: 0
WidescreenStoryboard: 1

[Editor]
DistanceSpacing: 1
BeatDivisor: 4
GridSize: 4
TimelineZoom: 1.399999

[Metadata]
Title:KAEDE
TitleUnicode:KAEDE
Artist:Ocelot
ArtistUnicode:Ocelot
Creator:Hollow Wings
Version:Insane
Source:
Tags:japan diverse system dubstep Hatsune Miku DJ Ginsuke Ocelot SiSTEMA Function Phantom Thinktech fanzhen0019 Kalindraz Kawashiro Moecho Koiyuki Minakami Yuki mtbbsben Skystar Amamiya Yuko Irreversible
BeatmapID:1414387
BeatmapSetID:660630

[Difficulty]
HPDrainRate:6
CircleSize:4
OverallDifficulty:6
ApproachRate:7
SliderMultiplier:1.69999990463257
SliderTickRate:1

[Events]
//Background and Video events
0,0,"KAEDE.jpg",0,0
//Break Periods
2,100060,108451
2,110907,117943
//Storyboard Layer 0 (Background)
//Storyboard Layer 1 (Fail)
//Storyboard Layer 2 (Pass)
//Storyboard Layer 3 (Foreground)
//Storyboard Sound Samples

[TimingPoints]
2233,338.983050847458,4,2,99,80,1,0
23927,-200,4,2,99,80,0,0
45622,-100,4,2,99,70,0,0
51046,-100,4,2,99,80,0,0
56470,-50,4,1,99,100,0,1
66639,-100,4,1,99,100,0,0
67317,-50,4,1,99,100,0,1
77487,-100,4,1,99,100,0,0
78165,-66.6666666666667,4,1,99,80,0,1
88334,-100,4,1,99,80,0,0
89012,-66.6666666666667,4,1,99,80,0,1
99182,-100,4,1,99,80,0,1
99860,-200,4,2,99,60,0,0
121555,-200,4,2,99,80,0,0
143249,-100,4,2,99,70,0,0
148673,-100,4,2,99,80,0,0
154097,-50,4,1,99,100,0,1
164266,-100,4,1,99,100,0,0
164944,-50,4,1,99,100,0,1
175114,-100,4,1,99,100,0,0
175792,-66.6666666666667,4,1,99,80,0,1
185961,-100,4,1,99,80,0,0
186639,-66.6666666666667,4,1,99,80,0,1
196809,-100,4,1,99,80,0,1
197487,-100,4,2,99,60,0,0

[Colours]
Combo1 : 255,255,128
Combo2 : 91,173,255
Combo3 : 255,128,128
Combo4 : 255,128,64

[HitObjects]
256,192,21216,12,0,23758,0:0:0:0:
34,56,23927,6,0,L|204:46,1,169.999990463257,6|0,0:0|0:0,0:0:0:0:
464,360,25283,2,0,L|447:276,2,84.9999952316285,2|2|2,0:0|0:0|3:0,0:0:0:0:
52,362,26639,2,0,L|71:193,1,169.999990463257,2|0,0:0|0:0,0:0:0:0:
441,24,27995,1,2,0:0:0:0:
289,279,28504,2,0,L|277:230,1,42.4999976158143,2|2,0:0|0:3,0:0:0:0:
279,237,29351,6,0,L|298:68,1,169.999990463257,2|0,0:0|0:0,0:0:0:0:
5,356,30707,2,0,L|-4:271,2,84.9999952316285,2|2|2,0:0|0:0|0:3,0:0:0:0:
414,343,32063,2,0,L|244:357,1,169.999990463257,2|0,0:0|0:0,0:0:0:0:
22,119,33419,1,2,0:0:0:0:
286,274,33928,2,0,L|328:272,1,42.4999976158143,2|2,0:0|0:3,0:0:0:0:
152,376,34436,1,0,0:0:0:0:
248,196,34775,6,0,L|78:207,1,169.999990463257,6|0,0:0|0:0,0:0:0:0:
456,365,36131,2,0,L|465:281,2,84.9999952316285,2|2|2,0:0|0:0|0:3,0:0:0:0:
79,205,37487,2,0,L|249:195,1,169.999990463257,2|0,0:0|0:0,0:0:0:0:
248,195,38843,1,2,0:0:0:0:
492,19,39352,2,0,L|451:29,1,42.4999976158143,2|2,0:0|0:3,0:0:0:0:
195,347,40199,6,0,L|38:280,1,169.999990463257,2|0,0:0|0:0,0:0:0:0:
447,353,41555,2,0,L|362:359,2,84.9999952316285,2|2|2,0:0|0:0|0:3,0:0:0:0:
146,76,42911,2,0,L|291:164,1,169.999990463257,2|0,0:0|0:0,0:0:0:0:
291,164,44267,1,2,0:0:0:0:
44,352,44776,2,0,L|37:304,1,42.4999976158143,2|2,0:0|0:3,0:0:0:0:
242,298,45284,1,0,0:0:0:0:
447,315,45622,6,0,L|298:232,7,169.999990463257,2|0|0|0|0|0|0|2,0:0|0:0|0:0|0:0|0:0|0:0|0:0|0:0,0:0:0:0:
232,113,48334,6,0,L|62:123,7,169.999990463257,2|0|0|0|0|0|0|2,0:0|0:0|0:0|0:0|0:0|0:0|0:0|0:0,0:0:0:0:
17,251,51046,6,0,L|151:146,3,169.999990463257,2|0|0|0,0:0|0:0|0:0|0:0,0:0:0:0:
372,182,52402,2,0,L|204:216,3,169.999990463257,2|0|0|0,0:0|0:0|0:0|0:0,0:0:0:0:
329,282,53758,6,0,L|495:318,3,169.999990463257,2|2|2|2,0:0|0:0|0:0|0:0,0:0:0:0:
40,109,55114,2,0,L|371:182,1,339.999980926514,2|0,0:0|0:0,0:0:0:0:
99,231,56131,1,0,0:0:0:0:
23,342,56470,6,0,L|361:304,2,339.999980926514,6|2|8,0:0|0:0|0:0,0:0:0:0:
499,329,57487,1,2,0:0:0:0:
479,34,57826,2,0,L|449:202,2,169.999990463257
358,98,58504,1,8,0:0:0:0:
22,43,58843,1,0,0:0:0:0:
358,98,59182,6,0,L|15:42,2,339.999980926514,2|2|8,0:0|0:0|0:0,0:0:0:0:
223,117,60199,1,0,0:0:0:0:
138,253,60538,2,0,L|306:224,4,169.999990463257,2|0|2|2|8,0:0|0:0|0:0|0:0|0:0,0:0:0:0:
306,224,61555,1,8,0:0:0:0:
2,259,61894,6,0,L|350:319,2,339.999980926514,4|2|8,0:0|0:0|0:0,0:0:0:0:
138,253,62910,1,2,0:0:0:0:
420,320,63250,2,0,L|251:327,6,169.999990463257,2|0|0|0|8|2|2,0:0|0:0|0:0|0:0|0:0|0:0|0:0,0:0:0:0:
26,29,64606,6,0,L|365:44,2,339.999980926514,2|8|2,0:0|0:0|0:0,0:0:0:0:
500,19,65623,1,0,0:0:0:0:
470,316,65962,2,0,L|456:147,4,169.999990463257,12|0|8|0|2,0:0|0:0|0:3|0:0|0:0,0:0:0:0:
456,147,66978,1,2,0:0:0:0:
24,352,67317,6,0,L|63:14,2,339.999980926514,6|2|8,0:0|0:0|0:0,0:0:0:0:
6,216,68334,1,0,0:0:0:0:
298,230,68673,2,0,L|132:266,2,169.999990463257,2|0|0,0:0|0:0|0:0,0:0:0:0:
24,352,69351,1,8,0:0:0:0:
132,266,69690,1,2,0:0:0:0:
470,233,70029,6,0,L|132:266,2,339.999980926514,2|2|8,0:0|0:0|0:0,0:0:0:0:
348,294,71046,1,0,0:0:0:0:
192,140,71385,2,0,L|361:160,2,169.999990463257,2|0|0,0:0|0:0|0:0,0:0:0:0:
11,37,72063,2,0,L|180:22,2,169.999990463257,8|0|8,0:0|0:0|0:0,0:0:0:0:
320,319,72741,6,0,L|96:65,2,339.999980926514,2|2|8,0:0|0:0|0:0,0:0:0:0:
403,211,73758,1,0,0:0:0:0:
219,356,74097,2,0,L|265:193,2,169.999990463257,2|0|0,0:0|0:0|0:0,0:0:0:0:
265,193,74775,1,8,0:0:0:0:
236,60,75114,1,2,0:0:0:0:
350,380,75453,6,0,L|236:60,2,339.999980926514,2|0|0,0:0|0:0|0:0,0:0:0:0:
356,243,76470,1,0,0:0:0:0:
151,46,76809,2,0,L|307:116,4,169.999990463257,6|0|8|0|2,0:0|0:0|0:3|0:0|0:0,0:0:0:0:
307,116,77826,1,0,0:0:0:0:
506,61,78165,6,0,L|7:169,1,509.999990844727,6|8,0:0|0:0,0:0:0:0:
208,206,79182,1,0,0:0:0:0:
372,326,79521,2,0,L|117:269,1,254.999995422363,2|0,0:0|0:0,0:0:0:0:
323,230,80199,1,8,0:0:0:0:
123,270,80538,1,2,0:0:0:0:
1,105,80877,6,0,L|500:206,1,509.999990844727,2|8,0:0|0:0,0:0:0:0:
319,111,81894,1,0,0:0:0:0:
130,188,82233,1,2,0:0:0:0:
402,326,82741,2,0,L|389:199,1,127.499997711182,2|8,0:0|0:0,0:0:0:0:
223,318,83250,1,8,0:0:0:0:
23,358,83588,6,0,L|492:157,1,509.999990844727,6|8,0:0|0:0,0:0:0:0:
293,206,84605,1,0,0:0:0:0:
92,170,84944,2,0,L|303:314,1,254.999995422363,2|0,0:0|0:0,0:0:0:0:
98,267,85622,1,8,0:0:0:0:
293,206,85961,1,2,0:0:0:0:
28,51,86300,6,0,L|281:81,1,254.999995422363,6|8,0:0|0:0,0:0:0:0:
17,237,86978,2,0,L|96:137,1,127.499997711182,2|8,0:0|0:0,0:0:0:0:
334,337,87487,2,0,L|460:355,5,127.499997711182,2|6|8|8|2|8,0:0|0:0|0:0|0:3|0:0|0:0,0:0:0:0:
427,142,88673,1,2,0:0:0:0:
460,355,89012,6,0,L|86:7,1,509.999990844727,6|8,0:0|0:0,0:0:0:0:
205,174,90029,1,0,0:0:0:0:
408,188,90368,2,0,L|167:271,1,254.999995422363,2|0,0:0|0:0,0:0:0:0:
0,310,91046,1,8,0:0:0:0:
196,366,91385,1,2,0:0:0:0:
0,310,91724,6,0,L|416:16,1,509.999990844727,2|8,0:0|0:0,0:0:0:0:
228,95,92741,1,0,0:0:0:0:
266,296,93080,1,2,0:0:0:0:
30,101,93588,2,0,L|154:130,1,127.499997711182,2|8,0:0|0:0,0:0:0:0:
358,138,94097,1,8,0:0:0:0:
495,287,94436,6,0,L|-1:169,1,509.999990844727,6|10,0:0|0:0,0:0:0:0:
303,126,95452,1,2,0:0:0:0:
491,369,95792,2,0,L|289:211,1,254.999995422363,2|2,0:0|0:0,0:0:0:0:
408,45,96469,1,10,0:0:0:0:
373,246,96808,1,8,0:3:0:0:
74,177,97148,6,0,L|298:301,1,254.999995422363,6|0,0:0|0:0,0:0:0:0:
0,371,97825,2,0,L|120:329,1,127.499997711182,0|0,0:0|0:0,0:0:0:0:
291,74,98334,2,0,L|165:56,5,127.499997711182,0|6|0|8|0|2,0:0|0:0|0:0|0:3|0:0|0:0,0:0:0:0:
469,328,99520,1,0,0:0:0:0:
64,263,99860,5,6,0:1:0:0:
225,117,109351,5,0,0:0:0:0:
257,210,109690,2,0,L|229:303,2,84.9999952316285,0|2|2,0:0|0:0|0:0,0:0:0:0:
225,117,110707,1,6,0:1:0:0:
256,192,118843,12,0,121385,0:0:0:0:
41,358,121555,6,0,L|370:232,1,339.999980926514,6|0,0:0|0:0,0:0:0:0:
358,236,123588,1,2,0:3:0:0:
12,16,124266,2,0,L|262:264,1,339.999980926514,0|0,0:0|0:0,0:0:0:0:
253,255,125961,1,0,0:0:0:0:
453,301,126300,2,0,L|368:301,1,84.9999952316285,0|0,0:0|0:0,0:0:0:0:
432,107,126978,6,0,L|102:189,1,339.999980926514,0|0,0:0|0:0,0:0:0:0:
102,189,129012,1,2,0:3:0:0:
469,369,129690,2,0,L|476:29,1,339.999980926514,0|0,0:0|0:0,0:0:0:0:
102,189,131724,1,0,0:0:0:0:
477,29,132402,6,0,L|131:25,1,339.999980926514,4|0,0:0|0:0,0:0:0:0:
501,208,134435,1,2,0:3:0:0:
94,257,135114,2,0,L|433:260,1,339.999980926514,0|0,0:0|0:0,0:0:0:0:
230,285,136808,1,0,0:0:0:0:
34,352,137148,2,0,L|119:347,1,84.9999952316285,0|0,0:0|0:0,0:0:0:0:
324,369,137826,6,0,L|39:179,1,339.999980926514,0|0,0:0|0:0,0:0:0:0:
417,16,139859,1,0,0:0:0:0:
11,15,140538,2,0,L|72:355,1,339.999980926514,0|0,0:0|0:0,0:0:0:0:
70,349,142571,1,0,0:0:0:0:
70,349,143249,6,0,L|239:337,7,169.999990463257,6|0|0|0|0|0|0|2,0:0|0:0|0:0|0:0|0:0|0:0|0:0|0:0,0:0:0:0:
311,147,145961,6,0,L|186:31,7,169.999990463257,2|0|0|0|0|0|0|2,0:0|0:0|0:0|0:0|0:0|0:0|0:0|0:0,0:0:0:0:
267,218,148673,6,0,L|419:300,3,169.999990463257,2|0|0|0,0:0|0:0|0:0|0:0,0:0:0:0:
335,107,150029,2,0,L|168:73,3,169.999990463257,2|0|0|0,0:0|0:0|0:0|0:0,0:0:0:0:
48,239,151385,6,0,L|198:159,3,169.999990463257,2|2|2|2,0:0|0:0|0:0|0:0,0:0:0:0:
384,196,152741,2,0,L|47:238,1,339.999980926514,2|0,0:0|0:0,0:0:0:0:
34,101,153758,1,0,0:0:0:0:
377,316,154097,6,0,L|47:238,1,339.999980926514,6|10,0:0|0:0,0:0:0:0:
387,223,154775,2,0,L|217:239,2,169.999990463257,0|2|8,0:0|0:0|0:0,0:0:0:0:
47,238,155453,2,0,L|216:254,2,169.999990463257,2|0|8,0:0|0:0|0:0,0:0:0:0:
387,254,156131,2,0,L|218:270,2,169.999990463257,0|2|8,0:0|0:0|0:0,0:0:0:0:
46,272,156809,6,0,L|384:303,1,339.999980926514,2|10,0:0|0:0,0:0:0:0:
130,76,157487,2,0,L|146:245,2,169.999990463257,0|2|8,0:0|0:0|0:0,0:0:0:0:
280,382,158165,2,0,L|296:212,6,169.999990463257,2|0|8|0|8|8|0,0:0|0:0|0:0|0:0|0:3|0:0|0:0,0:0:0:0:
497,121,159521,6,0,L|279:381,1,339.999980926514,6|10,0:0|0:0,0:0:0:0:
59,121,160199,2,0,L|208:202,2,169.999990463257,0|2|8,0:0|0:0|0:0,0:0:0:0:
390,202,160877,2,0,L|240:283,2,169.999990463257,2|0|8,0:0|0:0|0:0,0:0:0:0:
56,273,161555,2,0,L|205:354,2,169.999990463257,0|2|8,0:0|0:0|0:0,0:0:0:0:
393,40,162233,6,0,L|88:199,1,339.999980926514,6|10,0:0|0:0,0:0:0:0:
491,363,162911,2,0,L|468:194,6,169.999990463257,2|8|0|2|12|8|8,0:0|0:0|0:0|0:0|0:0|0:0|0:3,0:0:0:0:
180,360,164266,6,0,L|6:372,1,169.999990463257,10|2,0:0|0:0,0:0:0:0:
78,34,164944,6,0,L|179:359,1,339.999980926514,6|10,0:0|0:0,0:0:0:0:
171,18,165622,2,0,L|151:186,2,169.999990463257,0|2|8,0:0|0:0|0:0,0:0:0:0:
257,347,166300,2,0,L|237:178,2,169.999990463257,2|0|8,0:0|0:0|0:0,0:0:0:0:
341,16,166978,2,0,L|321:184,2,169.999990463257,0|2|8,0:0|0:0|0:0,0:0:0:0:
402,350,167656,6,0,L|341:16,1,339.999980926514,2|10,0:0|0:0,0:0:0:0:
225,336,168334,2,0,L|60:378,2,169.999990463257,0|2|8,0:0|0:0|0:0,0:0:0:0:
422,57,169012,2,0,L|353:212,6,169.999990463257,2|0|8|0|2|8|0,0:0|0:0|0:0|0:0|0:0|0:0|0:0,0:0:0:0:
300,375,170368,6,0,L|15:189,1,339.999980926514,2|10,0:0|0:0,0:0:0:0:
339,295,171046,2,0,L|508:279,2,169.999990463257,0|2|8,0:0|0:0|0:0,0:0:0:0:
15,189,171724,2,0,L|184:205,2,169.999990463257,2|0|8,0:0|0:0|0:0,0:0:0:0:
339,295,172402,2,0,L|170:311,2,169.999990463257,0|2|8,0:0|0:0|0:0,0:0:0:0:
0,64,173080,6,0,L|338:96,1,339.999980926514,6|10,0:0|0:0,0:0:0:0:
4,358,173758,2,0,L|15:189,6,169.999990463257,0|0|0|0|12|0|8,0:0|0:0|0:0|0:0|0:0|0:0|0:3,0:0:0:0:
106,171,175114,6,0,L|229:54,1,169.999990463257,0|0,0:0|0:0,0:0:0:0:
492,250,175792,6,0,L|25:46,1,509.999990844727,6|8,0:0|0:0,0:0:0:0:
389,73,176809,1,0,0:0:0:0:
40,305,177148,2,0,L|289:250,1,254.999995422363,2|0,0:0|0:0,0:0:0:0:
178,149,177826,1,8,0:0:0:0:
241,344,178165,1,2,0:0:0:0:
454,7,178504,6,0,L|40:305,1,509.999990844727,2|8,0:0|0:0,0:0:0:0:
268,93,179521,1,0,0:0:0:0:
310,292,179860,1,2,0:0:0:0:
14,369,180368,2,0,L|27:242,1,127.499997711182,2|8,0:0|0:0,0:0:0:0:
215,321,180877,1,8,0:0:0:0:
43,16,181216,6,0,L|412:369,1,509.999990844727,6|8,0:0|0:0,0:0:0:0:
159,185,182232,1,0,0:0:0:0:
351,118,182571,2,0,L|172:299,1,254.999995422363,2|0,0:0|0:0,0:0:0:0:
74,120,183249,1,8,0:0:0:0:
67,323,183588,1,2,0:0:0:0:
310,215,183927,6,0,L|74:120,1,254.999995422363,6|8,0:0|0:0,0:0:0:0:
503,27,184605,2,0,L|424:127,1,127.499997711182,2|8,0:0|0:0,0:0:0:0:
184,315,185114,2,0,L|310:297,5,127.499997711182,2|12|8|8|2|12,0:0|0:0|0:0|0:3|0:0|0:0,0:0:0:0:
106,350,186300,1,2,0:0:0:0:
492,350,186639,6,0,L|48:101,1,509.999990844727,6|8,0:0|0:0,0:0:0:0:
345,141,187656,1,0,0:0:0:0:
92,179,187995,2,0,L|341:230,1,254.999995422363,2|0,0:0|0:0,0:0:0:0:
453,0,188673,1,8,0:0:0:0:
269,184,189012,1,2,0:0:0:0:
491,309,189351,6,0,L|4:155,1,509.999990844727,2|8,0:0|0:0,0:0:0:0:
269,184,190368,1,0,0:0:0:0:
19,236,190707,1,2,0:0:0:0:
377,367,191215,2,0,L|491:309,1,127.499997711182,0|8,0:0|0:0,0:0:0:0:
240,359,191724,1,8,0:0:0:0:
0,276,192063,6,0,L|507:194,1,509.999990844727,6|10,0:0|0:0,0:0:0:0:
315,22,193079,1,2,0:0:0:0:
114,178,193419,2,0,L|315:21,1,254.999995422363,2|2,0:0|0:0,0:0:0:0:
504,196,194096,1,0,0:0:0:0:
266,103,194435,1,8,0:3:0:0:
11,96,194775,6,0,L|247:192,1,254.999995422363,6|0,0:0|0:0,0:0:0:0:
503,362,195452,2,0,L|376:379,1,127.499997711182,0|0,0:0|0:0,0:0:0:0:
70,333,195961,2,0,L|207:334,5,127.499997711182,0|6|0|0|0|0,0:0|0:0|0:0|0:0|0:0|0:0,0:0:0:0:
158,31,197147,1,0,0:0:0:0:
376,379,197487,5,6,0:1:0:0:
