osu file format v14

[General]
AudioFilename: audio.mp3
AudioLeadIn: 0
PreviewTime: 78082
Countdown: 0
SampleSet: Normal
StackLeniency: 0.7
Mode: 0
LetterboxInBreaks: 0
WidescreenStoryboard: 1

[Editor]
DistanceSpacing: 0.6
BeatDivisor: 4
GridSize: 4
TimelineZoom: 1.399999

[Metadata]
Title:KAEDE
TitleUnicode:KAEDE
Artist:Ocelot
ArtistUnicode:Ocelot
Creator:Hollow Wings
Version:Hard
Source:
Tags:japan diverse system dubstep Hatsune Miku DJ Ginsuke Ocelot SiSTEMA Function Phantom Thinktech fanzhen0019 Kalindraz Kawashiro Moecho Koiyuki Minakami Yuki mtbbsben Skystar Amamiya Yuko Irreversible
BeatmapID:1415937
BeatmapSetID:660630

[Difficulty]
HPDrainRate:4
CircleSize:3
OverallDifficulty:5
ApproachRate:6
SliderMultiplier:1.39999990463257
SliderTickRate:1

[Events]
//Background and Video events
0,0,"KAEDE.jpg",0,0
//Break Periods
2,100060,108301
2,110906,117793
//Storyboard Layer 0 (Background)
//Storyboard Layer 1 (Fail)
//Storyboard Layer 2 (Pass)
//Storyboard Layer 3 (Foreground)
//Storyboard Sound Samples

[TimingPoints]
2233,338.983050847458,4,2,99,80,1,0
23927,-200,4,2,99,80,0,0
45622,-100,4,2,99,70,0,0
51046,-100,4,2,99,80,0,0
56470,-50,4,1,99,100,0,1
66639,-100,4,1,99,100,0,0
67317,-50,4,1,99,100,0,1
77487,-100,4,1,99,100,0,0
78165,-66.6666666666667,4,1,99,80,0,1
88334,-100,4,1,99,80,0,0
89012,-66.6666666666667,4,1,99,80,0,1
99182,-100,4,1,99,80,0,1
99860,-200,4,2,99,60,0,0
121555,-200,4,2,99,80,0,0
143249,-100,4,2,99,70,0,0
148673,-100,4,2,99,80,0,0
154097,-50,4,1,99,100,0,1
164266,-100,4,1,99,100,0,0
164944,-50,4,1,99,100,0,1
175114,-100,4,1,99,100,0,0
175792,-66.6666666666667,4,1,99,80,0,1
185961,-100,4,1,99,80,0,0
186639,-66.6666666666667,4,1,99,80,0,1
196809,-100,4,1,99,80,0,1
197487,-100,4,2,99,60,0,0

[Colours]
Combo1 : 255,255,128
Combo2 : 91,173,255
Combo3 : 255,128,128
Combo4 : 255,128,64

[HitObjects]
256,192,21216,12,0,23588,0:0:0:0:
91,204,23927,6,0,L|229:183,1,139.999990463257,6|0,0:0|0:0,0:0:0:0:
275,253,25283,2,0,L|304:329,2,69.9999952316285,2|2|2,0:0|0:0|3:0,0:0:0:0:
311,177,26639,2,0,L|401:70,1,139.999990463257,2|0,0:0|0:0,0:0:0:0:
325,33,27995,2,0,L|256:38,2,69.9999952316285,2|0|2,0:0|0:0|0:3,0:0:0:0:
330,116,29351,6,0,L|343:255,1,139.999990463257,2|0,0:0|0:0,0:0:0:0:
395,321,30707,2,0,L|460:345,2,69.9999952316285,2|2|2,0:0|0:0|0:3,0:0:0:0:
312,338,32063,2,0,L|174:359,1,139.999990463257,2|0,0:0|0:0,0:0:0:0:
89,357,33419,2,0,L|20:352,3,69.9999952316285,2|0|2|0,0:0|0:0|0:3|0:0,0:0:0:0:
34,312,34775,6,0,L|22:172,1,139.999990463257,6|0,0:0|0:0,0:0:0:0:
44,91,36131,2,0,L|26:14,2,69.9999952316285,2|2|2,0:0|0:0|0:3,0:0:0:0:
101,151,37487,2,0,L|239:130,1,139.999990463257,2|0,0:0|0:0,0:0:0:0:
286,60,38843,2,0,L|343:20,2,69.9999952316285,2|0|2,0:0|0:0|0:3,0:0:0:0:
325,134,40199,6,0,L|376:264,1,139.999990463257,2|0,0:0|0:0,0:0:0:0:
455,293,41555,2,0,L|431:372,2,69.9999952316285,2|2|2,0:0|0:0|0:3,0:0:0:0:
444,209,42910,2,0,L|306:230,1,139.999990463257,2|0,0:0|0:0,0:0:0:0:
242,285,44266,2,0,L|260:366,2,69.9999952316285,2|0|2,0:0|0:0|0:3,0:0:0:0:
203,214,45622,6,0,L|344:188,15,139.999990463257,2|0|0|0|0|0|0|2|2|0|0|0|0|0|0|2,0:0|0:0|0:0|0:0|0:0|0:0|0:0|0:0|0:0|0:0|0:0|0:0|0:0|0:0|0:0|0:0,0:0:0:0:
337,99,51046,6,0,L|200:74,7,139.999990463257,2|0|0|0|2|0|0|0,0:0|0:0|0:0|0:0|0:0|0:0|0:0|0:0,0:0:0:0:
118,43,53758,6,0,L|91:180,3,139.999990463257,2|2|2|2,0:0|0:0|0:0|0:0,0:0:0:0:
59,262,55114,6,0,L|199:258,1,139.999990463257,2|0,0:0|0:0,0:0:0:0:
265,310,55792,1,0,0:0:0:0:
323,250,56131,1,0,0:0:0:0:
346,330,56470,6,0,L|67:358,2,279.999980926514,6|2|8,0:0|0:0|0:0,0:0:0:0:
388,166,57487,1,2,0:0:0:0:
220,162,57826,2,0,L|347:94,2,139.999990463257,0|0|0,0:0|0:0|0:0,0:0:0:0:
55,126,58504,2,0,L|158:220,2,139.999990463257,8|0|0,0:0|0:0|0:0,0:0:0:0:
216,76,59182,6,0,L|144:366,2,279.999980926514,2|2|8,0:0|0:0|0:0,0:0:0:0:
232,243,60199,1,0,0:0:0:0:
375,330,60538,2,0,L|236:326,4,139.999990463257,2|0|2|2|8,0:0|0:0|0:0|0:0|0:0,0:0:0:0:
426,169,61555,1,8,0:0:0:0:
306,286,61894,6,0,L|446:43,2,279.999980926514,4|2|8,0:0|0:0|0:0,0:0:0:0:
189,164,62911,1,2,0:0:0:0:
349,214,63250,2,0,L|366:352,2,139.999990463257,2|0|0,0:0|0:0|0:0,0:0:0:0:
233,91,63927,2,0,L|372:95,2,139.999990463257,8|2|2,0:0|0:0|0:0,0:0:0:0:
120,349,64605,6,0,L|391:278,1,279.999980926514,2|8,0:0|0:0,0:0:0:0:
120,204,65283,2,0,L|40:90,1,139.999990463257,2|8,0:0|0:0,0:0:0:0:
237,291,65792,2,0,L|274:156,3,139.999990463257,0|12|0|8,0:0|0:0|0:0|0:3,0:0:0:0:
21,339,66639,6,0,L|160:358,1,139.999990463257,2|2,0:0|0:0,0:0:0:0:
196,193,67317,6,0,L|418:363,2,279.999980926514,6|2|8,0:0|0:0|0:0,0:0:0:0:
259,348,68334,1,0,0:0:0:0:
361,215,68673,2,0,L|488:147,2,139.999990463257,2|0|0,0:0|0:0|0:0,0:0:0:0:
227,111,69351,2,0,L|124:17,2,139.999990463257,8|0|2,0:0|0:0|0:0,0:0:0:0:
382,46,70029,6,0,L|405:325,2,279.999980926514,2|2|8,0:0|0:0|0:0,0:0:0:0:
361,215,71046,1,0,0:0:0:0:
210,290,71385,2,0,L|71:286,4,139.999990463257,2|0|0|2|8,0:0|0:0|0:0|0:0|0:0,0:0:0:0:
99,162,72402,1,8,0:0:0:0:
242,75,72741,6,0,L|131:332,2,279.999980926514,2|2|8,0:0|0:0|0:0,0:0:0:0:
99,162,73758,1,0,0:0:0:0:
19,13,74097,2,0,L|144:75,2,139.999990463257,2|0|0,0:0|0:0|0:0,0:0:0:0:
99,162,74775,2,0,L|237:182,2,139.999990463257,8|0|2,0:0|0:0|0:0,0:0:0:0:
360,275,75453,6,0,L|81:299,1,279.999980926514,2|0,0:0|0:0,0:0:0:0:
335,179,76130,2,0,L|460:115,1,139.999990463257,0|0,0:0|0:0,0:0:0:0:
235,287,76639,2,0,L|346:371,3,139.999990463257,0|6|0|8,0:0|0:0|0:0|0:3,0:0:0:0:
235,287,77487,6,0,L|134:383,1,139.999990463257,2|0,0:0|0:0,0:0:0:0:
111,259,78165,6,0,L|313:204,2,209.99999370575,6|0|8,0:0|0:0|0:0,0:0:0:0:
107,132,79182,1,0,0:0:0:0:
7,209,79521,2,0,L|414:310,1,419.999987411499,2|8,0:0|0:0,0:0:0:0:
495,212,80538,1,2,0:0:0:0:
393,124,80877,6,0,L|283:303,2,209.99999370575,2|0|8,0:0|0:0|0:0,0:0:0:0:
270,91,81894,1,0,0:0:0:0:
209,201,82233,2,0,L|7:256,1,209.99999370575,2|0,0:0|0:0,0:0:0:0:
113,189,82910,1,8,0:0:0:0:
109,315,83250,1,8,0:0:0:0:
231,341,83588,6,0,L|267:134,2,209.99999370575,6|0|8,0:0|0:0|0:0,0:0:0:0:
334,268,84605,1,0,0:0:0:0:
459,278,84944,2,0,L|45:351,1,419.999987411499,2|8,0:0|0:0,0:0:0:0:
107,241,85961,1,2,0:0:0:0:
58,124,86300,5,6,0:0:0:0:
183,136,86639,1,8,0:0:0:0:
289,202,86978,2,0,L|184:213,1,104.999996852875,2|8,0:0|0:0,0:0:0:0:
185,339,87487,2,0,L|80:350,3,104.999996852875,2|6|8|8,0:0|0:0|0:0|0:3,0:0:0:0:
46,323,88334,6,0,L|185:339,1,139.999990463257,8|2,0:0|0:0,0:0:0:0:
224,342,89012,6,0,L|437:285,2,209.99999370575,6|0|8,0:0|0:0|0:0,0:0:0:0:
207,216,90029,1,0,0:0:0:0:
111,297,90368,2,0,L|468:76,1,419.999987411499,2|8,0:0|0:0,0:0:0:0:
353,23,91385,1,2,0:0:0:0:
251,97,91724,6,0,L|38:40,2,209.99999370575,2|0|8,0:0|0:0|0:0,0:0:0:0:
286,218,92741,1,0,0:0:0:0:
248,338,93080,2,0,L|461:281,1,209.99999370575,2|0,0:0|0:0,0:0:0:0:
394,171,93757,1,8,0:0:0:0:
286,218,94097,1,8,0:0:0:0:
286,91,94436,6,0,L|326:297,2,209.99999370575,6|2|10,0:0|0:0|0:0,0:0:0:0:
179,158,95452,1,2,0:0:0:0:
90,67,95792,2,0,L|61:275,2,209.99999370575,2|2|10,0:0|0:0|0:0,0:0:0:0:
179,158,96808,1,8,0:3:0:0:
142,278,97147,5,6,0:0:0:0:
38,349,97486,1,0,0:0:0:0:
163,352,97825,2,0,L|268:363,1,104.999996852875,0|0,0:0|0:0,0:0:0:0:
392,345,98334,2,0,L|493:305,3,104.999996852875,0|6|0|8,0:0|0:0|0:0|0:3,0:0:0:0:
407,325,99182,6,0,L|268:345,1,139.999990463257,2|0,0:0|0:0,0:0:0:0:
267,362,99860,5,6,0:1:0:0:
252,184,109351,5,0,0:0:0:0:
252,184,110029,2,0,L|262:263,2,69.9999952316285,2|2|6,0:0|0:0|0:1,0:0:0:0:
256,192,118843,12,0,121215,0:0:0:0:
448,227,121555,6,0,L|310:206,1,139.999990463257,6|0,0:0|0:0,0:0:0:0:
291,123,122911,2,0,L|170:44,1,139.999990463257,0|2,0:0|0:3,0:0:0:0:
90,32,124266,2,0,L|107:170,1,139.999990463257,0|0,0:0|0:0,0:0:0:0:
76,249,125622,2,0,L|6:245,2,69.9999952316285,0|0|0,0:0|0:0|0:0,0:0:0:0:
159,240,126978,6,0,L|259:350,1,139.999990463257,0|0,0:0|0:0,0:0:0:0:
336,331,128334,2,0,L|474:352,1,139.999990463257,0|2,0:0|0:3,0:0:0:0:
491,269,129690,2,0,L|353:248,1,139.999990463257,0|0,0:0|0:0,0:0:0:0:
291,190,131046,2,0,L|350:147,3,69.9999952316285,0|0|0|0,0:0|0:0|0:0|0:0,0:0:0:0:
384,168,132402,6,0,L|396:28,1,139.999990463257,4|0,0:0|0:0,0:0:0:0:
479,40,133758,2,0,L|497:117,2,69.9999952316285,0|0|2,0:0|0:0|0:3,0:0:0:0:
396,28,135114,2,0,L|258:49,1,139.999990463257,0|0,0:0|0:0,0:0:0:0:
173,39,136470,2,0,L|116:-1,2,69.9999952316285,0|0|0,0:0|0:0|0:0,0:0:0:0:
210,114,137826,6,0,L|233:251,1,139.999990463257,0|0,0:0|0:0,0:0:0:0:
258,332,139182,2,0,L|325:314,2,69.9999952316285,0|0|2,0:0|0:0|0:3,0:0:0:0:
171,319,140538,2,0,L|33:298,1,139.999990463257
270,285,141893,2,0,L|252:366,2,69.9999952316285,0|0|0,0:0|0:0|0:0,0:0:0:0:
309,214,143249,6,0,L|168:188,15,139.999990463257,6|0|0|0|0|0|0|2|2|0|0|0|0|0|0|2,0:0|0:0|0:0|0:0|0:0|0:0|0:0|0:0|0:0|0:0|0:0|0:0|0:0|0:0|0:0|0:0,0:0:0:0:
175,99,148673,6,0,L|312:74,7,139.999990463257,2|0|0|0|2|0|0|0,0:0|0:0|0:0|0:0|0:0|0:0|0:0|0:0,0:0:0:0:
394,43,151385,2,0,L|421:180,3,139.999990463257,2|2|2|2,0:0|0:0|0:0|0:0,0:0:0:0:
453,262,152741,2,0,L|313:258,1,139.999990463257,2|0,0:0|0:0,0:0:0:0:
247,310,153419,1,0,0:0:0:0:
189,250,153758,1,0,0:0:0:0:
108,277,154097,6,0,L|308:41,2,279.999980926514,6|10|0,0:0|0:0|0:0,0:0:0:0:
275,291,155114,1,8,0:0:0:0:
138,200,155453,2,0,L|364:35,1,279.999980926514,2|8,0:0|0:0,0:0:0:0:
206,93,156131,2,0,L|483:56,1,279.999980926514,0|8,0:0|0:0,0:0:0:0:
357,167,156809,6,0,L|131:1,2,279.999980926514,2|10|0,0:0|0:0|0:0,0:0:0:0:
364,335,157826,1,8,0:0:0:0:
504,243,158165,2,0,L|224:257,3,279.999980926514,2|8|8|0,0:0|0:0|0:3|0:0,0:0:0:0:
73,333,159521,6,0,L|98:46,2,279.999980926514,6|10|0,0:0|0:0|0:0,0:0:0:0:
87,165,160538,1,8,0:0:0:0:
205,284,160877,2,0,L|4:89,1,279.999980926514,2|8,0:0|0:0,0:0:0:0:
171,110,161555,2,0,L|449:142,1,279.999980926514,0|8,0:0|0:0,0:0:0:0:
328,23,162233,6,0,L|358:301,2,279.999980926514,6|10|2,0:0|0:0|0:0,0:0:0:0:
322,191,163250,1,0,0:0:0:0:
486,223,163589,2,0,L|226:119,1,279.999980926514,12|8,0:0|0:3,0:0:0:0:
187,105,164266,6,0,L|172:244,1,139.999990463257,10|2,0:0|0:0,0:0:0:0:
154,208,164944,6,0,L|386:364,2,279.999980926514,6|10|0,0:0|0:0|0:0,0:0:0:0:
6,126,165961,1,8,0:0:0:0:
15,293,166300,2,0,L|295:292,1,279.999980926514,2|8,0:0|0:0,0:0:0:0:
437,201,166978,2,0,L|157:202,1,279.999980926514,0|8,0:0|0:0,0:0:0:0:
85,49,167656,6,0,L|316:206,2,279.999980926514,2|10|0,0:0|0:0|0:0,0:0:0:0:
61,215,168673,1,8,0:0:0:0:
202,305,169012,2,0,L|495:299,3,279.999980926514,2|8|2|0,0:0|0:0|0:0|0:0,0:0:0:0:
319,342,170368,6,0,L|238:75,2,279.999980926514,2|10|0,0:0|0:0|0:0,0:0:0:0:
362,179,171385,1,8,0:0:0:0:
313,18,171724,2,0,L|69:155,1,279.999980926514,2|8,0:0|0:0,0:0:0:0:
126,313,172402,2,0,L|403:276,1,279.999980926514,0|8,0:0|0:0,0:0:0:0:
383,108,173080,6,0,L|249:354,3,279.999980926514,6|10|0|0,0:0|0:0|0:0|0:0,0:0:0:0:
112,255,174436,2,0,L|307:54,1,279.999980926514,12|8,0:0|0:3,0:0:0:0:
267,72,175114,6,0,L|407:59,1,139.999990463257,0|0,0:0|0:0,0:0:0:0:
379,78,175792,6,0,L|177:23,2,209.99999370575,6|0|8,0:0|0:0|0:0,0:0:0:0:
471,164,176809,1,0,0:0:0:0:
409,273,177148,2,0,L|84:6,1,419.999987411499,2|8,0:0|0:0,0:0:0:0:
63,131,178165,1,2,0:0:0:0:
188,143,178504,6,0,L|78:322,2,209.99999370575,2|0|8,0:0|0:0|0:0,0:0:0:0:
180,16,179521,1,0,0:0:0:0:
188,143,179860,2,0,L|317:308,1,209.99999370575,2|0,0:0|0:0,0:0:0:0:
373,195,180537,1,0,0:0:0:0:
398,318,180877,1,8,0:0:0:0:
491,233,181216,6,0,L|455:24,2,209.99999370575,6|0|8,0:0|0:0|0:0,0:0:0:0:
373,195,182232,1,0,0:0:0:0:
463,107,182571,2,0,L|86:293,1,419.999987411499,2|8,0:0|0:0,0:0:0:0:
178,206,183588,1,2,0:0:0:0:
126,90,183927,5,6,0:0:0:0:
178,206,184266,1,8,0:0:0:0:
290,261,184605,2,0,L|395:272,1,104.999996852875,2|8,0:0|0:0,0:0:0:0:
475,368,185114,2,0,L|370:357,3,104.999996852875,2|12|8|8,0:0|0:0|0:0|0:3,0:0:0:0:
384,343,185961,6,0,L|245:359,1,139.999990463257,12|2,0:0|0:0,0:0:0:0:
233,344,186639,6,0,L|30:289,2,209.99999370575,6|0|8,0:0|0:0|0:0,0:0:0:0:
118,289,187656,1,0,0:0:0:0:
26,375,187995,2,0,L|376:143,1,419.999987411499,2|8,0:0|0:0,0:0:0:0:
392,17,189012,1,2,0:0:0:0:
468,117,189351,6,0,L|435:332,2,209.99999370575,2|0|8,0:0|0:0|0:0,0:0:0:0:
392,17,190368,1,0,0:0:0:0:
377,143,190707,2,0,L|164:86,1,209.99999370575,2|0,0:0|0:0,0:0:0:0:
64,27,191384,1,0,0:0:0:0:
105,146,191724,1,8,0:0:0:0:
230,157,192063,6,0,L|190:363,2,209.99999370575,6|2|10,0:0|0:0|0:0,0:0:0:0:
126,228,193079,1,2,0:0:0:0:
49,328,193419,2,0,L|290:295,2,209.99999370575,2|2|6,0:0|0:0|0:0,0:0:0:0:
126,228,194435,1,8,0:3:0:0:
230,157,194774,5,6,0:0:0:0:
345,206,195113,1,0,0:0:0:0:
424,303,195452,2,0,L|319:314,1,104.999996852875,0|0,0:0|0:0,0:0:0:0:
213,245,195961,2,0,L|234:347,3,104.999996852875,0|6|0|0,0:0|0:0|0:0|0:0,0:0:0:0:
220,360,196809,6,0,L|81:340,1,139.999990463257,0|0,0:0|0:0,0:0:0:0:
63,352,197487,5,6,0:1:0:0:
