osu file format v14

[General]
AudioFilename: audio.mp3
AudioLeadIn: 0
PreviewTime: 78082
Countdown: 0
SampleSet: Soft
StackLeniency: 0.2
Mode: 0
LetterboxInBreaks: 0
WidescreenStoryboard: 1

[Editor]
DistanceSpacing: 0.5
BeatDivisor: 4
GridSize: 4
TimelineZoom: 2.4

[Metadata]
Title:KAEDE
TitleUnicode:KAEDE
Artist:Ocelot
ArtistUnicode:Ocelot
Creator:Hollow Wings
Version:fanzhen's EX
Source:
Tags:japan diverse system dubstep Hatsune Miku DJ Ginsuke Ocelot SiSTEMA Function Phantom Thinktech fanzhen0019 Kalindraz Kawashiro Moecho Koiyuki Minakami Yuki mtbbsben Skystar Amamiya Yuko Irreversible
BeatmapID:1398810
BeatmapSetID:660630

[Difficulty]
HPDrainRate:8
CircleSize:4
OverallDifficulty:8
ApproachRate:9
SliderMultiplier:1.6
SliderTickRate:1

[Events]
//Background and Video events
0,0,"KAEDE.jpg",0,0
//Break Periods
2,100060,108660
2,110907,117643
//Storyboard Layer 0 (Background)
//Storyboard Layer 1 (Fail)
//Storyboard Layer 2 (Pass)
//Storyboard Layer 3 (Foreground)
//Storyboard Sound Samples

[TimingPoints]
2233,338.983050847458,4,2,0,100,1,0
23927,-133.333333333333,4,2,0,70,0,0
55114,-100,4,2,0,70,0,0
56470,-100,4,2,1,70,0,1
56809,-76.9230769230769,4,2,1,70,0,1
57995,-100,4,2,1,70,0,1
58165,-76.9230769230769,4,2,1,70,0,1
58334,-100,4,2,1,70,0,1
58673,-58.8235294117647,4,2,1,70,0,1
59182,-133.333333333333,4,2,1,70,0,1
59521,-66.6666666666667,4,2,1,70,0,1
60029,-83.3333333333333,4,2,1,70,0,1
60538,-71.4285714285714,4,2,1,70,0,1
60707,-100,4,2,1,70,0,1
60877,-71.4285714285714,4,2,1,70,0,1
61046,-100,4,2,1,70,0,1
61385,-58.8235294117647,4,2,1,70,0,1
61894,-133.333333333333,4,2,1,70,0,1
62233,-76.9230769230769,4,2,1,70,0,1
63249,-66.6666666666667,4,2,1,70,0,1
63419,-100,4,2,1,70,0,1
63588,-66.6666666666667,4,2,1,70,0,1
64605,-100,4,2,1,70,0,1
66131,-55.5555555555556,4,2,1,70,0,1
66639,-50,4,2,1,70,0,1
66978,-100,4,2,1,70,0,1
67317,-133.333333333333,4,2,1,70,0,1
67656,-76.9230769230769,4,2,1,70,0,1
68843,-100,4,2,1,70,0,1
69012,-76.9230769230769,4,2,1,70,0,1
69182,-100,4,2,1,70,0,1
69521,-58.8235294117647,4,2,1,70,0,1
70029,-133.333333333333,4,2,1,70,0,1
70368,-71.4285714285714,4,2,1,70,0,1
70877,-62.5,4,2,1,70,0,1
71385,-71.4285714285714,4,2,1,70,0,1
71555,-100,4,2,1,70,0,1
71724,-71.4285714285714,4,2,1,70,0,1
71894,-100,4,2,1,70,0,1
72063,-66.6666666666667,4,2,1,70,0,1
72402,-55.5555555555556,4,2,1,70,0,1
72741,-133.333333333333,4,2,1,70,0,1
73080,-66.6666666666667,4,2,1,70,0,1
73588,-83.3333333333333,4,2,1,70,0,1
74097,-66.6666666666667,4,2,1,70,0,1
74266,-100,4,2,1,70,0,1
74436,-66.6666666666667,4,2,1,70,0,1
74605,-100,4,2,1,70,0,1
74944,-55.5555555555556,4,2,1,70,0,1
75453,-133.333333333333,4,2,1,70,0,1
76809,-66.6666666666667,4,2,1,70,0,1
77487,-50,4,2,1,70,0,1
78165,-200,4,2,1,70,0,0
78843,-100,4,2,0,70,0,0
80877,-200,4,2,0,70,0,0
81555,-100,4,2,0,70,0,0
83588,-200,4,2,0,70,0,0
84266,-100,4,2,0,70,0,0
86300,-76.9230769230769,4,2,0,70,0,0
87656,-58.8235294117647,4,2,0,70,0,0
88334,-50,4,2,0,70,0,0
88673,-133.333333333333,4,2,0,70,0,0
89012,-200,4,2,0,70,0,0
89690,-100,4,2,0,70,0,0
91724,-200,4,2,0,70,0,0
92402,-100,4,2,0,70,0,0
94436,-200,4,2,0,70,0,0
95453,-100,4,2,0,70,0,0
97148,-66.6666666666667,4,2,0,70,0,0
97487,-133.333333333333,4,2,0,70,0,0
98673,-83.3333333333333,4,2,0,70,0,0
99182,-66.6666666666667,4,2,0,70,0,0
99521,-133.333333333333,4,2,0,70,0,0
109860,-133.333333333333,4,2,0,35,0,0
111046,-133.333333333333,4,2,0,70,0,0
131555,-133.333333333333,4,2,0,35,0,0
132402,-133.333333333333,4,2,0,70,0,0
152741,-55.5555555555556,4,2,0,70,0,0
153080,-100,4,2,0,70,0,0
153588,-66.6666666666667,4,2,0,70,0,0
154097,-133.333333333333,4,2,1,70,0,1
154436,-76.9230769230769,4,2,1,70,0,1
155622,-100,4,2,1,70,0,1
155792,-76.9230769230769,4,2,1,70,0,1
155961,-100,4,2,1,70,0,1
156809,-133.333333333333,4,2,1,70,0,1
157148,-71.4285714285714,4,2,1,70,0,1
158334,-100,4,2,1,70,0,1
158504,-71.4285714285714,4,2,1,70,0,1
159012,-58.8235294117647,4,2,1,70,0,1
159521,-133.333333333333,4,2,1,70,0,1
159860,-66.6666666666667,4,2,1,70,0,1
160368,-83.3333333333333,4,2,1,70,0,1
160877,-66.6666666666667,4,2,1,70,0,1
161046,-100,4,2,1,70,0,1
161216,-66.6666666666667,4,2,1,70,0,1
161385,-100,4,2,1,70,0,1
162233,-133.333333333333,4,2,1,70,0,1
162910,-76.9230769230769,4,2,1,70,0,1
163927,-50,4,2,1,70,0,1
164266,-58.8235294117647,4,2,1,70,0,1
164605,-133.333333333333,4,2,1,70,0,1
165283,-76.9230769230769,4,2,1,70,0,1
166470,-100,4,2,1,70,0,1
166639,-76.9230769230769,4,2,1,70,0,1
166809,-100,4,2,1,70,0,1
167656,-133.333333333333,4,2,1,70,0,1
167995,-71.4285714285714,4,2,1,70,0,1
169182,-100,4,2,1,70,0,1
169351,-71.4285714285714,4,2,1,70,0,1
169521,-100,4,2,1,70,0,1
169860,-55.5555555555556,4,2,1,70,0,1
170368,-133.333333333333,4,2,1,70,0,1
170707,-66.6666666666667,4,2,1,70,0,1
171894,-100,4,2,1,70,0,1
172063,-66.6666666666667,4,2,1,70,0,1
172233,-100,4,2,1,70,0,1
173080,-133.333333333333,4,2,1,70,0,1
174436,-66.6666666666667,4,2,1,70,0,1
174775,-76.9230769230769,4,2,1,70,0,1
175114,-50,4,2,1,70,0,1
175792,-200,4,2,0,70,0,0
176470,-100,4,2,0,70,0,0
178504,-200,4,2,0,70,0,0
179182,-100,4,2,0,70,0,0
181216,-200,4,2,0,70,0,0
181724,-100,4,2,0,70,0,0
183927,-76.9230769230769,4,2,0,70,0,0
185283,-66.6666666666667,4,2,0,70,0,0
185961,-50,4,2,0,70,0,0
186300,-100,4,2,0,70,0,0
186639,-200,4,2,0,70,0,0
187317,-100,4,2,0,70,0,0
189351,-200,4,2,0,70,0,0
190029,-100,4,2,0,70,0,0
192063,-200,4,2,0,70,0,0
193419,-100,4,2,0,70,0,0
194775,-76.9230769230769,4,2,0,70,0,0
195114,-100,4,2,0,70,0,0
196809,-66.6666666666667,4,2,0,70,0,0
197148,-133.333333333333,4,2,0,70,0,0

[Colours]
Combo1 : 255,255,128
Combo2 : 91,173,255
Combo3 : 255,128,128
Combo4 : 255,128,64

[HitObjects]
256,192,21216,12,0,23758,0:0:0:0:
48,240,23927,6,0,P|132:224|196:304,1,180.000006866455,4|0,1:0|0:0,1:0:0:0:
148,364,24605,1,8,0:0:0:0:
48,240,24944,1,0,3:0:0:0:
180,116,25283,6,0,P|176:88|176:40,1,60.0000022888184,0|0,1:0|0:0,0:0:0:0:
40,100,25622,2,0,P|36:72|36:24,1,60.0000022888184,0|0,1:0|0:0,0:0:0:0:
108,156,25961,1,8,0:0:0:0:
304,128,26300,1,0,3:0:0:0:
492,100,26639,5,0,1:0:0:0:
392,48,26978,1,0,0:0:0:0:
220,208,27317,5,8,0:0:0:0:
321,259,27656,1,0,1:0:0:0:
321,259,27826,1,0,3:0:0:0:
233,323,27995,6,0,P|220:295|220:201,1,120.000004577637,0|0,1:0|0:0,0:0:0:0:
44,316,28504,1,0,1:0:0:0:
124,272,28673,5,8,1:2:0:0:
144,184,28843,1,4,3:0:0:0:
112,100,29012,1,0,3:0:0:0:
132,12,29182,1,4,3:0:0:0:
296,124,29351,6,0,P|368:152|452:100,1,180.000006866455,0|0,1:0|0:0,0:0:0:0:
416,20,30029,1,8,0:0:0:0:
296,124,30368,1,0,3:0:0:0:
448,224,30707,6,0,P|452:260|448:288,1,60.0000022888184,0|0,1:0|0:0,0:0:0:0:
300,252,31046,2,0,P|304:288|300:316,1,60.0000022888184,0|0,1:0|0:0,0:0:0:0:
368,196,31385,1,8,0:0:0:0:
164,276,31724,1,0,3:0:0:0:
24,164,32063,5,0,1:0:0:0:
12,56,32402,1,0,3:0:0:0:
248,212,32741,5,8,0:0:0:0:
260,320,33080,1,0,3:0:0:0:
260,320,33249,1,0,3:0:0:0:
160,276,33419,6,0,P|144:220|160:152,1,120.000004577637,0|0,1:0|0:0,0:0:0:0:
248,148,33927,1,0,1:0:0:0:
84,112,34097,5,8,1:0:0:0:
172,136,34266,1,4,3:0:0:0:
260,124,34436,1,0,1:0:0:0:
336,76,34605,1,4,3:0:0:0:
460,124,34775,6,0,P|480:168|456:292,1,180.000006866455,4|0,1:0|0:0,0:0:0:0:
368,308,35453,1,8,0:0:0:0:
460,124,35792,1,0,3:0:0:0:
488,364,36131,6,0,P|460:364|428:368,1,60.0000022888184,0|0,1:0|0:0,0:0:0:0:
228,324,36470,2,0,P|256:324|288:320,1,60.0000022888184,0|0,1:0|0:0,0:0:0:0:
368,308,36809,5,8,0:0:0:0:
208,216,36978,1,4,3:0:0:0:
236,184,37148,1,0,1:0:0:0:
252,220,37317,1,4,3:0:0:0:
92,284,37487,5,0,1:0:0:0:
4,200,37826,1,0,3:0:0:0:
284,4,38165,5,8,0:0:0:0:
372,88,38504,1,0,3:0:0:0:
372,88,38673,1,8,0:0:0:0:
436,148,38843,6,0,P|468:153|500:152,1,60.0000022888184,0|0,1:0|0:0,0:0:0:0:
288,112,39182,2,0,P|255:117|224:116,1,60.0000022888184,4|0,1:2|1:0,0:0:0:0:
56,76,39521,5,8,0:0:0:0:
20,156,39690,1,0,3:0:0:0:
20,156,39775,1,0,3:0:0:0:
20,156,39860,1,8,0:0:0:0:
48,240,40029,1,0,3:0:0:0:
132,272,40199,6,0,P|156:208|144:96,1,180.000006866455,0|0,1:0|0:0,0:0:0:0:
56,76,40877,1,8,0:0:0:0:
132,272,41216,1,0,3:0:0:0:
184,12,41555,6,0,P|152:12|120:16,1,60.0000022888184,0|0,1:0|0:0,0:0:0:0:
320,96,41894,2,0,P|352:96|384:92,1,60.0000022888184,0|0,1:0|0:0,0:0:0:0:
240,80,42233,1,8,0:0:0:0:
288,220,42402,5,4,3:0:0:0:
336,228,42571,1,0,1:0:0:0:
320,184,42741,1,4,3:0:0:0:
240,348,42910,5,0,1:0:0:0:
112,356,43249,1,0,3:0:0:0:
0,96,43588,5,8,0:0:0:0:
128,88,43927,1,0,3:0:0:0:
128,88,44097,1,8,0:0:0:0:
184,156,44266,6,0,P|244:160|308:136,1,120.000004577637,0|0,1:0|0:0,0:0:0:0:
448,108,44775,1,0,1:0:0:0:
420,112,44860,1,0,1:0:0:0:
396,132,44944,5,8,1:2:0:0:
404,212,45114,1,4,3:0:0:0:
356,312,45283,1,0,1:0:0:0:
200,364,45453,1,4,3:0:0:0:
72,236,45622,5,4,1:0:0:0:
72,236,45961,1,0,1:0:0:0:
72,236,46300,1,0,1:0:0:0:
72,236,46639,1,0,1:0:0:0:
20,160,46809,1,2,0:0:0:0:
72,236,46978,6,0,L|148:232,1,60.0000022888184,0|2,1:0|0:0,0:0:0:0:
136,240,47233,1,2,0:0:0:0:
140,248,47317,2,0,P|153:208|145:184,1,60.0000022888184,0|0,1:0|0:0,0:0:0:0:
124,36,47656,1,0,1:0:0:0:
204,72,47826,1,2,0:0:0:0:
292,64,47995,5,0,1:0:0:0:
380,72,48165,1,0,1:0:0:0:
468,80,48334,1,0,1:0:0:0:
468,80,48673,1,0,1:0:0:0:
468,80,49012,1,0,1:0:0:0:
468,80,49351,1,0,1:0:0:0:
468,80,49690,6,0,L|464:156,1,60.0000022888184,0|2,1:0|0:0,0:0:0:0:
352,208,50029,2,0,L|356:284,1,60.0000022888184,0|2,1:0|0:0,0:0:0:0:
444,332,50368,5,0,1:0:0:0:
352,208,50538,1,0,3:0:0:0:
244,304,50707,1,0,1:0:0:0:
355,267,50877,1,0,1:0:0:0:
353,237,50961,1,0,1:0:0:0:
352,208,51046,5,0,1:0:0:0:
392,140,51216,1,0,3:0:0:0:
376,64,51385,1,0,1:0:0:0:
308,24,51555,1,0,1:0:0:0:
232,36,51724,1,0,1:0:0:0:
192,104,51894,1,0,3:0:0:0:
208,180,52063,1,0,3:0:0:0:
284,228,52233,1,0,3:0:0:0:
284,228,52317,1,0,3:0:0:0:
284,228,52402,5,0,1:0:0:0:
240,152,52571,1,0,3:0:0:0:
164,132,52741,1,0,1:0:0:0:
96,172,52910,1,0,1:0:0:0:
72,244,53080,1,0,1:0:0:0:
112,312,53249,1,0,3:0:0:0:
188,336,53419,1,0,3:0:0:0:
256,300,53588,1,0,3:0:0:0:
256,300,53673,1,0,3:0:0:0:
256,300,53758,5,0,1:0:0:0:
294,306,53843,1,0,1:0:0:0:
332,304,53927,1,0,3:0:0:0:
368,291,54012,1,0,3:0:0:0:
398,269,54097,5,0,1:0:0:0:
412,239,54182,1,0,1:0:0:0:
410,212,54266,1,0,3:0:0:0:
401,189,54351,1,0,3:0:0:0:
388,171,54436,5,0,1:0:0:0:
372,161,54521,5,0,3:0:0:0:
357,157,54605,5,0,3:0:0:0:
343,158,54690,5,0,3:0:0:0:
335,161,54775,5,0,1:0:0:0:
331,166,54860,5,0,3:0:0:0:
330,173,54944,5,0,3:0:0:0:
331,177,55029,5,0,3:0:0:0:
334,180,55114,6,0,P|361:213|433:184,1,120,4|0,1:0|3:0,0:0:0:0:
462,111,55453,6,0,P|431:103|417:104,1,40,8|0,0:0|3:0,0:0:0:0:
329,56,55622,1,0,3:0:0:0:
329,56,55707,2,0,L|292:60,2,20,0|0|0,3:0|3:0|1:0,3:0:0:0:
212,100,55961,6,0,P|181:108|167:107,1,40,0|0,1:0|1:0,1:0:0:0:
29,39,56131,5,2,3:0:0:0:
92,264,56470,6,0,P|56:272|44:196,1,120,4|0,1:0|0:0,1:0:0:0:
172,232,56809,6,0,P|176:312|96:348,1,155.999992858887,0|0,1:0|0:0,1:0:0:0:
32,356,57148,5,12,1:0:0:0:
336,312,57317,1,0,3:0:0:0:
240,348,57487,1,0,1:0:0:0:
424,356,57656,1,0,3:0:0:0:
424,356,57741,1,0,3:0:0:0:
424,356,57826,6,0,P|420:324|424:296,1,51.999997619629,0|0,1:0|0:0,0:0:0:0:
336,232,57995,6,0,L|380:228,1,40,2|0,3:2|0:0,0:0:0:0:
416,140,58165,38,0,P|420:108|416:80,1,51.999997619629,2|0,1:0|0:0,0:0:0:0:
504,16,58334,6,0,L|460:12,1,40,0|0,3:0|0:0,0:0:0:0:
308,128,58504,5,12,1:0:0:0:
184,36,58673,2,0,B|164:40|148:32|148:32|136:48|116:56,1,68.0000012969971,2|0,3:2|0:0,1:0:0:0:
44,112,58843,2,0,B|34:129|17:137|17:137|22:156|15:176,1,68.0000012969971,2|0,1:2|0:0,1:0:0:0:
28,268,59012,2,0,B|35:287|30:304|30:304|48:313|59:331,1,68.0000012969971,2|0,3:2|0:0,1:0:0:0:
160,352,59182,6,0,P|208:348|232:296,1,90.0000034332277,4|0,1:0|0:0,1:0:0:0:
200,244,59521,6,0,B|240:268|232:316|232:316|280:320|316:256,1,180.000006866455,0|0,1:0|0:0,1:0:0:0:
360,180,59860,5,12,1:0:0:0:
192,144,60029,2,0,L|144:136,1,47.9999985351563,0|0,1:0|1:0,0:0:0:0:
68,48,60199,5,0,1:0:0:0:
92,44,60283,1,0,3:0:0:0:
168,64,60368,5,8,3:2:0:0:
192,68,60453,1,0,3:0:0:0:
268,40,60538,6,0,P|292:32|340:44,1,55.9999982910157,0|0,1:0|0:0,0:0:0:0:
440,104,60707,6,0,L|448:56,1,40,2|0,3:2|0:0,0:0:0:0:
264,188,60877,38,0,P|256:212|268:260,1,55.9999982910157,0|0,1:0|0:0,0:0:0:0:
436,256,61046,6,0,L|479:251,1,40,0|0,3:0|0:0,1:0:0:0:
296,360,61216,5,12,1:0:0:0:
164,324,61385,2,2,L|88:332,1,68.0000012969971,0|0,1:0|1:0,1:0:0:0:
24,224,61555,6,2,B|12:204|20:192|20:192|8:180|12:148,1,68.0000012969971,8|0,1:0|0:0,1:0:0:0:
168,64,61724,2,2,B|180:44|172:32|172:32|184:20|180:-12,1,68.0000012969971,2|2,3:2|3:2,1:0:0:0:
104,128,61894,6,0,P|124:172|112:220,1,90.0000034332277,4|0,1:0|0:0,1:0:0:0:
84,288,62233,6,0,P|116:240|212:224,1,155.999992858887,0|0,1:0|0:0,1:0:0:0:
292,244,62571,5,12,1:0:0:0:
488,292,62741,1,0,3:0:0:0:
296,360,62910,1,0,1:0:0:0:
496,300,63080,1,0,1:0:0:0:
496,300,63165,1,0,1:0:0:0:
496,300,63249,6,0,P|504:256|500:228,1,60.0000022888184,0|0,1:0|0:0,0:0:0:0:
400,116,63419,6,0,L|404:164,1,40,2|0,3:2|0:0,0:0:0:0:
285,183,63588,38,0,P|293:227|289:255,1,60.0000022888184,0|0,1:0|0:0,0:0:0:0:
197,359,63758,6,0,L|202:295,1,60.0000022888184,2|0,1:2|0:0,0:0:0:0:
104,244,63927,5,12,1:0:0:0:
124,68,64097,1,0,1:0:0:0:
124,68,64266,2,0,B|112:168|112:168|80:164|77:133|77:133|116:136,1,180.000006866455,4|0,1:2|0:0,1:0:0:0:
204,84,64605,6,0,P|244:84|288:80,1,80,6|0,1:0|0:0,1:0:0:0:
432,36,64944,2,2,P|428:97|436:176,1,120,12|0,1:0|0:0,1:0:0:0:
472,224,65283,1,0,1:0:0:0:
296,144,65453,6,0,L|284:192,1,40,14|0,1:0|0:0,0:0:0:0:
244,256,65622,5,0,1:0:0:0:
248,276,65707,1,0,1:0:0:0:
252,296,65792,1,0,1:0:0:0:
256,316,65877,1,0,1:0:0:0:
280,344,65961,5,4,1:2:0:0:
412,296,66131,1,10,1:0:0:0:
144,336,66300,6,2,B|120:332|96:344|96:344|120:344,1,71.9999978027344,2|0,1:3|1:0,1:0:0:0:
280,344,66470,1,2,1:0:0:0:
104,244,66639,6,2,B|4:232|-8:140|40:96|112:112|96:160,1,240,8|0,1:0|0:0,1:0:0:0:
97,152,66978,6,0,B|136:128|184:128|224:160,1,120,6|0,1:0|0:0,0:0:0:0:
296,144,67317,6,0,P|332:112|340:64,1,90.0000034332277,4|0,1:2|0:0,1:0:0:0:
260,68,67656,6,0,P|344:72|428:44,1,155.999992858887,0|0,1:0|0:0,1:0:0:0:
488,20,67995,5,12,1:0:0:0:
476,212,68165,2,0,P|470:151|472:100,1,103.999995239258,0|0,3:0|3:0,1:0:0:0:
384,268,68504,1,0,1:0:0:0:
384,268,68588,1,0,1:0:0:0:
384,268,68673,6,0,P|359:276|332:276,1,51.999997619629,0|0,1:0|0:0,0:0:0:0:
224,360,68843,6,0,L|216:320,1,40,2|0,1:2|0:0,1:0:0:0:
172,200,69012,38,0,P|147:191|120:192,1,51.999997619629,0|0,1:0|0:0,0:0:0:0:
12,108,69182,6,0,L|4:148,1,40,0|0,3:0|0:0,0:0:0:0:
16,276,69351,5,12,1:0:0:0:
172,200,69521,6,0,B|208:184|200:160|200:160|192:184,1,68.0000012969971,2|0,3:2|0:0,1:0:0:0:
260,64,69690,2,0,B|296:76|308:55|308:55|280:68,1,68.0000012969971,2|0,1:2|0:0,1:0:0:0:
436,96,69860,2,0,B|448:128|476:123|476:123|448:116,1,68.0000012969971,2|0,3:2|0:0,1:0:0:0:
472,252,70029,6,0,P|424:256|384:268,1,90.0000034332277,4|0,1:0|0:0,1:0:0:0:
320,312,70368,6,0,B|352:276|384:268|384:268|360:232|300:224,1,167.999994873047,0|0,1:0|0:0,1:0:0:0:
232,232,70707,5,12,1:0:0:0:
16,276,70877,2,0,P|13:314|20:344,1,64,0|0,1:0|1:0,1:0:0:0:
108,296,71046,5,0,1:0:0:0:
112,276,71131,1,0,3:0:0:0:
64,208,71216,5,0,1:0:0:0:
60,188,71301,1,0,3:0:0:0:
112,116,71385,6,0,P|112:80|100:48,1,55.9999982910157,0|0,1:0|0:0,0:0:0:0:
208,16,71555,6,0,L|252:12,1,40,2|0,1:2|0:0,1:0:0:0:
356,52,71724,38,0,P|356:88|344:120,1,55.9999982910157,0|0,1:0|0:0,0:0:0:0:
452,152,71894,6,0,L|496:156,1,40,0|0,1:0|0:0,0:0:0:0:
420,296,72063,5,12,1:0:0:0:
292,228,72233,2,0,L|224:232,1,60.0000022888184,0|0,3:0|3:0,3:0:0:0:
60,188,72402,6,0,B|48:168|52:136|52:136|64:156,1,71.9999978027344,2|0,3:2|0:0,1:0:0:0:
200,68,72571,2,0,B|212:48|208:16|208:16|196:36,1,71.9999978027344,0|0,3:0|0:0,1:0:0:0:
40,16,72741,6,0,P|76:40|132:48,1,90.0000034332277,4|0,1:0|0:0,1:0:0:0:
200,68,73080,6,0,B|160:52|120:47|120:47|94:102|40:100,1,180.000006866455,4|0,1:0|0:0,1:0:0:0:
40,16,73419,5,12,1:0:0:0:
292,80,73588,2,0,P|344:80|392:64,1,95.9999970703126,0|0,3:0|0:0,1:0:0:0:
236,152,73927,1,0,1:0:0:0:
236,152,74012,1,0,1:0:0:0:
236,152,74097,6,0,P|208:160|176:160,1,60.0000022888184,0|0,1:0|0:0,0:0:0:0:
76,216,74266,6,0,L|24:212,1,40,2|0,1:2|0:0,0:0:0:0:
172,276,74436,38,0,P|200:284|232:284,1,60.0000022888184,0|0,1:0|0:0,1:0:0:0:
332,340,74605,6,0,L|384:336,1,40,0|0,1:0|0:0,0:0:0:0:
492,248,74775,5,12,1:0:0:0:
424,100,74944,2,0,B|408:124|380:132|380:132|400:132,1,71.9999978027344,0|0,3:2|1:0,1:0:0:0:
288,160,75114,2,0,B|259:165|234:151|234:151|248:165,1,71.9999978027344,4|0,1:2|0:0,1:0:0:0:
160,92,75283,2,0,B|136:76|128:48|128:48|128:68,1,71.9999978027344,2|0,3:2|0:0,1:0:0:0:
76,216,75453,6,0,P|68:276|80:336,2,120.000004577637,0|0|2,1:0|1:0|1:3,1:0:0:0:
88,140,76300,2,0,L|76:104,1,30.0000011444092,0|0,3:0|3:0,0:0:0:0:
152,188,76470,5,0,1:0:0:0:
168,188,76555,1,0,3:0:0:0:
232,232,76639,5,2,1:3:0:0:
248,232,76724,1,0,3:0:0:0:
312,276,76809,6,0,B|380:276|380:276|336:332|336:332|276:332,1,180.000006866455,4|0,1:2|3:0,1:0:0:0:
216,332,77148,6,0,L|184:332,1,30.0000011444092,2|0,3:0|0:0,0:0:0:0:
388,208,77317,2,0,L|420:208,1,30.0000011444092,2|0,3:0|0:0,0:0:0:0:
276,104,77487,6,0,B|296:80|308:16|308:16|324:80|348:136|348:136|312:164|296:212|296:212|232:188|180:190|180:190|222:208|255:234|255:234|220:224|172:244,1,560,4|0,1:0|0:0,1:0:0:0:
120,268,78165,6,0,L|116:368,1,100,4|0,1:2|0:0,1:0:0:0:
92,188,78843,6,2,P|79:120|120:80,1,120,8|0,1:0|0:0,1:0:0:0:
7,119,79182,2,2,P|62:136|91:187,1,120,0|0,1:0|0:0,1:0:0:0:
120,268,79521,6,2,B|232:316|236:216|384:272,1,240,2|0,1:0|1:0,1:0:0:0:
440,328,80199,6,0,L|392:332,1,40,8|0,1:0|0:0,1:0:0:0:
280,340,80368,2,0,L|328:336,1,40,2|0,1:2|0:0,1:0:0:0:
440,328,80538,6,0,L|488:324,1,40,2|0,1:3|0:0,1:0:0:0:
280,340,80707,2,0,L|232:344,1,40,2|0,1:3|0:0,1:0:0:0:
104,352,80877,6,0,L|0:360,1,100,0|0,1:0|0:0,1:0:0:0:
297,174,81555,6,2,P|253:134|253:46,1,120,8|0,1:0|0:0,1:0:0:0:
368,88,81894,2,2,P|346:142|296:173,1,120,0|0,1:0|0:0,1:0:0:0:
240,240,82233,6,2,B|132:288|120:184|0:244,1,240,2|0,1:0|1:0,1:0:0:0:
68,308,82910,6,0,L|64:356,1,40,8|0,1:0|0:0,1:0:0:0:
80,148,83080,2,0,L|84:100,1,40,2|0,1:2|0:0,1:0:0:0:
176,100,83249,6,0,L|172:139,1,40,2|0,1:3|0:0,1:0:0:0:
148,368,83419,2,0,L|151:328,1,40,2|0,1:3|0:0,1:0:0:0:
240,240,83588,6,0,P|288:236|344:248,1,100,4|0,1:0|0:0,1:0:0:0:
496,128,84266,6,2,P|452:136|384:108,1,120,8|0,1:0|0:0,1:0:0:0:
280,153,84605,2,2,P|339:146|384:108,1,120,0|0,1:0|0:0,1:0:0:0:
364,8,84944,2,2,B|436:116|320:140|408:236,1,240,2|0,1:0|0:0,1:0:0:0:
476,284,85622,6,0,L|464:328,1,40,8|0,1:0|0:0,0:0:0:0:
344,296,85792,2,0,L|332:340,1,40,2|0,1:2|0:0,1:0:0:0:
208,280,85961,6,0,L|196:236,1,40,2|0,1:3|0:0,1:0:0:0:
76,268,86131,2,0,L|64:224,1,40,2|0,1:3|0:0,1:0:0:0:
20,116,86300,6,0,P|68:104|128:132,1,103.999995239258,4|0,1:0|0:0,0:0:0:0:
308,44,86639,1,10,1:0:0:0:
376,164,86809,1,0,1:0:0:0:
376,164,86894,1,0,1:0:0:0:
376,164,86978,6,0,L|320:172,1,51.999997619629,0|0,1:0|0:0,0:0:0:0:
216,52,87148,1,10,1:0:0:0:
176,180,87317,5,0,1:0:0:0:
344,296,87487,1,0,1:0:0:0:
344,296,87572,1,0,1:0:0:0:
344,296,87656,6,2,B|368:296|384:288|388:256|352:264|324:292|324:292|304:308|276:316|232:312,1,136.000002593994,4|0,1:2|0:0,1:0:0:0:
260,316,87910,2,0,P|200:320|120:308,1,136.000002593994,2|0,1:0|0:0,1:0:0:0:
92,300,88165,1,2,1:0:0:0:
36,64,88334,6,2,P|112:48|260:104,1,240,4|0,1:0|0:0,1:0:0:0:
308,172,88673,6,0,P|256:180|220:204,1,90.0000034332277,2|0,1:0|0:0,1:0:0:0:
188,272,89012,6,0,P|188:304|204:372,1,100,4|0,1:0|0:0,1:0:0:0:
460,316,89690,6,2,P|432:252|448:192,1,120,8|0,1:0|0:0,1:0:0:0:
441,204,90029,2,2,P|436:256|380:304,1,120,0|0,1:0|0:0,1:0:0:0:
308,288,90368,2,2,B|232:276|232:276|156:300|156:300|72:284,1,240,2|0,1:0|0:0,1:0:0:0:
48,112,91046,6,0,L|92:104,1,40,8|0,1:0|0:0,0:0:0:0:
184,88,91216,2,0,L|228:80,1,40,2|0,1:2|0:0,0:0:0:0:
148,168,91385,6,0,L|192:176,1,40,2|0,1:3|0:0,0:0:0:0:
352,204,91555,2,0,L|396:212,1,40,2|0,1:3|0:0,0:0:0:0:
256,248,91724,6,0,P|252:308|256:364,1,100,0|0,1:0|0:0,1:0:0:0:
4,256,92402,6,2,P|4:304|56:352,1,120,8|0,1:0|0:0,1:0:0:0:
53,351,92741,2,2,P|100:308|100:252,1,120,0|0,1:0|0:0,1:0:0:0:
52,176,93080,6,2,B|144:160|144:160|196:176|196:176|296:160,1,240,2|0,1:0|1:0,1:0:0:0:
472,136,93758,6,0,L|476:196,1,40,8|0,1:0|0:0,0:0:0:0:
484,276,93927,2,0,L|488:336,1,40,2|0,1:2|0:0,0:0:0:0:
396,40,94097,6,0,L|392:100,1,40,2|0,1:3|0:0,0:0:0:0:
380,216,94266,2,0,L|376:276,1,40,2|0,1:3|0:0,0:0:0:0:
368,372,94436,6,0,P|332:375|304:368,1,60,4|0,1:2|0:0,0:0:0:0:
244,332,94775,2,0,P|214:326|184:329,1,60,0|0,1:0|0:0,0:0:0:0:
112,356,95114,2,2,P|82:361|52:358,1,60,8|0,1:0|1:0,1:0:0:0:
0,300,95453,5,2,1:0:0:0:
0,140,95622,1,0,1:0:0:0:
0,220,95792,6,2,P|52:228|124:212,1,120,0|0,1:0|0:0,1:0:0:0:
168,160,96131,2,2,P|220:152|292:168,1,120,0|0,1:0|0:0,1:0:0:0:
332,224,96470,2,0,P|384:232|456:216,1,120,8|0,1:0|1:0,1:0:0:0:
512,172,96809,5,2,1:3:0:0:
512,24,96978,1,2,1:3:0:0:
472,96,97148,6,2,P|416:128|388:40,1,180.000006866455,4|0,1:2|0:0,1:0:0:0:
392,120,97487,6,2,L|280:128,1,90.0000034332277,0|0,1:0|0:0,1:0:0:0:
220,132,97826,5,0,1:0:0:0:
204,132,97910,1,0,3:0:0:0:
188,136,97995,1,0,3:0:0:0:
172,136,98080,1,0,3:0:0:0:
160,140,98165,1,8,1:0:0:0:
72,152,98334,1,0,1:0:0:0:
56,152,98419,1,0,1:0:0:0:
40,156,98504,5,4,1:2:0:0:
48,272,98673,2,0,L|100:260,1,47.9999985351563,2|0,1:0|0:0,0:0:0:0:
196,236,98843,2,2,L|180:284,1,47.9999985351563,0|0,1:0|0:0,1:0:0:0:
152,368,99012,2,0,L|204:356,1,47.9999985351563,2|0,1:0|0:0,0:0:0:0:
304,336,99182,6,2,B|364:324|428:346|428:346|456:355|472:344|456:332|440:336,1,180.000006866455,0|0,1:0|0:0,1:0:0:0:
428,336,99521,6,0,P|388:336|336:352,1,90.0000034332277,2|0,1:0|0:0,0:0:0:0:
328,360,99860,5,4,1:2:0:0:
348,252,109860,5,0,1:0:0:0:
348,252,109944,1,0,1:0:0:0:
348,252,110029,1,0,1:0:0:0:
168,200,110199,5,0,1:0:0:0:
208,64,110368,1,8,1:0:0:0:
256,196,110538,1,0,1:0:0:0:
84,264,110707,5,4,1:2:0:0:
256,192,118843,12,0,121385,0:0:0:0:
296,272,121555,6,0,P|360:280|460:208,1,180.000006866455,4|0,1:0|0:0,0:0:0:0:
464,136,122233,1,2,0:0:0:0:
296,272,122571,1,0,0:0:0:0:
120,180,122910,1,0,3:0:0:0:
259,164,123249,6,0,L|200:172,1,60.0000022888184,2|0,0:0|0:0,0:0:0:0:
48,64,123588,2,0,L|80:116,1,60.0000022888184,0|2,3:0|0:0,0:0:0:0:
39,291,123927,2,0,L|76:244,1,60.0000022888184,0|2,3:0|0:0,0:0:0:0:
120,180,124266,5,0,3:0:0:0:
144,44,124605,1,2,0:0:0:0:
460,208,124944,5,0,3:0:0:0:
436,344,125283,1,2,0:0:0:0:
292,192,125622,5,4,0:0:0:0:
292,192,125961,1,2,0:0:0:0:
136,292,126300,5,0,3:0:0:0:
216,320,126470,1,2,0:0:0:0:
148,368,126639,1,0,3:0:0:0:
68,344,126809,1,2,0:0:0:0:
32,224,126978,6,0,P|108:204|204:248,1,180.000006866455,0|0,3:0|0:0,0:0:0:0:
216,320,127656,1,0,3:0:0:0:
32,224,127995,1,2,0:0:0:0:
220,124,128334,1,0,3:0:0:0:
340,76,128673,6,0,P|318:101|284:116,1,60.0000022888184,0|0,3:0|0:0,0:0:0:0:
204,252,129012,2,0,P|192:220|197:183,1,60.0000022888184,0|2,3:0|0:0,0:0:0:0:
112,48,129351,2,0,P|144:53|174:76,1,60.0000022888184,0|2,3:0|0:0,0:0:0:0:
220,124,129690,5,0,3:0:0:0:
408,112,130029,1,2,0:0:0:0:
188,344,130368,5,0,3:0:0:0:
0,356,130707,1,0,3:0:0:0:
204,236,131046,5,0,3:0:0:0:
204,236,131385,1,0,3:0:0:0:
364,260,131555,5,0,1:0:0:0:
364,260,131639,1,0,1:0:0:0:
364,260,131724,1,0,1:0:0:0:
292,300,131894,1,0,1:0:0:0:
368,336,132063,1,8,1:0:0:0:
440,292,132233,1,0,1:0:0:0:
364,260,132402,6,0,P|340:172|356:76,1,180.000006866455,4|0,1:2|3:0,0:0:0:0:
432,40,133080,2,0,L|496:44,1,60.0000022888184,8|0,0:0|3:0,0:0:0:0:
488,132,133419,2,0,L|424:128,1,60.0000022888184,8|0,0:0|3:0,0:0:0:0:
264,80,133758,5,0,3:0:0:0:
264,80,134097,1,0,3:0:0:0:
36,132,134436,5,8,0:0:0:0:
116,152,134605,1,0,3:0:0:0:
196,172,134775,1,8,0:0:0:0:
116,192,134944,1,0,3:0:0:0:
36,216,135114,5,0,3:0:0:0:
32,348,135453,1,0,3:0:0:0:
432,244,135792,5,8,0:0:0:0:
436,112,136131,1,0,3:0:0:0:
232,228,136470,5,0,3:0:0:0:
232,228,136639,1,4,0:0:0:0:
232,228,136809,1,2,0:0:0:0:
144,68,137148,5,8,0:0:0:0:
224,44,137317,1,0,3:0:0:0:
224,44,137402,1,0,3:0:0:0:
224,44,137487,1,0,3:0:0:0:
304,68,137656,1,0,3:0:0:0:
480,60,137826,6,0,P|396:80|304:68,1,180.000006866455,2|0,0:0|3:0,0:0:0:0:
224,44,138504,2,0,L|156:40,1,60.0000022888184,8|2,0:0|0:0,0:0:0:0:
8,80,138843,2,0,L|76:76,1,60.0000022888184,0|2,3:0|0:0,0:0:0:0:
136,184,139097,1,2,0:0:0:0:
136,184,139182,5,0,3:0:0:0:
100,260,139351,1,0,3:0:0:0:
52,192,139521,1,0,3:0:0:0:
136,184,139690,1,2,0:0:0:0:
100,260,139860,1,8,0:0:0:0:
384,276,140199,1,0,3:0:0:0:
384,276,140368,1,2,0:0:0:0:
388,280,140453,1,2,0:0:0:0:
392,284,140538,5,0,3:0:0:0:
444,160,140877,1,0,3:0:0:0:
180,52,141046,1,2,0:0:0:0:
184,56,141131,1,2,0:0:0:0:
188,60,141216,5,8,0:0:0:0:
136,184,141555,1,0,3:0:0:0:
288,168,141724,1,2,0:0:0:0:
292,172,141809,1,2,0:0:0:0:
296,176,141894,5,0,3:0:0:0:
312,180,141978,1,0,0:0:0:0:
336,236,142063,5,2,0:0:0:0:
320,240,142147,1,2,0:0:0:0:
280,296,142233,5,0,3:0:0:0:
296,300,142317,1,0,0:0:0:0:
320,356,142402,5,2,0:0:0:0:
304,360,142486,1,2,0:0:0:0:
268,376,142571,6,0,L|260:332,1,30.0000011444092,8|0,0:0|0:0,0:0:0:0:
348,312,142741,2,0,L|356:268,1,30.0000011444092,8|0,0:0|0:0,0:0:0:0:
232,240,142910,2,0,L|224:196,1,30.0000011444092,8|0,0:0|0:0,0:0:0:0:
376,148,143080,2,0,L|384:104,1,30.0000011444092,8|0,0:0|0:0,0:0:0:0:
200,44,143249,5,4,1:0:0:0:
200,44,143588,1,0,1:0:0:0:
200,44,143927,1,0,1:0:0:0:
200,44,144266,2,0,L|128:48,1,60.0000022888184,0|2,1:0|0:0,0:0:0:0:
132,60,144521,1,2,0:0:0:0:
128,76,144605,2,0,P|128:116|144:152,1,60.0000022888184,0|0,1:0|0:0,0:0:0:0:
80,300,144944,2,0,P|87:271|86:241,1,60.0000022888184,0|2,1:0|0:0,0:0:0:0:
8,344,145283,5,0,1:0:0:0:
156,336,145453,1,2,0:0:0:0:
8,344,145622,1,0,1:0:0:0:
80,300,145792,1,0,1:0:0:0:
156,336,145961,5,0,1:0:0:0:
156,336,146300,1,0,1:0:0:0:
156,336,146639,1,0,1:0:0:0:
156,336,146978,2,0,L|232:344,1,60.0000022888184,0|2,1:0|0:0,0:0:0:0:
328,272,147317,2,0,L|404:264,1,60.0000022888184,0|2,1:0|0:0,0:0:0:0:
476,372,147656,1,0,1:0:0:0:
476,372,147995,5,0,1:0:0:0:
328,272,148165,1,2,0:0:0:0:
156,336,148334,1,0,1:0:0:0:
16,244,148504,1,0,1:0:0:0:
8,220,148588,1,0,1:0:0:0:
0,196,148673,5,0,1:0:0:0:
76,156,148843,1,0,3:0:0:0:
160,156,149012,1,0,3:0:0:0:
232,200,149182,1,0,1:0:0:0:
316,208,149351,1,0,1:0:0:0:
396,184,149521,1,0,3:0:0:0:
456,128,149690,1,0,3:0:0:0:
472,44,149860,1,0,3:0:0:0:
472,44,149944,1,0,3:0:0:0:
472,44,150029,5,0,1:0:0:0:
404,92,150199,1,0,3:0:0:0:
372,168,150368,1,0,3:0:0:0:
368,252,150538,1,0,1:0:0:0:
392,332,150707,1,0,1:0:0:0:
340,268,150877,1,0,3:0:0:0:
256,256,151046,1,0,3:0:0:0:
176,280,151216,1,0,1:0:0:0:
176,280,151300,1,0,1:0:0:0:
176,280,151385,5,0,1:0:0:0:
136,292,151470,1,0,3:0:0:0:
92,292,151555,1,0,3:0:0:0:
52,280,151639,1,0,3:0:0:0:
24,248,151724,5,0,1:0:0:0:
20,208,151809,1,0,3:0:0:0:
32,172,151894,1,0,3:0:0:0:
60,152,151978,1,0,3:0:0:0:
92,152,152063,5,0,1:0:0:0:
114,167,152148,5,0,3:0:0:0:
120,192,152233,5,0,3:0:0:0:
110,213,152317,5,0,3:0:0:0:
91,223,152402,5,0,1:0:0:0:
73,225,152487,5,0,3:0:0:0:
61,216,152571,5,0,3:0:0:0:
58,204,152656,5,0,3:0:0:0:
65,195,152741,6,0,P|94:187|205:217,1,143.999995605469,6|0,1:0|0:0,1:0:0:0:
328,312,153080,6,0,L|377:306,1,40,8|0,0:0|3:0,0:0:0:0:
464,299,153249,1,0,3:0:0:0:
464,299,153334,2,0,L|499:296,2,20,0|0|0,3:0|3:0|1:0,0:0:0:0:
420,198,153588,6,0,P|413:149|420:125,1,60.0000022888184,0|0,3:0|3:0,3:0:0:0:
464,20,153758,5,2,3:0:0:0:
244,92,154097,6,0,P|208:96|152:76,1,90.0000034332277,4|0,1:0|0:0,1:0:0:0:
92,36,154436,6,0,P|152:88|128:164,1,155.999992858887,8|0,1:0|0:0,1:0:0:0:
72,208,154775,5,0,1:0:0:0:
268,312,154944,2,0,L|292:200,1,103.999995239258,0|8,1:0|1:0,1:0:0:0:
56,312,155283,1,0,1:0:0:0:
56,312,155368,1,0,1:0:0:0:
56,312,155453,6,0,P|93:324|124:320,1,51.999997619629,0|0,1:0|0:0,1:0:0:0:
268,312,155622,6,0,L|256:356,1,40,2|0,1:2|0:0,1:0:0:0:
503,211,155792,38,0,P|465:223|435:219,1,51.999997619629,8|0,1:0|0:0,1:0:0:0:
291,211,155961,6,0,L|303:255,1,40,2|0,1:3|0:0,1:0:0:0:
76,104,156131,6,0,P|136:88|168:96,1,80,0|0,1:0|1:0,0:0:0:0:
228,104,156385,1,0,1:0:0:0:
228,104,156470,1,8,1:0:0:0:
76,104,156639,1,2,1:3:0:0:
228,104,156809,6,0,L|328:88,1,90.0000034332277,4|0,1:0|0:0,1:0:0:0:
390,112,157148,6,0,B|435:96|454:60|454:60|427:40|375:36,1,167.999994873047,8|0,1:0|0:0,1:0:0:0:
316,89,157487,5,0,1:0:0:0:
268,284,157656,1,0,1:0:0:0:
460,220,157826,5,8,1:0:0:0:
428,212,157910,1,2,3:2:0:0:
352,216,157995,5,0,1:0:0:0:
320,224,158079,1,2,3:2:0:0:
268,284,158165,6,0,P|264:324|272:352,1,55.9999982910157,0|0,1:0|0:0,1:0:0:0:
136,308,158334,6,0,L|96:312,1,40,2|0,1:2|0:0,1:0:0:0:
40,144,158504,38,0,P|44:184|36:212,1,55.9999982910157,8|0,1:0|0:0,1:0:0:0:
172,168,158673,6,0,L|232:174,1,55.9999982910157,2|0,1:3|1:0,1:0:0:0:
316,89,158843,5,4,1:2:0:0:
448,48,159012,2,2,B|444:80|444:80|456:88|432:88|440:96|440:96|440:128,1,68.0000012969971,8|0,1:0|0:0,1:0:0:0:
278,40,159182,2,2,B|297:65|297:65|311:62|294:79|306:79|306:79|328:102,1,68.0000012969971,2|0,1:3|0:0,1:0:0:0:
128,68,159351,2,0,B|159:72|159:72|168:60|167:84|176:76|176:76|207:76,1,68.0000012969971,2|0,1:0|0:0,1:0:0:0:
40,144,159521,6,0,P|24:192|36:232,1,90.0000034332277,4|0,1:0|0:0,1:0:0:0:
112,240,159860,6,0,B|32:228|32:228|48:280|20:336,1,180.000006866455,8|0,1:0|0:0,1:0:0:0:
25,324,160199,5,0,1:0:0:0:
240,344,160368,2,0,L|112:348,1,95.9999970703126,0|8,1:0|1:0,0:0:0:0:
360,312,160707,1,0,1:0:0:0:
360,312,160792,1,0,1:0:0:0:
360,312,160877,6,0,P|400:316|432:328,1,60.0000022888184,0|0,1:0|0:0,1:0:0:0:
272,236,161046,6,0,L|256:196,1,40,2|0,1:2|0:0,1:0:0:0:
140,164,161216,38,0,P|100:168|68:180,1,60.0000022888184,8|0,1:0|0:0,1:0:0:0:
228,88,161385,6,0,L|244:48,1,40,2|0,1:3|0:0,1:0:0:0:
392,48,161555,5,0,1:0:0:0:
468,208,161724,2,0,L|471:164,1,40,0|0,1:0|1:0,1:0:0:0:
392,164,161894,2,0,L|480:168,1,80,8|2,1:0|1:0,0:0:0:0:
360,312,162233,6,2,P|296:328|264:316,1,90.0000034332277,4|0,1:0|0:0,1:0:0:0:
188,332,162571,2,2,P|252:316|284:328,1,90.0000034332277,8|0,1:0|0:0,1:0:0:0:
360,312,162910,6,0,P|292:316|244:256,1,103.999995239258,0|10,1:0|1:0,1:0:0:0:
208,212,163249,5,0,1:0:0:0:
172,220,163334,1,0,1:0:0:0:
136,228,163419,1,0,1:0:0:0:
100,236,163504,1,0,1:0:0:0:
76,264,163588,5,4,1:2:0:0:
16,120,163758,1,10,1:0:0:0:
168,144,163927,6,2,B|196:148|216:136|216:136|208:128|184:132,1,80,0|0,0:0|0:0,1:0:0:0:
16,120,164097,1,2,1:0:0:0:
76,264,164266,6,2,B|92:332|128:356|184:360|216:348|224:312|192:296|180:324,1,204.000003890991,8|0,1:0|0:0,1:0:0:0:
187,315,164605,6,0,P|230:333|290:325,1,90.0000034332277,2|0,1:0|0:0,1:0:0:0:
344,308,164944,6,0,P|384:304|428:324,1,90.0000034332277,4|0,1:0|0:0,1:0:0:0:
496,360,165283,6,0,P|440:328|460:244,1,155.999992858887,8|0,1:0|0:0,1:0:0:0:
512,200,165622,5,0,1:0:0:0:
408,144,165792,2,0,L|424:20,1,103.999995239258,0|8,1:0|1:0,0:0:0:0:
296,176,166131,1,0,1:0:0:0:
296,176,166216,1,0,1:0:0:0:
296,176,166300,6,0,P|256:168|236:172,1,51.999997619629,0|0,1:0|0:0,1:0:0:0:
128,112,166470,6,0,L|132:156,1,40,2|0,1:2|0:0,1:0:0:0:
8,288,166639,38,0,P|48:280|68:284,1,51.999997619629,8|0,1:0|0:0,1:0:0:0:
176,224,166809,6,0,L|172:268,1,40,2|0,1:3|0:0,1:0:0:0:
308,352,166978,6,0,P|360:360|412:340,1,80,0|0,1:0|1:0,0:0:0:0:
456,320,167233,1,0,1:0:0:0:
456,320,167317,1,8,1:0:0:0:
308,352,167487,1,2,1:3:0:0:
456,320,167656,6,0,L|444:224,1,90.0000034332277,4|0,1:0|0:0,1:0:0:0:
403,163,167995,6,0,B|445:142|483:162|483:162|484:112|432:90,1,167.999994873047,8|0,1:0|0:0,1:0:0:0:
364,64,168334,6,0,L|224:64,1,111.999996582031,0|0,1:0|1:0,0:0:0:0:
76,120,168673,5,8,1:0:0:0:
80,144,168758,1,2,3:2:0:0:
152,184,168843,5,0,3:0:0:0:
148,208,168928,1,2,3:2:0:0:
96,268,169012,6,0,P|92:300|100:328,1,55.9999982910157,0|0,1:0|0:0,1:0:0:0:
216,360,169182,6,0,L|268:356,1,40,2|0,1:2|0:0,1:0:0:0:
316,184,169351,38,0,P|312:152|320:124,1,55.9999982910157,8|0,1:0|0:0,1:0:0:0:
436,92,169521,6,0,L|488:96,1,40,2|0,1:3|0:0,1:0:0:0:
512,228,169690,5,0,1:0:0:0:
384,304,169860,2,2,B|404:320|408:344|408:344|416:312,1,71.9999978027344,8|0,1:0|0:0,1:0:0:0:
247,306,170029,2,2,B|249:331|235:351|235:351|263:334,1,71.9999978027344,0|0,1:0|0:0,1:0:0:0:
136,243,170199,2,0,B|120:263|96:267|96:267|128:275,1,71.9999978027344,2|0,1:0|0:0,1:0:0:0:
112,120,170368,6,0,P|152:92|204:88,1,90.0000034332277,4|0,1:0|0:0,1:0:0:0:
252,28,170707,6,0,B|216:36|192:86|192:86|236:116|280:104,1,180.000006866455,8|0,1:0|0:0,1:0:0:0:
368,72,171046,6,0,P|444:72|496:88,1,120.000004577637,0|0,1:0|1:0,0:0:0:0:
512,228,171385,1,8,1:0:0:0:
312,204,171555,1,0,1:0:0:0:
312,204,171639,1,0,1:0:0:0:
312,204,171724,6,0,P|308:164|316:136,1,60.0000022888184,0|0,1:0|0:0,0:0:0:0:
232,248,171894,6,0,L|236:300,1,40,2|0,1:2|0:0,0:0:0:0:
112,120,172063,38,0,P|108:160|116:188,1,60.0000022888184,8|0,1:0|0:0,0:0:0:0:
32,76,172233,6,0,L|36:24,1,40,2|0,1:3|0:0,0:0:0:0:
28,236,172402,6,0,P|32:280|56:316,1,80,0|0,1:0|1:0,0:0:0:0:
120,344,172656,2,0,L|172:340,1,40,0|8,1:0|1:0,0:0:0:0:
28,236,172910,1,2,1:0:0:0:
120,344,173080,6,2,L|228:336,1,90.0000034332277,4|0,1:0|0:0,1:0:0:0:
296,368,173419,2,2,L|385:374,1,90.0000034332277,0|0,3:0|0:0,1:0:0:0:
468,344,173758,1,2,3:1:0:0:
432,172,173927,2,2,L|424:212,1,30.0000011444092,2|2,3:2|3:2,3:1:0:0:
356,236,174097,5,0,3:1:0:0:
336,236,174182,1,2,3:2:0:0:
268,220,174266,5,2,3:1:0:0:
248,220,174351,1,2,3:2:0:0:
176,208,174436,6,2,B|96:208|96:208|140:260|140:260|180:260,1,180.000006866455,4|0,1:2|1:0,1:0:0:0:
244,300,174775,6,2,B|228:332|228:332|200:332,1,51.999997619629,0|0,1:0|0:0,1:0:0:0:
72,312,174944,2,0,B|56:279|56:279|28:280,1,51.999997619629,2|0,1:0|0:0,0:0:0:0:
76,84,175114,6,0,B|164:48|232:104|232:104|208:136|208:136|152:160|152:160|208:176|208:176|256:136|324:144|324:144|340:188|340:188|352:152|352:152|372:184,1,560,4|0,1:0|0:0,1:0:0:0:
432,216,175792,6,0,L|428:324|428:324,1,100,4|0,0:0|0:0,1:0:0:0:
284,300,176470,6,2,P|232:276|164:296,1,120,12|0,1:0|0:0,1:0:0:0:
240,204,176809,2,2,P|224:261|172:289,1,120,0|0,1:0|0:0,1:0:0:0:
60,264,177148,2,2,B|0:156|104:148|56:32,1,240,2|0,1:0|0:0,1:0:0:0:
156,76,177826,6,0,L|212:72,1,40,8|0,1:0|0:0,1:0:0:0:
336,64,177995,2,0,L|392:60,1,40,2|0,1:2|0:0,1:0:0:0:
460,124,178165,6,0,L|420:126,1,40,2|0,1:3|0:0,1:0:0:0:
280,136,178334,2,0,L|240:138,1,40,2|0,1:3|0:0,1:0:0:0:
168,204,178504,6,0,L|64:212,1,100,4|0,1:0|0:0,1:0:0:0:
233,345,179182,6,2,P|285:345|341:297,1,120,8|0,1:0|0:0,1:0:0:0:
248,236,179521,2,2,P|220:288|233:345,1,120,0|0,1:0|0:0,1:0:0:0:
336,304,179860,2,2,B|396:192|300:192|360:72,1,240,2|0,1:0|1:0,1:0:0:0:
424,128,180538,6,0,L|480:132,1,40,8|0,1:0|0:0,1:0:0:0:
220,112,180707,2,0,L|276:116,1,40,2|0,1:2|0:0,1:0:0:0:
144,172,180877,6,0,L|104:169,1,40,2|0,1:3|0:0,1:0:0:0:
348,188,181046,2,0,L|308:185,1,40,2|0,1:3|0:0,1:0:0:0:
428,244,181216,6,0,P|444:280|436:344,1,100,4|0,1:0|0:0,1:0:0:0:
256,292,181894,6,2,P|216:292|152:340,1,120,8|0,1:0|0:0,1:0:0:0:
50,291,182233,2,2,P|109:298|153:337,1,120,0|0,1:0|0:0,1:0:0:0:
156,240,182571,2,2,B|200:124|88:136|152:8,1,240,2|0,1:0|0:0,1:0:0:0:
236,80,183249,6,0,L|280:96,1,40,8|0,1:0|0:0,1:0:0:0:
408,136,183419,2,0,L|452:152,1,40,2|0,1:2|0:0,1:0:0:0:
492,56,183588,6,0,L|448:72,1,40,2|0,1:3|0:0,1:0:0:0:
236,160,183758,2,0,L|192:176,1,40,2|0,1:3|0:0,1:0:0:0:
20,240,183927,6,2,P|8:188|20:136,1,103.999995239258,4|0,1:0|0:0,1:0:0:0:
156,240,184266,1,10,1:0:0:0:
88,352,184436,1,0,1:0:0:0:
88,352,184521,1,0,1:0:0:0:
88,352,184605,6,2,P|84:324|92:296,1,51.999997619629,0|0,1:0|0:0,1:0:0:0:
156,240,184775,1,10,1:0:0:0:
256,304,184944,1,0,1:0:0:0:
380,312,185114,1,0,1:0:0:0:
380,312,185199,1,0,1:0:0:0:
380,312,185283,6,2,B|415:310|440:304|440:304|488:288|476:276|448:272,1,120.000004577637,4|0,1:2|0:0,1:0:0:0:
440,264,185538,2,0,P|424:248|420:156,1,120.000004577637,2|0,1:0|0:0,0:0:0:0:
432,144,185792,1,2,1:0:0:0:
320,40,185961,6,2,P|212:32|92:96,1,240,4|0,1:0|0:0,1:0:0:0:
56,160,186300,6,0,P|48:208|64:280,1,120,2|0,1:0|0:0,1:0:0:0:
108,340,186639,6,0,P|152:364|208:364,1,100,4|0,1:0|0:0,0:0:0:0:
340,296,187317,6,2,P|392:312|420:368,1,120,8|0,1:0|0:0,1:0:0:0:
419,367,187656,2,2,P|408:308|448:260,1,120,2|0,1:0|0:0,0:0:0:0:
472,160,187995,2,2,B|384:156|384:156|332:188|332:188|240:184,1,240,2|0,1:0|0:0,1:0:0:0:
168,152,188673,6,0,L|160:204,1,40,8|0,1:0|0:0,1:0:0:0:
148,268,188843,2,0,L|140:320,1,40,2|0,1:2|0:0,1:0:0:0:
32,64,189012,6,0,L|40:116,1,40,2|0,1:3|0:0,1:0:0:0:
52,212,189182,2,0,L|60:264,1,40,2|0,1:3|0:0,1:0:0:0:
72,376,189351,6,0,P|124:360|184:372,1,100,4|0,1:0|0:0,1:0:0:0:
432,280,190029,6,2,P|412:332|352:360,1,120,8|0,1:0|0:0,1:0:0:0:
356,359,190368,2,2,P|324:316|336:252,1,120,0|0,1:0|0:0,1:0:0:0:
236,264,190707,6,2,B|232:172|232:172|268:132|268:132|264:36,1,240,2|0,1:0|1:0,1:0:0:0:
168,60,191385,6,0,L|124:56,1,40,8|0,1:0|0:0,1:0:0:0:
352,84,191555,2,0,L|391:87,1,40,2|0,1:2|0:0,1:0:0:0:
464,164,191724,6,0,L|424:167,1,40,2|0,1:3|0:0,1:0:0:0:
104,200,191894,2,0,L|143:196,1,40,2|0,1:3|0:0,1:0:0:0:
20,312,192063,6,0,L|92:320,1,60,4|0,1:2|0:0,0:0:0:0:
152,352,192402,2,0,L|220:352,1,60,0|0,1:0|0:0,0:0:0:0:
284,320,192741,2,2,L|356:312,1,60,8|0,1:0|0:0,1:0:0:0:
408,264,193080,1,2,1:0:0:0:
412,96,193249,1,0,1:0:0:0:
480,176,193419,6,2,L|356:188,1,120,0|0,1:0|0:0,1:0:0:0:
292,228,193758,2,0,L|172:216,1,120,2|0,1:0|0:0,0:0:0:0:
120,164,194097,2,0,L|0:132,1,120,8|0,1:0|0:0,0:0:0:0:
32,220,194436,5,2,1:3:0:0:
16,40,194605,1,2,1:3:0:0:
192,28,194775,6,2,P|240:32|240:132,1,155.999992858887,4|0,1:2|0:0,1:0:0:0:
272,44,195114,6,0,L|360:48,1,80,2|0,1:0|0:0,0:0:0:0:
456,144,195453,1,0,1:0:0:0:
452,172,195538,1,0,3:0:0:0:
456,200,195622,1,0,1:0:0:0:
452,228,195707,1,0,3:0:0:0:
460,256,195792,1,2,1:0:0:0:
352,336,195961,1,0,1:0:0:0:
344,308,196046,1,0,3:0:0:0:
348,280,196131,5,0,1:0:0:0:
220,208,196300,2,2,L|168:176,1,40,0|0,1:0|0:0,1:0:0:0:
56,120,196470,2,2,L|54:181,1,40,0|0,1:0|0:0,1:0:0:0:
52,304,196639,2,0,L|105:274,1,40,2|0,1:0|0:0,0:0:0:0:
220,208,196809,6,2,B|252:144|256:72|240:72|240:72|224:72|236:104,1,180.000006866455,0|0,1:0|0:0,1:0:0:0:
244,120,197148,6,0,P|272:152|328:164,1,90.0000034332277,2|0,1:0|0:0,0:0:0:0:
392,160,197487,5,4,1:0:0:0:
