osu file format v14

[General]
AudioFilename: audio.mp3
AudioLeadIn: 0
PreviewTime: 78082
Countdown: 0
SampleSet: Normal
StackLeniency: 0.4
Mode: 0
LetterboxInBreaks: 0
WidescreenStoryboard: 1

[Editor]
DistanceSpacing: 4.8
BeatDivisor: 4
GridSize: 4
TimelineZoom: 2.899999

[Metadata]
Title:KAEDE
TitleUnicode:KAEDE
Artist:Ocelot
ArtistUnicode:Ocelot
Creator:Hollow Wings
Version:Koiyuki's EX
Source:
Tags:japan diverse system dubstep Hatsune Miku DJ Ginsuke Ocelot SiSTEMA Function Phantom Thinktech fanzhen0019 Kalindraz Kawashiro Moecho Koiyuki Minakami Yuki mtbbsben Skystar Amamiya Yuko Irreversible
BeatmapID:1439335
BeatmapSetID:660630

[Difficulty]
HPDrainRate:6
CircleSize:7
OverallDifficulty:7
ApproachRate:9
SliderMultiplier:0.799999904632568
SliderTickRate:1

[Events]
//Background and Video events
0,0,"KAEDE.jpg",0,0
//Break Periods
2,100060,109260
2,110907,118243
//Storyboard Layer 0 (Background)
//Storyboard Layer 1 (Fail)
//Storyboard Layer 2 (Pass)
//Storyboard Layer 3 (Foreground)
//Storyboard Sound Samples

[TimingPoints]
2233,338.983050847458,4,2,99,80,1,0
23927,-200,4,2,99,80,0,0
45622,-100,4,2,99,70,0,0
51046,-100,4,2,99,80,0,0
55114,-66.6666666666667,4,2,99,80,0,0
55453,-100,4,2,99,80,0,0
56131,-66.6666666666667,4,2,99,80,0,0
56470,-133.333333333333,4,1,99,100,0,1
56809,-66.6666666666667,4,1,99,100,0,1
57148,-100,4,1,99,100,0,1
59182,-133.333333333333,4,1,99,100,0,1
59521,-66.6666666666667,4,1,99,100,0,1
59860,-100,4,1,99,100,0,1
61894,-133.333333333333,4,1,99,100,0,1
62233,-66.6666666666667,4,1,99,100,0,1
62571,-100,4,1,99,100,0,1
64266,-133.333333333333,4,1,99,100,0,1
64605,-66.6666666666667,4,1,99,100,0,1
65283,-100,4,1,99,100,0,1
65622,-100,4,1,99,100,0,1
66639,-200,4,1,99,100,0,0
67317,-133.333333333333,4,1,99,100,0,1
67656,-66.6666666666667,4,1,99,100,0,1
67995,-100,4,1,99,100,0,1
70029,-133.333333333333,4,1,99,100,0,1
70368,-66.6666666666667,4,1,99,100,0,1
70707,-100,4,1,99,100,0,1
72741,-133.333333333333,4,1,99,100,0,1
73080,-66.6666666666667,4,1,99,100,0,1
73419,-100,4,1,99,100,0,1
75114,-133.333333333333,4,1,99,100,0,1
75453,-66.6666666666667,4,1,99,100,0,1
76131,-100,4,1,99,100,0,1
77487,-200,4,1,99,100,0,0
78165,-100,4,1,99,80,0,1
86300,-66.6666666666667,4,1,99,80,0,1
86639,-100,4,1,99,80,0,1
88334,-200,4,1,99,80,0,0
89012,-100,4,1,99,80,0,1
97148,-66.6666666666667,4,1,99,80,0,1
97487,-100,4,1,99,80,0,1
99182,-200,4,1,99,80,0,1
99860,-100,4,2,99,60,0,0
121555,-200,4,2,99,80,0,0
143249,-100,4,2,99,70,0,0
148673,-100,4,2,99,80,0,0
152741,-66.6666666666667,4,2,99,80,0,0
153080,-100,4,2,99,80,0,0
153758,-66.6666666666667,4,2,99,80,0,0
154097,-133.333333333333,4,1,99,100,0,1
154436,-66.6666666666667,4,1,99,100,0,1
154775,-100,4,1,99,100,0,1
156809,-133.333333333333,4,1,99,100,0,1
157148,-66.6666666666667,4,1,99,100,0,1
157487,-100,4,1,99,100,0,1
159521,-133.333333333333,4,1,99,100,0,1
159860,-66.6666666666667,4,1,99,100,0,1
160199,-100,4,1,99,100,0,1
162233,-66.6666666666667,4,1,99,100,0,1
162910,-100,4,1,99,100,0,1
164266,-200,4,1,99,100,0,0
164944,-133.333333333333,4,1,99,100,0,1
165283,-66.6666666666667,4,1,99,100,0,1
165622,-100,4,1,99,100,0,1
167656,-133.333333333333,4,1,99,100,0,1
167995,-66.6666666666667,4,1,99,100,0,1
168334,-100,4,1,99,100,0,1
170368,-133.333333333333,4,1,99,100,0,1
170707,-66.6666666666667,4,1,99,100,0,1
171046,-100,4,1,99,100,0,1
172741,-133.333333333333,4,1,99,100,0,1
173080,-66.6666666666667,4,1,99,100,0,1
173758,-100,4,1,99,100,0,1
175114,-200,4,1,99,100,0,0
175792,-100,4,1,99,80,0,1
183927,-66.6666666666667,4,1,99,80,0,1
184266,-100,4,1,99,80,0,1
185961,-200,4,1,99,80,0,0
186639,-100,4,1,99,80,0,1
194775,-66.6666666666667,4,1,99,80,0,1
195114,-100,4,1,99,80,0,1
196809,-200,4,1,99,80,0,1
197487,-100,4,2,99,60,0,0

[Colours]
Combo1 : 147,255,147
Combo2 : 91,173,255
Combo3 : 255,128,128
Combo4 : 255,255,147
Combo5 : 255,157,111

[HitObjects]
256,192,21216,12,0,23588,0:0:0:0:
321,293,23927,6,0,P|360:291|393:269,1,79.9999904632568,6|0,0:0|0:0,0:0:0:0:
408,199,24944,1,0,0:0:0:0:
321,293,25283,5,2,0:0:0:0:
249,282,25622,1,2,0:0:0:0:
177,272,25961,1,2,3:0:0:0:
321,293,26300,1,0,0:0:0:0:
177,272,26639,6,0,L|132:277,1,39.9999952316284,2|0,0:0|0:0,0:0:0:0:
321,293,27317,2,0,L|360:288,1,39.9999952316284,0|0,0:0|0:0,0:0:0:0:
188,202,27995,6,0,L|102:211,1,79.9999904632568,2|2,0:0|0:3,0:0:0:0:
37,222,28843,1,0,0:0:0:0:
37,222,29012,1,0,0:0:0:0:
37,222,29182,1,0,0:0:0:0:
237,149,29351,6,0,P|253:112|252:73,1,79.9999904632568,2|0,0:0|0:0,0:0:0:0:
214,6,30368,1,0,0:0:0:0:
322,101,30707,5,2,0:0:0:0:
393,89,31046,1,2,0:0:0:0:
464,78,31385,1,2,0:3:0:0:
322,101,31724,1,0,0:0:0:0:
464,78,32063,6,0,L|468:38,1,39.9999952316284,2|0,0:0|0:0,0:0:0:0:
322,101,32741,2,0,L|326:61,1,39.9999952316284,0|0,0:0|0:0,0:0:0:0:
510,133,33419,6,0,L|500:217,1,79.9999904632568,2|2,0:0|0:3,0:0:0:0:
461,272,34267,1,0,0:0:0:0:
463,290,34436,1,0,0:0:0:0:
465,308,34605,1,0,0:0:0:0:
384,168,34775,6,0,L|392:88,1,79.9999904632568,6|0,0:0|0:0,0:0:0:0:
442,36,35792,1,0,0:0:0:0:
335,222,36131,5,2,0:0:0:0:
343,293,36470,1,2,0:0:0:0:
351,364,36809,5,2,0:3:0:0:
343,293,36978,1,0,0:0:0:0:
335,222,37148,1,0,0:0:0:0:
343,293,37317,1,0,0:0:0:0:
351,364,37487,6,0,P|372:358|391:354,1,39.9999952316284,2|0,0:0|0:0,0:0:0:0:
335,222,38165,2,0,P|356:223|376:222,1,39.9999952316284,0|0,0:0|0:0,0:0:0:0:
200,310,38843,6,0,L|120:319,1,79.9999904632568,2|2,0:0|0:3,0:0:0:0:
271,301,39690,1,0,0:0:0:0:
307,297,39860,1,0,0:0:0:0:
343,293,40029,1,0,0:0:0:0:
120,318,40199,6,0,P|81:312|50:287,1,79.9999904632568,2|0,0:0|0:0,0:0:0:0:
19,221,41216,1,0,0:0:0:0:
200,310,41555,5,2,0:0:0:0:
272,302,41894,1,2,0:0:0:0:
344,294,42233,1,2,0:3:0:0:
200,310,42571,1,0,0:0:0:0:
339,333,42910,6,0,L|344:294,1,39.9999952316284,2|0,0:0|0:0,0:0:0:0:
195,349,43588,2,0,L|200:310,1,39.9999952316284,0|0,0:0|0:0,0:0:0:0:
385,234,44266,6,0,B|397:203|397:203|390:143,1,79.9999904632568,2|2,0:0|0:3,0:0:0:0:
391,156,45283,1,0,0:0:0:0:
361,14,45622,6,0,L|450:26,6,79.9999904632568,2|0|0|0|0|0|0,0:0|0:0|0:0|0:0|0:0|0:0|0:0,0:0:0:0:
271,126,47995,1,2,0:0:0:0:
206,95,48164,1,2,0:0:0:0:
141,64,48334,6,0,L|52:76,6,79.9999904632568,2|0|0|0|0|0|0,0:0|0:0|0:0|0:0|0:0|0:0|0:0,0:0:0:0:
231,176,50707,1,2,0:0:0:0:
296,145,50876,1,2,0:0:0:0:
296,145,50961,1,2,0:0:0:0:
296,145,51046,6,0,L|335:150,6,39.9999952316284,2|0|0|0|0|0|0,0:0|0:0|0:0|0:0|0:0|0:0|0:0,0:0:0:0:
395,191,52233,1,2,0:0:0:0:
395,191,52317,1,2,0:0:0:0:
395,191,52402,6,0,L|410:228,6,39.9999952316284,2|0|0|0|0|0|0,0:0|0:0|0:0|0:0|0:0|0:0|0:0,0:0:0:0:
404,300,53588,1,2,0:0:0:0:
404,300,53673,1,2,0:0:0:0:
404,300,53758,6,0,L|389:318,15,19.9999976158142,2|0|8|2|2|0|8|2|2|0|8|2|2|0|8|2,0:0|0:0|0:0|0:0|0:0|0:0|0:0|0:0|0:0|0:0|0:0|0:0|0:0|0:0|0:0|0:0,0:0:0:0:
404,299,55114,6,0,P|364:280|319:285,1,89.9999927043911,2|0,0:0|0:0,0:0:0:0:
273,313,55453,2,0,L|279:336,2,19.9999976158142,0|0|0,0:0|0:0|0:0,0:0:0:0:
263,259,55707,2,0,L|265:249,2,9.9999988079071,0|0|0,0:0|0:0|0:0,0:0:0:0:
236,364,55961,1,0,0:0:0:0:
158,288,56131,6,0,B|171:255|171:255|162:185,1,89.9999927043911,0|0,0:0|0:0,0:0:0:0:
114,175,56470,6,0,P|92:176|71:184,1,44.9999963521956,6|0,0:0|0:0,0:0:0:0:
33,161,56809,6,0,P|71:183|114:175,1,89.9999927043911,2|0,0:0|0:0,0:0:0:0:
173,133,57148,5,8,0:0:0:0:
162,21,57317,2,0,L|166:61,1,39.9999952316284,0|2,0:0|0:0,0:0:0:0:
267,163,57656,1,0,0:0:0:0:
267,163,57741,1,0,0:0:0:0:
267,163,57826,5,0,0:0:0:0:
326,140,57995,1,0,0:0:0:0:
388,153,58165,1,0,0:0:0:0:
435,195,58334,1,0,0:0:0:0:
451,257,58504,5,8,0:0:0:0:
480,149,58673,1,0,0:0:0:0:
467,249,58843,1,0,0:0:0:0:
496,141,59012,1,2,0:0:0:0:
382,280,59182,6,0,P|386:302|396:321,1,44.9999963521956,2|0,0:0|0:0,0:0:0:0:
379,362,59521,6,0,P|397:321|382:279,1,89.9999927043911,2|0,0:0|0:0,0:0:0:0:
320,244,59860,6,0,L|270:250,1,39.9999952316284,8|0,0:0|0:0,0:0:0:0:
192,312,60199,1,0,0:0:0:0:
174,310,60283,1,0,0:0:0:0:
156,308,60368,1,0,0:0:0:0:
138,306,60453,1,0,0:0:0:0:
120,303,60538,6,0,P|121:322|127:346,1,39.9999952316284,2|0,0:0|0:0,0:0:0:0:
17,339,60877,2,0,P|15:358|10:381,1,39.9999952316284,2|2,0:0|0:0,0:0:0:0:
142,243,61216,5,8,0:0:0:0:
142,243,61385,1,0,0:0:0:0:
1,277,61555,1,8,0:0:0:0:
1,277,61724,1,0,0:0:0:0:
41,139,61894,6,0,L|85:144,1,44.9999963521956,4|0,0:0|0:0,0:0:0:0:
30,124,62233,6,0,L|129:136,1,89.9999927043911,2|0,0:0|0:0,0:0:0:0:
109,64,62571,5,8,0:0:0:0:
215,86,62741,2,0,L|176:91,1,39.9999952316284,0|2,0:0|0:0,0:0:0:0:
282,113,63080,1,0,0:0:0:0:
282,113,63165,1,0,0:0:0:0:
282,113,63249,5,2,0:0:0:0:
338,68,63419,1,0,0:0:0:0:
405,95,63588,1,0,0:0:0:0:
338,68,63758,1,0,0:0:0:0:
282,113,63927,5,8,0:0:0:0:
405,95,64097,1,2,0:0:0:0:
485,187,64266,2,0,P|492:165|492:142,1,44.9999963521956,2|0,0:0|0:0,0:0:0:0:
437,211,64605,6,0,B|425:245|425:245|435:299,1,89.9999927043911,2|0,0:0|0:0,0:0:0:0:
434,298,64944,6,0,B|446:264|446:264|436:210,1,89.9999927043911,8|0,0:0|0:0,0:0:0:0:
376,172,65283,6,0,L|336:180,1,39.9999952316284,2|8,0:0|0:0,0:0:0:0:
256,252,65622,1,0,0:0:0:0:
258,269,65706,1,0,0:0:0:0:
261,287,65792,1,0,0:0:0:0:
263,305,65876,1,0,0:0:0:0:
266,323,65960,5,12,0:0:0:0:
256,252,66131,1,0,0:0:0:0:
199,296,66300,1,8,0:3:0:0:
323,278,66470,1,0,0:0:0:0:
199,296,66639,6,0,L|203:326,1,29.9999964237213,2|0,0:0|0:0,0:0:0:0:
206,352,66978,2,0,L|210:382,1,29.9999964237213,2|0,0:0|0:0,0:0:0:0:
266,323,67317,6,0,L|259:278,1,44.9999963521956,6|0,0:0|0:0,0:0:0:0:
279,334,67656,6,0,L|265:232,1,89.9999927043911,2|0,0:0|0:0,0:0:0:0:
227,184,67995,5,8,0:0:0:0:
281,137,68165,2,0,P|299:145|318:149,1,39.9999952316284,0|0,0:0|0:0,0:0:0:0:
227,184,68504,1,0,0:0:0:0:
227,184,68588,1,0,0:0:0:0:
227,184,68673,5,2,0:0:0:0:
213,113,68843,1,0,0:0:0:0:
142,127,69012,1,0,0:0:0:0:
156,198,69182,1,0,0:0:0:0:
221,167,69351,5,8,0:0:0:0:
171,84,69521,1,0,0:0:0:0:
88,131,69690,1,2,0:0:0:0:
138,214,69860,1,0,0:0:0:0:
171,84,70029,6,0,P|168:65|152:42,1,44.9999963521956,2|0,0:0|0:0,0:0:0:0:
171,84,70368,6,0,P|135:57|90:54,1,89.9999927043911,2|0,0:0|0:0,0:0:0:0:
30,93,70707,6,0,L|25:132,1,39.9999952316284,8|0,0:0|0:0,0:0:0:0:
61,234,71046,1,0,0:0:0:0:
63,251,71131,1,0,0:0:0:0:
65,268,71216,1,0,0:0:0:0:
67,285,71300,1,0,0:0:0:0:
69,301,71385,6,0,P|51:294|31:292,1,39.9999952316284,2|0,0:0|0:0,0:0:0:0:
138,214,71724,2,0,P|156:206|176:204,1,39.9999952316284,0|2,0:0|0:0,0:0:0:0:
79,373,72063,5,8,0:0:0:0:
79,373,72233,1,0,0:0:0:0:
138,214,72402,1,8,0:0:0:0:
138,214,72571,1,0,0:0:0:0:
221,312,72741,6,0,L|214:364,1,44.9999963521956,2|0,0:0|0:0,0:0:0:0:
214,356,73080,6,0,B|249:352|249:352|266:358|266:358|306:354,1,89.9999927043911,2|0,0:0|0:0,0:0:0:0:
346,298,73419,5,8,0:0:0:0:
456,313,73588,2,0,L|417:308,1,39.9999952316284,0|0,0:0|0:0,0:0:0:0:
319,232,73927,1,0,0:0:0:0:
319,232,74012,1,0,0:0:0:0:
319,232,74097,5,2,0:0:0:0:
346,298,74266,1,0,0:0:0:0:
390,241,74436,2,0,L|384:201,1,39.9999952316284,0|0,0:0|0:0,0:0:0:0:
390,184,74690,1,0,0:0:0:0:
396,167,74775,6,0,L|390:127,1,39.9999952316284,8|0,0:0|0:0,0:0:0:0:
444,79,75114,2,0,P|464:90|487:91,1,44.9999963521956,2|0,0:0|0:0,0:0:0:0:
414,33,75453,6,0,P|370:30|332:51,1,89.9999927043911,2|0,0:0|0:0,0:0:0:0:
292,88,75792,6,0,P|247:91|209:70,1,89.9999927043911,0|0,0:0|0:0,0:0:0:0:
174,7,76131,6,0,L|129:13,1,39.9999952316284,0|0,0:0|0:0,0:0:0:0:
17,96,76470,1,0,0:0:0:0:
35,94,76555,1,0,0:0:0:0:
53,91,76640,1,0,0:0:0:0:
71,89,76724,1,0,0:0:0:0:
88,86,76809,5,6,0:0:0:0:
75,156,76978,1,0,0:0:0:0:
121,211,77148,1,8,0:3:0:0:
108,281,77317,1,0,0:0:0:0:
69,185,77487,6,0,L|75:156,1,29.9999964237213,2|0,0:0|0:0,0:0:0:0:
126,181,77826,2,0,L|121:211,1,29.9999964237213,0|0,0:0|0:0,0:0:0:0:
108,281,78165,6,0,B|179:255|171:328|244:298,1,139.999983310699,6|0,0:0|0:0,0:0:0:0:
299,260,78843,6,0,P|302:230|289:203,1,59.9999928474426,8|0,0:0|0:0,0:0:0:0:
230,243,79182,2,0,P|226:272|239:299,1,59.9999928474426,0|0,0:0|0:0,0:0:0:0:
290,351,79521,6,0,L|319:355,7,19.9999976158142,2|0|0|0|0|0|0|0,0:0|0:0|0:0|0:0|0:0|0:0|0:0|0:0,0:0:0:0:
333,356,80199,5,8,0:0:0:0:
400,331,80368,1,0,0:0:0:0:
412,261,80538,1,2,0:0:0:0:
456,377,80707,1,0,0:0:0:0:
412,261,80877,22,0,B|418:205|418:205|439:175|439:175|447:115,1,139.999983310699,2|0,0:0|0:0,0:0:0:0:
452,56,81555,6,0,P|427:72|397:74,1,59.9999928474426,8|0,0:0|0:0,0:0:0:0:
377,144,81894,2,0,P|350:131|333:106,1,59.9999928474426,0|0,0:0|0:0,0:0:0:0:
281,57,82233,6,0,L|286:33,5,19.9999976158142,2|0|0|0|0|0,0:0|0:0|0:0|0:0|0:0|0:0,0:0:0:0:
212,78,82741,2,0,L|217:54,1,19.9999976158142,2|0,0:0|0:0,0:0:0:0:
265,127,82910,5,8,0:0:0:0:
333,106,83080,1,0,0:0:0:0:
281,57,83249,1,8,0:0:0:0:
212,78,83419,1,0,0:0:0:0:
248,196,83588,22,0,L|243:215,7,19.9999976158142,6|0|0|0|0|0|0|0,0:0|0:0|0:0|0:0|0:0|0:0|0:0|0:0,0:0:0:0:
251,237,84266,6,0,P|221:240|195:254,1,59.9999928474426,8|0,0:0|0:0,0:0:0:0:
140,301,84605,2,0,P|110:297|84:283,1,59.9999928474426,0|0,0:0|0:0,0:0:0:0:
52,218,84944,6,0,L|26:224,7,19.9999976158142,2|0|0|0|0|0|0|0,0:0|0:0|0:0|0:0|0:0|0:0|0:0|0:0,0:0:0:0:
9,228,85622,5,8,0:0:0:0:
114,203,85792,1,0,0:0:0:0:
9,228,85961,1,2,0:0:0:0:
114,203,86131,1,0,0:0:0:0:
35,129,86300,22,0,L|122:108,1,89.9999927043911,6|0,0:0|0:0,0:0:0:0:
172,54,86639,6,0,P|191:54|211:59,1,39.9999952316284,8|0,0:0|0:0,0:0:0:0:
256,158,86978,1,2,0:0:0:0:
256,158,87148,2,0,L|250:210,1,39.9999952316284,8|0,0:0|0:0,0:0:0:0:
286,261,87487,1,2,0:0:0:0:
286,261,87571,1,2,0:0:0:0:
286,261,87656,5,6,0:0:0:0:
357,254,87826,1,8,0:0:0:0:
428,247,87995,1,8,0:3:0:0:
357,254,88165,1,2,0:0:0:0:
286,261,88334,6,0,L|281:297,1,29.9999964237213,8|0,0:0|0:0,0:0:0:0:
357,254,88673,2,0,L|360:224,1,29.9999964237213,2|0,0:0|0:0,0:0:0:0:
428,247,89012,22,0,B|422:302|422:302|438:344|438:344|445:294,1,139.999983310699,6|0,0:0|0:0,0:0:0:0:
500,291,89690,6,0,P|470:293|443:304,1,59.9999928474426,8|0,0:0|0:0,0:0:0:0:
391,355,90029,2,0,P|361:353|333:342,1,59.9999928474426,0|0,0:0|0:0,0:0:0:0:
282,290,90368,6,0,L|286:261,7,19.9999976158142,2|0|0|0|0|0|0|0,0:0|0:0|0:0|0:0|0:0|0:0|0:0|0:0,0:0:0:0:
288,247,91046,5,8,0:0:0:0:
217,254,91216,1,0,0:0:0:0:
75,268,91385,1,2,0:0:0:0:
146,261,91555,1,0,0:0:0:0:
178,158,91724,22,0,B|153:55|153:55|137:94,1,139.999983310699,2|0,0:0|0:0,0:0:0:0:
121,161,92402,6,0,B|151:169|151:169|178:158,1,59.9999928474426,8|0,0:0|0:0,0:0:0:0:
229,106,92741,2,0,B|256:95|256:95|285:102,1,59.9999928474426,0|0,0:0|0:0,0:0:0:0:
355,121,93080,6,0,L|358:151,5,19.9999976158142,2|0|0|0|0|0,0:0|0:0|0:0|0:0|0:0|0:0,0:0:0:0:
415,98,93588,2,0,L|418:128,1,19.9999976158142,2|0,0:0|0:0,0:0:0:0:
425,190,93758,5,8,0:0:0:0:
349,67,93927,1,0,0:0:0:0:
425,190,94097,1,8,0:0:0:0:
349,67,94266,1,0,0:0:0:0:
475,75,94436,22,0,L|478:105,7,19.9999976158142,6|0|0|0|2|0|0|0,0:0|0:0|0:0|0:0|0:0|0:0|0:0|0:0,0:0:0:0:
491,114,95114,6,0,L|487:156,1,39.9999952316284,10|0,0:0|0:0,0:0:0:0:
453,256,95453,1,2,0:0:0:0:
425,190,95622,1,2,0:0:0:0:
390,292,95792,6,0,L|392:321,7,19.9999976158142,2|0|0|0|2|0|0|0,0:0|0:0|0:0|0:0|0:0|0:0|0:0|0:0,0:0:0:0:
394,335,96470,5,10,0:0:0:0:
323,323,96639,1,0,0:0:0:0:
273,375,96809,1,8,0:3:0:0:
202,363,96978,1,2,0:0:0:0:
323,323,97148,22,0,L|316:233,1,89.9999927043911,6|0,0:0|0:0,0:0:0:0:
295,162,97487,6,0,P|301:143|308:125,1,39.9999952316284,0|0,0:0|0:0,0:0:0:0:
248,256,97826,1,0,0:0:0:0:
248,256,97910,1,0,0:0:0:0:
248,256,97995,2,0,P|234:241|222:226,1,39.9999952316284,0|0,0:0|0:0,0:0:0:0:
205,82,98334,1,0,0:0:0:0:
205,82,98419,1,0,0:0:0:0:
205,82,98504,5,6,0:0:0:0:
308,125,98673,1,0,0:0:0:0:
183,150,98843,1,8,0:3:0:0:
331,58,99012,1,0,0:0:0:0:
205,82,99182,6,0,L|172:78,1,29.9999964237213,2|0,0:0|0:0,0:0:0:0:
129,34,99521,2,0,L|99:37,1,29.9999964237213,0|0,0:0|0:0,0:0:0:0:
36,47,99860,5,6,0:1:0:0:
338,279,109860,53,2,0:0:0:0:
338,279,109944,1,2,0:0:0:0:
338,279,110029,1,2,0:0:0:0:
409,267,110199,1,0,0:0:0:0:
338,279,110368,1,2,0:0:0:0:
409,267,110538,1,0,0:0:0:0:
476,337,110707,5,6,0:1:0:0:
256,192,118843,12,0,121216,0:0:0:0:
201,267,121555,22,0,P|162:271|129:293,1,79.9999904632568,6|0,0:0|0:0,0:0:0:0:
105,361,122571,1,0,0:0:0:0:
201,267,122910,5,0,0:0:0:0:
195,196,123249,1,0,0:0:0:0:
188,124,123588,1,2,0:3:0:0:
201,267,123927,1,0,0:0:0:0:
188,124,124266,6,0,L|193:80,1,39.9999952316284,0|0,0:0|0:0,0:0:0:0:
202,268,124944,2,0,L|197:307,1,39.9999952316284,0|0,0:0|0:0,0:0:0:0:
128,128,125622,6,0,L|137:42,1,79.9999904632568,0|0,0:0|0:0,0:0:0:0:
192,2,126470,1,8,0:3:0:0:
192,2,126639,1,0,0:0:0:0:
192,2,126809,1,0,0:0:0:0:
303,170,126978,6,0,P|267:186|228:183,1,79.9999904632568,0|0,0:0|0:0,0:0:0:0:
188,124,127995,1,0,0:0:0:0:
365,198,128334,5,0,0:0:0:0:
436,189,128673,1,0,0:0:0:0:
507,181,129012,1,2,0:3:0:0:
365,198,129351,1,0,0:0:0:0:
507,181,129690,6,0,L|503:221,1,39.9999952316284,0|0,0:0|0:0,0:0:0:0:
365,198,130368,2,0,L|361:238,1,39.9999952316284,0|0,0:0|0:0,0:0:0:0:
480,38,131046,6,0,L|472:118,1,79.9999904632568,0|0,0:0|0:0,0:0:0:0:
507,181,131894,1,8,0:3:0:0:
505,198,132063,1,0,0:0:0:0:
503,216,132232,1,8,0:3:0:0:
335,310,132402,6,0,B|365:299|365:299|424:313,1,79.9999904632568,4|0,0:0|0:0,0:0:0:0:
444,374,133419,1,0,0:0:0:0:
280,273,133758,5,0,0:0:0:0:
287,201,134097,1,0,0:0:0:0:
295,129,134435,5,2,0:3:0:0:
287,201,134605,1,0,0:0:0:0:
280,273,134775,1,0,0:0:0:0:
287,201,134944,1,0,0:0:0:0:
295,129,135114,6,0,P|312:120|332:115,1,39.9999952316284,0|0,0:0|0:0,0:0:0:0:
280,273,135792,2,0,P|260:268|242:259,1,39.9999952316284,0|0,0:0|0:0,0:0:0:0:
190,209,136300,1,0,0:0:0:0:
173,279,136470,6,0,L|181:358,1,79.9999904632568,0|0,0:0|0:0,0:0:0:0:
242,259,137317,1,8,0:3:0:0:
190,209,137487,1,0,0:0:0:0:
173,279,137656,1,0,0:0:0:0:
276,119,137826,6,0,B|246:130|246:130|187:116,1,79.9999904632568,0|0,0:0|0:0,0:0:0:0:
339,86,138843,1,0,0:0:0:0:
128,136,139182,5,0,0:0:0:0:
57,120,139521,1,0,0:0:0:0:
106,67,139860,1,2,0:3:0:0:
79,189,140199,1,0,0:0:0:0:
106,67,140538,6,0,L|148:63,1,39.9999952316284,0|0,0:0|0:0,0:0:0:0:
79,189,141216,2,0,L|39:192,1,39.9999952316284,0|0,0:0|0:0,0:0:0:0:
207,100,141894,6,0,L|224:98,7,9.9999988079071,0|0|0|0|0|0|0|0,0:0|0:0|0:0|0:0|0:0|0:0|0:0|0:0,0:0:0:0:
274,56,142571,2,0,L|298:67,3,19.9999976158142,0|8|0|8,0:0|0:3|0:0|0:3,0:0:0:0:
333,123,143249,6,0,P|373:125|407:100,6,79.9999904632568,6|0|0|0|0|0|0,0:0|0:0|0:0|0:0|0:0|0:0|0:0,0:0:0:0:
270,253,145622,1,2,0:0:0:0:
204,221,145792,1,2,0:0:0:0:
139,190,145961,6,0,P|99:188|65:213,6,79.9999904632568,2|0|0|0|0|0|0,0:0|0:0|0:0|0:0|0:0|0:0|0:0,0:0:0:0:
202,320,148334,1,2,0:0:0:0:
268,288,148504,1,2,0:0:0:0:
268,288,148588,1,0,0:0:0:0:
267,287,148673,6,0,P|262:267|254:249,6,39.9999952316284,2|0|0|0|0|0|0,0:0|0:0|0:0|0:0|0:0|0:0|0:0,0:0:0:0:
334,316,149860,1,2,0:0:0:0:
334,316,149944,1,2,0:0:0:0:
334,316,150029,6,0,P|339:296|342:276,6,39.9999952316284,2|0|0|0|0|0|0,0:0|0:0|0:0|0:0|0:0|0:0|0:0,0:0:0:0:
377,373,151216,1,2,0:0:0:0:
377,373,151300,1,2,0:0:0:0:
377,373,151385,6,0,P|389:360|401:346,15,19.9999976158142,2|0|8|2|2|0|8|2|2|0|8|2|2|0|8|2,0:0|0:0|0:0|0:0|0:0|0:0|0:0|0:0|0:0|0:0|0:0|0:0|0:0|0:0|0:0|0:0,0:0:0:0:
377,373,152741,6,0,P|369:329|385:287,1,89.9999927043911,2|0,0:0|0:0,0:0:0:0:
424,250,153080,2,0,L|444:261,2,19.9999976158142,0|0|0,0:0|0:0|0:0,0:0:0:0:
374,226,153334,2,0,L|358:231,2,9.9999988079071,0|0|0,0:0|0:0|0:0,0:0:0:0:
497,191,153588,1,0,0:0:0:0:
407,103,153758,6,0,P|363:99|327:73,1,89.9999927043911,0|0,0:0|0:0,0:0:0:0:
258,50,154097,6,0,L|264:3,1,44.9999963521956,6|0,0:0|0:0,0:0:0:0:
250,17,154436,6,0,L|238:106,1,89.9999927043911,10|0,0:0|0:0,0:0:0:0:
299,144,154775,5,0,0:0:0:0:
313,254,154944,2,0,L|307:214,1,39.9999952316284,2|8,0:0|0:0,0:0:0:0:
238,106,155283,1,0,0:0:0:0:
238,106,155368,1,0,0:0:0:0:
238,106,155453,5,2,0:0:0:0:
180,149,155622,1,0,0:0:0:0:
108,140,155792,1,8,0:0:0:0:
65,82,155961,1,0,0:0:0:0:
73,11,156131,5,0,0:0:0:0:
108,140,156300,1,2,0:0:0:0:
108,140,156385,1,0,0:0:0:0:
108,140,156470,1,8,0:0:0:0:
238,106,156639,1,2,0:0:0:0:
65,81,156809,6,0,P|54:93|39:122,1,44.9999963521956,2|0,0:0|0:0,0:0:0:0:
17,133,157148,6,0,P|46:168|41:222,1,89.9999927043911,10|0,0:0|0:0,0:0:0:0:
0,267,157487,6,0,L|5:310,1,39.9999952316284,0|2,0:0|0:0,0:0:0:0:
133,372,157826,1,8,0:0:0:0:
130,354,157910,1,0,0:0:0:0:
128,336,157995,1,0,0:0:0:0:
126,318,158080,1,0,0:0:0:0:
124,300,158165,6,0,P|142:309|161:314,1,39.9999952316284,2|0,0:0|0:0,0:0:0:0:
285,347,158504,2,0,P|304:340|321:331,1,39.9999952316284,8|0,0:0|0:0,0:0:0:0:
431,266,158843,5,8,0:3:0:0:
431,266,159012,2,0,L|435:298,1,19.9999976158142,8|0,0:0|0:0,0:0:0:0:
350,214,159182,1,0,0:0:0:0:
350,214,159351,2,0,L|346:246,1,19.9999976158142,2|0,0:0|0:0,0:0:0:0:
490,224,159521,6,0,L|485:180,1,44.9999963521956,6|0,0:0|0:0,0:0:0:0:
496,94,159860,6,0,B|505:130|505:130|484:179,1,89.9999927043911,10|0,0:0|0:0,0:0:0:0:
445,43,160199,5,0,0:0:0:0:
445,42,160368,2,0,P|464:39|482:30,1,39.9999952316284,2|8,0:0|0:0,0:0:0:0:
360,142,160707,1,0,0:0:0:0:
360,142,160792,1,0,0:0:0:0:
360,142,160877,5,2,0:0:0:0:
265,127,161046,1,0,0:0:0:0:
373,130,161216,1,8,0:0:0:0:
252,139,161385,1,0,0:0:0:0:
333,189,161555,5,0,0:0:0:0:
280,72,161724,1,2,0:0:0:0:
280,72,161809,1,0,0:0:0:0:
280,72,161894,1,8,0:0:0:0:
206,177,162063,2,0,L|208:196,1,19.9999976158142,2|0,0:0|0:0,0:0:0:0:
189,167,162233,6,0,P|205:209|194:252,1,89.9999927043911,6|0,0:0|0:0,0:0:0:0:
114,279,162571,6,0,P|159:277|194:251,1,89.9999927043911,10|0,0:0|0:0,0:0:0:0:
206,177,162910,6,0,L|201:134,1,39.9999952316284,2|8,0:0|0:0,0:0:0:0:
69,34,163249,1,0,0:0:0:0:
71,57,163333,1,0,0:0:0:0:
74,81,163418,1,2,0:0:0:0:
76,105,163504,1,2,0:0:0:0:
79,129,163588,5,12,0:0:0:0:
201,137,163758,1,8,0:0:0:0:
52,188,163928,1,8,0:3:0:0:
201,137,164097,1,2,0:0:0:0:
79,129,164267,6,0,L|43:134,1,29.9999964237213,10|0,0:0|0:0,0:0:0:0:
52,188,164606,2,0,L|16:193,1,29.9999964237213,2|0,0:0|0:0,0:0:0:0:
5,140,164945,6,0,L|49:133,1,44.9999963521956,6|0,0:0|0:0,0:0:0:0:
52,188,165284,6,0,L|153:173,1,89.9999927043911,10|0,0:0|0:0,0:0:0:0:
201,137,165622,5,0,0:0:0:0:
312,150,165792,2,0,L|273:146,1,39.9999952316284,2|8,0:0|0:0,0:0:0:0:
384,159,166131,1,0,0:0:0:0:
384,159,166216,1,0,0:0:0:0:
384,159,166300,5,2,0:0:0:0:
494,140,166470,1,0,0:0:0:0:
474,30,166639,1,8,0:0:0:0:
364,49,166809,1,0,0:0:0:0:
483,154,166978,5,0,0:0:0:0:
463,44,167148,1,2,0:0:0:0:
463,44,167233,1,0,0:0:0:0:
463,44,167317,1,8,0:0:0:0:
353,63,167487,1,2,0:0:0:0:
472,167,167656,6,0,P|463:188|461:210,1,44.9999963521956,2|0,0:0|0:0,0:0:0:0:
494,250,167995,6,0,P|493:205|471:166,1,89.9999927043911,10|0,0:0|0:0,0:0:0:0:
427,274,168334,6,0,L|431:313,1,39.9999952316284,0|2,0:0|0:0,0:0:0:0:
298,369,168673,1,8,0:0:0:0:
280,368,168757,1,0,0:0:0:0:
263,361,168842,1,0,0:0:0:0:
249,350,168927,1,0,0:0:0:0:
239,336,169012,6,0,L|234:296,1,39.9999952316284,2|0,0:0|0:0,0:0:0:0:
354,216,169351,2,0,L|358:255,1,39.9999952316284,8|0,0:0|0:0,0:0:0:0:
166,278,169690,5,2,0:0:0:0:
166,278,169860,2,0,L|169:254,1,19.9999976158142,8|0,0:0|0:0,0:0:0:0:
285,198,170029,1,0,0:0:0:0:
285,198,170199,2,0,L|282:217,1,19.9999976158142,0|0,0:0|0:0,0:0:0:0:
143,292,170368,6,0,P|150:271|168:258,1,44.9999963521956,2|0,0:0|0:0,0:0:0:0:
168,258,170707,6,0,B|133:270|133:270|78:259,1,89.9999927043911,10|0,0:0|0:0,0:0:0:0:
29,164,171046,5,0,0:0:0:0:
81,259,171216,2,0,L|76:218,1,39.9999952316284,2|8,0:0|0:0,0:0:0:0:
47,94,171555,1,0,0:0:0:0:
47,94,171639,1,0,0:0:0:0:
47,94,171724,5,2,0:0:0:0:
169,130,171894,1,0,0:0:0:0:
29,164,172063,1,8,0:0:0:0:
29,164,172233,1,0,0:0:0:0:
187,60,172402,5,0,0:0:0:0:
151,200,172571,1,2,0:0:0:0:
151,200,172656,1,0,0:0:0:0:
151,200,172741,1,8,0:0:0:0:
65,24,172910,1,2,0:0:0:0:
169,130,173080,6,0,P|213:134|261:104,1,89.9999927043911,6|0,0:0|0:0,0:0:0:0:
289,73,173419,6,0,P|328:52|372:56,1,89.9999927043911,10|0,0:0|0:0,0:0:0:0:
425,105,173758,6,0,L|477:99,1,39.9999952316284,0|0,0:0|0:0,0:0:0:0:
342,216,174097,1,0,0:0:0:0:
366,213,174181,1,0,0:0:0:0:
390,210,174266,1,0,0:0:0:0:
414,207,174351,1,0,0:0:0:0:
437,205,174436,5,12,0:0:0:0:
506,309,174605,1,0,0:0:0:0:
437,205,174775,1,8,0:3:0:0:
384,351,174944,1,0,0:0:0:0:
442,277,175114,6,0,L|440:306,1,29.9999964237213,0|0,0:0|0:0,0:0:0:0:
504,338,175453,2,0,L|506:309,1,29.9999964237213,0|0,0:0|0:0,0:0:0:0:
437,205,175792,6,0,B|366:231|374:158|305:186,1,139.999983310699,6|0,0:0|0:0,0:0:0:0:
241,220,176470,6,0,P|240:249|250:277,1,59.9999928474426,8|0,0:0|0:0,0:0:0:0:
315,243,176809,2,0,P|316:213|306:185,1,59.9999928474426,0|0,0:0|0:0,0:0:0:0:
264,127,177148,6,0,L|240:119,7,19.9999976158142,2|0|0|0|0|0|0|0,0:0|0:0|0:0|0:0|0:0|0:0|0:0|0:0,0:0:0:0:
221,114,177826,5,8,0:0:0:0:
242,220,177995,1,0,0:0:0:0:
139,184,178165,1,2,0:0:0:0:
242,220,178334,1,0,0:0:0:0:
221,114,178504,22,0,B|211:81|224:46|224:46|202:22|202:22|192:40|190:59,1,139.999983310699,2|0,0:0|0:0,0:0:0:0:
140,110,179182,6,0,P|113:124|84:128,1,59.9999928474426,8|0,0:0|0:0,0:0:0:0:
40,89,179521,2,0,P|65:104|83:127,1,59.9999928474426,0|0,0:0|0:0,0:0:0:0:
85,200,179860,6,0,L|76:229,5,19.9999976158142,2|0|0|0|0|0,0:0|0:0|0:0|0:0|0:0|0:0,0:0:0:0:
57,292,180368,2,0,L|86:285,1,19.9999976158142,2|0,0:0|0:0,0:0:0:0:
150,271,180538,5,8,0:0:0:0:
85,200,180707,1,0,0:0:0:0:
122,363,180877,1,8,0:0:0:0:
57,292,181046,1,0,0:0:0:0:
215,342,181216,22,0,L|240:337,7,19.9999976158142,6|0|0|0|0|0|0|0,0:0|0:0|0:0|0:0|0:0|0:0|0:0|0:0,0:0:0:0:
264,355,181894,6,0,P|269:326|283:299,1,59.9999928474426,8|0,0:0|0:0,0:0:0:0:
348,268,182233,2,0,P|343:238|329:211,1,59.9999928474426,0|0,0:0|0:0,0:0:0:0:
269,174,182571,6,0,L|249:177,7,19.9999976158142,2|0|0|0|0|0|0|0,0:0|0:0|0:0|0:0|0:0|0:0|0:0|0:0,0:0:0:0:
226,183,183249,5,8,0:0:0:0:
329,211,183419,1,0,0:0:0:0:
226,183,183588,1,2,0:0:0:0:
367,153,183758,1,0,0:0:0:0:
226,183,183927,22,0,B|211:155|211:155|226:76,1,89.9999927043911,6|0,0:0|0:0,0:0:0:0:
260,36,184266,6,0,P|275:45|296:52,1,39.9999952316284,8|0,0:0|0:0,0:0:0:0:
417,96,184605,1,2,0:0:0:0:
473,10,184775,2,0,P|454:16|438:27,1,39.9999952316284,8|0,0:0|0:0,0:0:0:0:
367,153,185114,1,2,0:0:0:0:
367,153,185199,1,2,0:0:0:0:
367,153,185283,5,12,0:0:0:0:
386,259,185453,1,8,0:0:0:0:
417,96,185622,1,8,0:3:0:0:
436,202,185792,1,2,0:0:0:0:
417,96,185961,6,0,L|422:130,1,29.9999964237213,12|0,0:0|0:0,0:0:0:0:
386,259,186300,2,0,L|381:229,1,29.9999964237213,2|0,0:0|0:0,0:0:0:0:
367,153,186639,22,0,B|352:74|352:74|334:107|304:115,1,139.999983310699,6|0,0:0|0:0,0:0:0:0:
227,33,187317,6,0,P|257:34|284:44,1,59.9999928474426,8|0,0:0|0:0,0:0:0:0:
188,94,187656,2,0,P|202:120|207:149,1,59.9999928474426,0|0,0:0|0:0,0:0:0:0:
116,90,187995,6,0,P|106:105|92:116,7,19.9999976158142,2|0|0|0|0|0|0|0,0:0|0:0|0:0|0:0|0:0|0:0|0:0|0:0,0:0:0:0:
82,115,188673,5,8,0:0:0:0:
188,94,188843,1,0,0:0:0:0:
21,77,189012,1,2,0:0:0:0:
188,94,189182,1,0,0:0:0:0:
93,202,189351,22,0,B|62:195|62:195|36:220|36:220|70:249|64:288,1,139.999983310699,2|0,0:0|0:0,0:0:0:0:
55,354,190029,6,0,P|80:338|110:334,1,59.9999928474426,8|0,0:0|0:0,0:0:0:0:
174,300,190368,2,0,P|199:315|229:319,1,59.9999928474426,0|0,0:0|0:0,0:0:0:0:
299,302,190707,6,0,L|295:282,5,19.9999976158142,2|0|0|0|0|0,0:0|0:0|0:0|0:0|0:0|0:0,0:0:0:0:
372,337,191216,2,0,L|368:317,1,19.9999976158142,2|0,0:0|0:0,0:0:0:0:
359,245,191385,5,8,0:0:0:0:
485,266,191555,1,0,0:0:0:0:
371,231,191724,1,8,0:0:0:0:
478,249,191894,1,0,0:0:0:0:
299,302,192063,22,0,B|287:235|287:235|302:153,1,139.999983310699,6|0,0:0|0:0,0:0:0:0:
335,74,192741,6,0,P|344:92|349:112,1,39.9999952316284,10|0,0:0|0:0,0:0:0:0:
236,50,193080,1,2,0:0:0:0:
359,16,193249,1,2,0:0:0:0:
236,50,193419,6,0,L|212:48,7,19.9999976158142,2|0|0|0|2|0|0|0,0:0|0:0|0:0|0:0|0:0|0:0|0:0|0:0,0:0:0:0:
192,46,194097,5,6,0:0:0:0:
143,197,194266,1,0,0:0:0:0:
299,164,194436,1,8,0:3:0:0:
212,136,194605,1,2,0:0:0:0:
418,202,194775,22,0,L|507:189,1,89.9999927043911,6|0,0:0|0:0,0:0:0:0:
393,264,195114,6,0,P|373:262|353:257,1,39.9999952316284,0|0,0:0|0:0,0:0:0:0:
299,164,195453,1,0,0:0:0:0:
299,164,195538,1,0,0:0:0:0:
300,164,195622,2,0,P|280:165|260:170,1,39.9999952316284,0|0,0:0|0:0,0:0:0:0:
237,313,195961,1,0,0:0:0:0:
239,330,196046,1,0,0:0:0:0:
242,347,196131,5,6,0:0:0:0:
227,240,196300,1,0,0:0:0:0:
353,257,196470,1,0,0:0:0:0:
385,68,196639,1,0,0:0:0:0:
299,163,196809,6,0,L|297:131,1,29.9999964237213,0|0,0:0|0:0,0:0:0:0:
385,68,197148,2,0,L|387:97,1,29.9999964237213,0|0,0:0|0:0,0:0:0:0:
353,257,197487,5,6,0:1:0:0:
