osu file format v14

[General]
AudioFilename: audio.mp3
AudioLeadIn: 0
PreviewTime: 78082
Countdown: 0
SampleSet: Soft
StackLeniency: 0.2
Mode: 0
LetterboxInBreaks: 0
WidescreenStoryboard: 1

[Editor]
Bookmarks: 23927,45622,56470,78165,99860,110707,121555,143249,154097,175792,197487
DistanceSpacing: 1
BeatDivisor: 4
GridSize: 4
TimelineZoom: 1.799999

[Metadata]
Title:KAEDE
TitleUnicode:KAEDE
Artist:Ocelot
ArtistUnicode:Ocelot
Creator:Hollow Wings
Version:Kawa's Extra
Source:
Tags:japan diverse system dubstep Hatsune Miku DJ Ginsuke Ocelot SiSTEMA Function Phantom Thinktech fanzhen0019 Kalindraz Kawashiro Moecho Koiyuki Minakami Yuki mtbbsben Skystar Amamiya Yuko Irreversible
BeatmapID:1418838
BeatmapSetID:660630

[Difficulty]
HPDrainRate:6.3
CircleSize:3.9
OverallDifficulty:7.4
ApproachRate:8.8
SliderMultiplier:1.09999990463257
SliderTickRate:1

[Events]
//Background and Video events
0,0,"KAEDE.jpg",0,0
//Break Periods
2,100060,108722
2,110907,118214
//Storyboard Layer 0 (Background)
//Storyboard Layer 1 (Fail)
//Storyboard Layer 2 (Pass)
//Storyboard Layer 3 (Foreground)
//Storyboard Sound Samples

[TimingPoints]
2233,338.983050847458,4,2,99,80,1,0
23927,-100,4,2,99,80,0,0
45622,-100,4,2,99,70,0,0
51046,-100,4,2,99,80,0,0
56470,-58.8235294117647,4,1,99,100,0,1
64605,-200,4,1,99,100,0,1
65961,-58.8235294117647,4,1,99,100,0,0
67317,-58.8235294117647,4,1,99,100,0,1
75453,-200,4,1,99,100,0,1
76809,-58.8235294117647,4,1,99,100,0,0
78165,-90.9090909090909,4,1,99,80,0,1
78843,-58.8235294117647,4,1,99,80,0,1
79521,-166.666666666667,4,1,99,80,0,1
80199,-66.6666666666667,4,1,99,80,0,1
80877,-90.9090909090909,4,1,99,80,0,1
81555,-58.8235294117647,4,1,99,80,0,1
82233,-166.666666666667,4,1,99,80,0,1
82910,-66.6666666666667,4,1,99,80,0,1
83588,-90.9090909090909,4,1,99,80,0,1
84266,-58.8235294117647,4,1,99,80,0,1
84944,-166.666666666667,4,1,99,80,0,1
85622,-66.6666666666667,4,1,99,80,0,1
86300,-200,4,1,99,80,0,1
87656,-58.8235294117647,4,1,99,80,0,0
89012,-90.9090909090909,4,1,99,80,0,1
89690,-58.8235294117647,4,1,99,80,0,1
90368,-166.666666666667,4,1,99,80,0,1
91046,-66.6666666666667,4,1,99,80,0,1
91724,-90.9090909090909,4,1,99,80,0,1
92402,-58.8235294117647,4,1,99,80,0,1
93080,-166.666666666667,4,1,99,80,0,1
93758,-66.6666666666667,4,1,99,80,0,1
94436,-90.9090909090909,4,1,99,80,0,1
95114,-58.8235294117647,4,1,99,80,0,1
95792,-166.666666666667,4,1,99,80,0,1
96470,-66.6666666666667,4,1,99,80,0,1
97148,-200,4,1,99,80,0,1
98504,-58.8235294117647,4,1,99,80,0,0
99860,-58.8235294117647,4,2,99,60,0,0
121555,-100,4,2,99,80,0,0
143249,-100,4,2,99,70,0,0
148673,-100,4,2,99,80,0,0
154097,-58.8235294117647,4,1,99,100,0,1
162233,-200,4,1,99,100,0,1
163588,-58.8235294117647,4,1,99,100,0,0
164944,-58.8235294117647,4,1,99,100,0,1
173080,-200,4,1,99,100,0,1
174436,-58.8235294117647,4,1,99,100,0,0
175792,-90.9090909090909,4,1,99,80,0,1
176470,-58.8235294117647,4,1,99,80,0,1
177148,-166.666666666667,4,1,99,80,0,1
177826,-66.6666666666667,4,1,99,80,0,1
178504,-90.9090909090909,4,1,99,80,0,1
179182,-58.8235294117647,4,1,99,80,0,1
179860,-166.666666666667,4,1,99,80,0,1
180538,-66.6666666666667,4,1,99,80,0,1
181216,-90.9090909090909,4,1,99,80,0,1
181894,-58.8235294117647,4,1,99,80,0,1
182571,-166.666666666667,4,1,99,80,0,1
183249,-66.6666666666667,4,1,99,80,0,1
183927,-200,4,1,99,80,0,1
185283,-58.8235294117647,4,1,99,80,0,0
186639,-90.9090909090909,4,1,99,80,0,1
187317,-58.8235294117647,4,1,99,80,0,1
187995,-166.666666666667,4,1,99,80,0,1
188673,-66.6666666666667,4,1,99,80,0,1
189351,-90.9090909090909,4,1,99,80,0,1
190029,-58.8235294117647,4,1,99,80,0,1
190707,-166.666666666667,4,1,99,80,0,1
191385,-66.6666666666667,4,1,99,80,0,1
192063,-90.9090909090909,4,1,99,80,0,1
192741,-58.8235294117647,4,1,99,80,0,1
193419,-166.666666666667,4,1,99,80,0,1
194097,-66.6666666666667,4,1,99,80,0,1
194775,-200,4,1,99,80,0,1
196131,-58.8235294117647,4,1,99,80,0,0
197487,-58.8235294117647,4,2,99,60,0,0

[Colours]
Combo1 : 255,255,128
Combo2 : 91,173,255
Combo3 : 255,128,128
Combo4 : 255,128,64

[HitObjects]
256,192,21216,12,0,23588,0:0:0:0:
256,348,23927,5,6,0:0:0:0:
256,40,24605,1,0,0:0:0:0:
108,308,25283,5,2,0:0:0:0:
256,348,25622,1,2,0:0:0:0:
404,308,25961,1,2,3:0:0:0:
256,260,26300,1,0,0:0:0:0:
256,269,26470,1,0,0:0:0:0:
256,348,26639,5,2,0:0:0:0:
256,40,27317,1,0,0:0:0:0:
404,308,27995,5,2,0:0:0:0:
176,344,28504,1,2,0:0:0:0:
108,308,28673,2,0,L|44:324,1,54.9999952316285,2|0,0:3|0:0,0:0:0:0:
160,244,29012,2,0,L|106:230,1,54.9999952316285,0|0,0:0|0:0,0:0:0:0:
256,348,29351,5,2,0:0:0:0:
256,40,30029,1,0,0:0:0:0:
404,308,30707,5,2,0:0:0:0:
256,348,31046,1,2,0:0:0:0:
108,308,31385,1,2,0:3:0:0:
256,260,31724,1,0,0:0:0:0:
256,269,31894,1,0,0:0:0:0:
256,348,32063,5,2,0:0:0:0:
256,40,32741,1,0,0:0:0:0:
108,308,33419,5,2,0:0:0:0:
336,344,33927,1,2,0:0:0:0:
404,308,34097,2,0,L|468:324,1,54.9999952316285,2|0,0:3|0:0,0:0:0:0:
352,244,34436,2,0,L|416:228,1,54.9999952316285,0|0,0:0|0:0,0:0:0:0:
256,348,34775,5,6,0:0:0:0:
256,40,35453,1,0,0:0:0:0:
108,308,36131,5,2,0:0:0:0:
256,348,36470,1,2,0:0:0:0:
404,308,36809,1,2,0:3:0:0:
256,260,37148,1,0,0:0:0:0:
256,269,37317,1,0,0:0:0:0:
256,348,37487,5,2,0:0:0:0:
256,40,38165,1,0,0:0:0:0:
404,308,38843,5,2,0:0:0:0:
176,348,39351,1,2,0:0:0:0:
108,308,39521,1,2,0:3:0:0:
152,244,39690,2,0,L|156:216,2,27.4999976158142,0|0|0,0:0|0:0|0:0,0:0:0:0:
220,280,40029,1,0,0:0:0:0:
256,348,40199,5,2,0:0:0:0:
256,40,40877,1,0,0:0:0:0:
404,308,41555,5,2,0:0:0:0:
256,348,41894,1,2,0:0:0:0:
108,308,42233,1,2,0:3:0:0:
256,260,42571,1,0,0:0:0:0:
256,269,42741,1,0,0:0:0:0:
256,348,42910,5,2,0:0:0:0:
256,40,43588,1,0,0:0:0:0:
108,308,44266,5,2,0:0:0:0:
328,364,44775,1,2,0:0:0:0:
332,356,44860,1,2,0:0:0:0:
336,348,44944,1,2,0:3:0:0:
403,308,45114,2,0,P|431:311|455:323,2,54.9999952316285,0|0|0,0:0|0:0|0:0,0:0:0:0:
256,296,45622,5,2,0:0:0:0:
256,296,45961,1,0,0:0:0:0:
256,296,46300,1,0,0:0:0:0:
256,296,46639,1,0,0:0:0:0:
256,296,46978,5,0,0:0:0:0:
256,296,47317,1,0,0:0:0:0:
256,296,47656,1,0,0:0:0:0:
256,296,47995,1,2,0:0:0:0:
256,372,48165,1,2,0:0:0:0:
256,296,48334,5,2,0:0:0:0:
256,296,48673,1,0,0:0:0:0:
256,296,49012,1,0,0:0:0:0:
256,296,49351,1,0,0:0:0:0:
256,296,49690,5,0,0:0:0:0:
256,296,50029,1,0,0:0:0:0:
256,296,50368,1,0,0:0:0:0:
256,296,50707,1,2,0:0:0:0:
256,220,50877,1,2,0:0:0:0:
256,208,50961,1,2,0:0:0:0:
256,196,51046,5,2,0:0:0:0:
326,230,51216,1,0,0:0:0:0:
343,305,51385,1,0,0:0:0:0:
295,365,51555,1,0,0:0:0:0:
218,365,51724,1,0,0:0:0:0:
170,305,51894,1,0,0:0:0:0:
187,230,52063,1,0,0:0:0:0:
256,196,52233,1,2,0:0:0:0:
256,184,52317,1,2,0:0:0:0:
256,172,52402,5,2,0:0:0:0:
325,206,52571,1,0,0:0:0:0:
342,281,52741,1,0,0:0:0:0:
294,341,52910,1,0,0:0:0:0:
217,341,53080,1,0,0:0:0:0:
169,281,53249,1,0,0:0:0:0:
186,206,53419,1,0,0:0:0:0:
256,172,53588,1,2,0:0:0:0:
256,160,53673,1,2,0:0:0:0:
256,148,53758,6,0,L|256:112,3,27.4999976158142,2|0|8|2,0:0|0:0|0:0|0:0,0:0:0:0:
300,212,54097,2,0,L|324:225,3,27.4999976158142,2|0|8|2,0:0|0:0|0:0|0:0,0:0:0:0:
212,212,54436,2,0,L|188:225,3,27.4999976158142,2|0|8|2,0:0|0:0|0:0|0:0,0:0:0:0:
256,280,54775,2,0,L|256:320,3,27.4999976158142,2|0|8|2,0:0|0:0|0:0|0:0,0:0:0:0:
256,384,55114,5,2,0:0:0:0:
256,384,56131,1,0,0:0:0:0:
431,196,56470,6,0,P|379:196|407:280,1,140.249990515709,6|0,0:0|0:0,0:0:0:0:
327,332,56809,2,0,L|151:332,1,140.249990515709,2|0,0:0|0:0,0:0:0:0:
120,376,57148,2,0,P|107:331|123:288,1,93.4999936771393,8|0,0:0|0:0,0:0:0:0:
172,208,57487,2,0,P|187:164|175:120,1,93.4999936771393,2|0,0:0|0:0,0:0:0:0:
168,108,57741,1,0,0:0:0:0:
160,96,57826,6,0,L|253:96,1,93.4999936771393,0|0,0:0|0:0,0:0:0:0:
347,96,58165,2,0,L|440:96,1,93.4999936771393,0|0,0:0|0:0,0:0:0:0:
496,172,58504,1,8,0:0:0:0:
444,252,58673,2,0,P|432:296|445:340,2,93.4999936771393,0|0|2,0:0|0:0|0:0,0:0:0:0:
496,172,59182,6,0,L|355:172,1,140.249990515709,2|0,0:0|0:0,0:0:0:0:
307,234,59521,2,0,P|314:297|251:307,1,140.249990515709,2|0,0:0|0:0,0:0:0:0:
184,348,59860,2,0,P|171:303|187:260,1,93.4999936771393,8|0,0:0|0:0,0:0:0:0:
116,200,60199,2,0,P|100:216|76:228,2,46.7499968385696,0|0|0,0:0|0:0|0:0,0:0:0:0:
128,184,60453,1,0,0:0:0:0:
136,168,60538,2,0,L|136:44,1,93.4999936771393,2|0,0:0|0:0,0:0:0:0:
224,40,60877,2,0,L|224:133,1,93.4999936771393,2|2,0:0|0:0,0:0:0:0:
312,168,61216,5,8,0:0:0:0:
312,168,61385,1,0,0:0:0:0:
400,32,61555,1,8,0:0:0:0:
400,32,61724,1,0,0:0:0:0:
480,80,61894,6,0,L|480:224,1,140.249990515709,4|0,0:0|0:0,0:0:0:0:
432,284,62233,2,0,P|379:241|313:256,1,140.249990515709,2|0,0:0|0:0,0:0:0:0:
240,228,62571,2,0,P|230:273|250:314,1,93.4999936771393,8|0,0:0|0:0,0:0:0:0:
172,364,62910,2,0,P|142:329|97:318,1,93.4999936771393,2|0,0:0|0:0,0:0:0:0:
80,328,63165,1,0,0:0:0:0:
64,336,63249,6,0,L|64:232,1,93.4999936771393,2|0,0:0|0:0,0:0:0:0:
64,148,63588,1,0,0:0:0:0:
148,188,63758,2,0,L|148:240,2,46.7499968385696,0|0|8,0:0|0:0|0:0,0:0:0:0:
232,148,64097,2,0,P|260:156|272:188,1,46.7499968385696,2|0,0:0|0:0,0:0:0:0:
236,280,64266,2,0,P|228:251|250:225,1,46.7499968385696,2|0,0:0|0:0,0:0:0:0:
348,216,64436,2,0,P|327:236|293:230,1,46.7499968385696,0|0,0:0|0:0,0:0:0:0:
408,304,64605,6,0,B|416:288|416:288|400:272|400:272|416:256|416:256|400:240|400:240|416:224|416:224|400:208|400:208|416:192|416:192|400:176|400:176|416:160|416:160|408:144,1,206.249982118607,2|0,0:0|0:0,0:0:0:0:
420,136,65961,6,0,P|374:144|320:124,3,93.4999936771393,12|0|8|0,0:0|0:0|0:3|0:0,0:0:0:0:
236,124,66639,2,0,B|248:96|248:96|264:212,1,140.249990515709,2|0,0:0|0:0,0:0:0:0:
196,252,66978,2,0,B|184:280|184:280|168:164,1,140.249990515709,2|0,0:0|0:0,0:0:0:0:
152,92,67317,6,0,P|136:32|72:64,1,140.249990515709,6|0,0:0|0:0,0:0:0:0:
24,112,67656,2,0,L|24:264,1,140.249990515709,2|0,0:0|0:0,0:0:0:0:
56,324,67995,2,0,B|88:332|88:332|156:316,1,93.4999936771393,8|0,0:0|0:0,0:0:0:0:
236,348,68334,2,0,B|294:334|294:334|326:342,1,93.4999936771393,0|0,0:0|0:0,0:0:0:0:
344,348,68588,1,0,0:0:0:0:
360,356,68673,6,0,P|348:311|362:267,1,93.4999936771393,2|0,0:0|0:0,0:0:0:0:
412,188,69012,2,0,P|426:144|414:99,1,93.4999936771393,0|0,0:0|0:0,0:0:0:0:
340,44,69351,1,8,0:0:0:0:
264,100,69521,2,0,P|252:144|266:188,2,93.4999936771393,0|2|0,0:0|0:0|0:0,0:0:0:0:
340,44,70029,6,0,L|176:44,1,140.249990515709,2|0,0:0|0:0,0:0:0:0:
136,92,70368,2,0,P|139:157|76:176,1,140.249990515709,2|0,0:0|0:0,0:0:0:0:
3,144,70707,2,0,P|-4:189|18:229,1,93.4999936771393,8|0,0:0|0:0,0:0:0:0:
92,284,71046,2,0,P|76:300|64:324,2,46.7499968385696,0|0|0,0:0|0:0|0:0,0:0:0:0:
108,272,71300,1,0,0:0:0:0:
124,264,71385,2,0,L|248:264,1,93.4999936771393,2|0,0:0|0:0,0:0:0:0:
312,264,71724,2,0,L|405:264,1,93.4999936771393,0|2,0:0|0:0,0:0:0:0:
452,344,72063,5,8,0:0:0:0:
452,344,72233,1,0,0:0:0:0:
362,184,72402,1,8,0:0:0:0:
362,184,72571,1,0,0:0:0:0:
312,264,72741,6,0,L|148:264,1,140.249990515709,2|0,0:0|0:0,0:0:0:0:
104,304,73080,2,0,P|52:292|60:208,1,140.249990515709,2|0,0:0|0:0,0:0:0:0:
0,156,73419,2,0,P|41:136|87:144,1,93.4999936771393,8|0,0:0|0:0,0:0:0:0:
180,144,73758,2,0,P|225:136|267:155,1,93.4999936771393,0|0,0:0|0:0,0:0:0:0:
280,168,74012,1,0,0:0:0:0:
292,180,74097,6,0,L|296:64,1,93.4999936771393,2|0,0:0|0:0,0:0:0:0:
380,124,74436,2,0,L|376:240,1,93.4999936771393,0|0,0:0|0:0,0:0:0:0:
368,236,74690,1,0,0:0:0:0:
360,251,74775,6,0,P|357:275|363:297,1,46.7499968385696,8|0,0:0|0:0,0:0:0:0:
280,264,74944,2,0,P|277:287|283:309,1,46.7499968385696,0|0,0:0|0:0,0:0:0:0:
199,276,75114,2,0,P|196:299|202:321,1,46.7499968385696,2|0,0:0|0:0,0:0:0:0:
118,288,75283,2,0,P|115:311|121:333,1,46.7499968385696,0|0,0:0|0:0,0:0:0:0:
36,348,75453,6,0,B|28:332|28:332|44:316|44:316|28:300|28:300|44:284|44:284|28:268|28:268|44:252|44:252|28:236|28:236|44:220|44:220|28:204|28:204|36:188,1,206.249982118607,2|0,0:0|0:0,0:0:0:0:
24,180,76809,6,0,P|72:188|128:160,3,93.4999936771393,6|0|8|0,0:0|0:0|0:3|0:0,0:0:0:0:
204,156,77487,2,0,B|192:128|192:128|176:244,1,140.249990515709,2|0,0:0|0:0,0:0:0:0:
244,284,77826,2,0,B|256:312|256:312|272:196,1,140.249990515709,0|0,0:0|0:0,0:0:0:0:
304,128,78165,6,0,B|348:144|384:116|384:116|416:136|416:136|452:104|520:112,1,211.749988103867,6|0,0:0|0:0,0:0:0:0:
344,0,78843,6,0,P|300:44|344:36,1,140.249990515709,8|0,0:0|0:0,0:0:0:0:
464,240,79182,2,0,P|508:196|464:204,1,140.249990515709,0|0,0:0|0:0,0:0:0:0:
300,268,79521,6,0,L|297:384,1,115.49998646164,2|0,0:0|0:0,0:0:0:0:
221,341,80199,6,0,L|220:296,1,41.2499979972839,8|0,0:0|0:0,0:0:0:0:
376,344,80368,2,0,L|380:296,1,41.2499979972839,0|0,0:0|0:0,0:0:0:0:
224,288,80538,2,0,L|223:243,1,41.2499979972839,2|0,0:0|0:0,0:0:0:0:
379,291,80707,2,0,L|383:243,1,41.2499979972839,0|0,0:0|0:0,0:0:0:0:
264,184,80877,6,0,B|296:83|296:83|332:186,1,211.749988103867,2|0,0:0|0:0,0:0:0:0:
144,144,81555,6,0,B|117:140|114:107|114:107|201:88,1,140.249990515709,8|0,0:0|0:0,0:0:0:0:
385,81,81894,2,0,B|472:91|472:91|472:124|445:130,1,140.249990515709,0|0,0:0|0:0,0:0:0:0:
293,127,82233,6,0,L|292:8,1,115.49998646164,2|0,0:0|0:0,0:0:0:0:
371,73,82910,6,0,L|374:114,1,41.2499979972839,8|0,0:0|0:0,0:0:0:0:
216,76,83080,2,0,L|215:117,1,41.2499979972839,0|0,0:0|0:0,0:0:0:0:
374,126,83249,2,0,L|377:167,1,41.2499979972839,8|0,0:0|0:0,0:0:0:0:
219,129,83419,2,0,L|218:170,1,41.2499979972839,0|0,0:0|0:0,0:0:0:0:
219,367,83588,6,0,P|280:307|196:295,1,211.749988103867,6|0,0:0|0:0,0:0:0:0:
361,233,84266,6,0,B|372:156|372:156|376:112|320:96,1,140.249990515709,8|0,0:0|0:0,0:0:0:0:
168,105,84605,2,0,B|136:112|140:156|140:156|151:233,1,140.249990515709,0|0,0:0|0:0,0:0:0:0:
256,144,84944,6,0,L|256:28,1,115.49998646164,2|0,0:0|0:0,0:0:0:0:
180,80,85622,6,0,L|177:121,1,41.2499979972839,8|0,0:0|0:0,0:0:0:0:
336,124,85792,2,0,L|335:83,1,41.2499979972839,0|0,0:0|0:0,0:0:0:0:
177,133,85961,2,0,L|174:174,1,41.2499979972839,2|0,0:0|0:0,0:0:0:0:
333,177,86131,2,0,L|332:136,1,41.2499979972839,0|0,0:0|0:0,0:0:0:0:
436,24,86300,6,0,B|444:40|444:40|428:56|428:56|444:72|444:72|428:88|428:88|444:104|444:104|428:120|428:120|444:136|444:136|428:152|428:152|444:168|444:168|436:184,1,206.249982118607,6|2,0:0|0:0,0:0:0:0:
444,192,87656,6,0,P|398:184|344:204,3,93.4999936771393,6|8|8|2,0:0|0:0|0:3|0:0,0:0:0:0:
264,224,88334,2,0,B|276:252|276:252|292:136,1,140.249990515709,8|0,0:0|0:0,0:0:0:0:
224,96,88673,2,0,B|212:68|212:68|196:184,1,140.249990515709,2|0,0:0|0:0,0:0:0:0:
140,236,89012,6,0,B|129:336|129:336|121:387|199:405|218:356,1,211.749988103867,6|0,0:0|0:0,0:0:0:0:
348,280,89690,6,0,B|232:284|232:284|260:320,1,140.249990515709,8|0,0:0|0:0,0:0:0:0:
376,184,90029,2,0,B|492:188|492:188|464:224,1,140.249990515709,0|0,0:0|0:0,0:0:0:0:
288,136,90368,6,0,L|304:16,1,115.49998646164,2|0,0:0|0:0,0:0:0:0:
184,36,91046,6,0,L|232:44,1,41.2499979972839,8|0,0:0|0:0,0:0:0:0:
168,64,91216,2,0,L|216:72,1,41.2499979972839,0|0,0:0|0:0,0:0:0:0:
408,112,91385,2,0,L|360:120,1,41.2499979972839,2|0,0:0|0:0,0:0:0:0:
424,140,91555,2,0,L|376:148,1,41.2499979972839,0|0,0:0|0:0,0:0:0:0:
196,180,91724,6,0,B|252:204|300:180|300:180|348:156|404:180,1,211.749988103867,2|0,0:0|0:0,0:0:0:0:
412,336,92402,6,0,B|387:360|387:360|351:260,1,140.249990515709,8|0,0:0|0:0,0:0:0:0:
312,24,92741,2,0,B|287:-1|287:-1|251:99,1,140.249990515709,0|0,0:0|0:0,0:0:0:0:
96,236,93080,6,0,L|220:252,1,115.49998646164,2|0,0:0|0:0,0:0:0:0:
44,336,93758,6,0,L|50:295,1,41.2499979972839,8|0,0:0|0:0,0:0:0:0:
16,320,93927,2,0,L|22:279,1,41.2499979972839,0|0,0:0|0:0,0:0:0:0:
132,112,94097,2,0,L|140:160,1,41.2499979972839,8|0,0:0|0:0,0:0:0:0:
160,96,94266,2,0,L|168:144,1,41.2499979972839,0|0,0:0|0:0,0:0:0:0:
356,232,94436,6,0,P|290:177|285:262,1,211.749988103867,6|0,0:0|0:0,0:0:0:0:
416,136,95114,6,0,B|424:32|424:32|388:4,1,140.249990515709,10|0,0:0|0:0,0:0:0:0:
212,56,95453,2,0,B|234:84|234:84|338:76,1,140.249990515709,2|0,0:0|0:0,0:0:0:0:
472,220,95792,6,0,L|352:212,1,115.49998646164,2|0,0:0|0:0,0:0:0:0:
394,295,96470,6,0,L|388:336,1,41.2499979972839,10|0,0:0|0:0,0:0:0:0:
416,352,96639,2,0,L|424:304,1,41.2499979972839,0|0,0:0|0:0,0:0:0:0:
286,152,96809,2,0,L|280:112,1,41.2499979972839,8|0,0:3|0:0,0:0:0:0:
252,128,96978,2,0,L|258:168,1,41.2499979972839,2|0,0:0|0:0,0:0:0:0:
480,256,97148,6,0,B|488:240|488:240|472:224|472:224|488:208|488:208|472:192|472:192|488:176|488:176|472:160|472:160|488:144|488:144|472:128|472:128|488:112|488:112|480:96,1,206.249982118607,6|0,0:0|0:0,0:0:0:0:
492,88,98504,6,0,P|444:96|388:68,3,93.4999936771393,6|0|8|0,0:0|0:0|0:3|0:0,0:0:0:0:
308,76,99182,2,0,B|320:48|320:48|336:164,1,140.249990515709,2|0,0:0|0:0,0:0:0:0:
268,204,99521,2,0,B|256:232|256:232|240:116,1,140.249990515709,0|0,0:0|0:0,0:0:0:0:
232,44,99860,5,6,0:1:0:0:
232,44,109351,5,0,0:0:0:0:
232,44,109860,6,0,P|220:23|200:12,2,46.7499968385696,2|2|2,0:0|0:0|0:0,0:0:0:0:
200,132,110199,1,0,0:0:0:0:
128,72,110368,2,0,P|78:60|35:72,1,93.4999936771393,2|0,0:0|0:0,0:0:0:0:
200,132,110707,5,6,0:1:0:0:
256,192,118843,12,0,121216,0:0:0:0:
256,36,121555,5,6,0:0:0:0:
256,344,122233,1,0,0:0:0:0:
108,76,122911,5,2,0:0:0:0:
256,36,123250,1,2,0:0:0:0:
404,76,123589,1,2,3:0:0:0:
256,124,123928,1,0,0:0:0:0:
256,115,124098,1,0,0:0:0:0:
256,36,124267,5,2,0:0:0:0:
256,344,124945,1,0,0:0:0:0:
404,76,125623,5,2,0:0:0:0:
176,40,126132,1,2,0:0:0:0:
108,76,126301,2,0,L|44:60,1,54.9999952316285,2|0,0:3|0:0,0:0:0:0:
160,140,126640,2,0,L|106:154,1,54.9999952316285,0|0,0:0|0:0,0:0:0:0:
256,36,126979,5,2,0:0:0:0:
256,344,127657,1,0,0:0:0:0:
404,76,128335,5,2,0:0:0:0:
256,36,128674,1,2,0:0:0:0:
108,76,129013,1,2,0:3:0:0:
256,124,129352,1,0,0:0:0:0:
256,115,129522,1,0,0:0:0:0:
256,36,129691,5,2,0:0:0:0:
256,344,130369,1,0,0:0:0:0:
108,76,131047,5,2,0:0:0:0:
336,40,131555,1,2,0:0:0:0:
404,76,131725,2,0,L|468:60,1,54.9999952316285,2|0,0:3|0:0,0:0:0:0:
352,140,132064,2,0,L|416:156,1,54.9999952316285,0|0,0:0|0:0,0:0:0:0:
256,36,132403,5,6,0:0:0:0:
256,344,133081,1,0,0:0:0:0:
108,76,133759,5,2,0:0:0:0:
256,36,134098,1,2,0:0:0:0:
404,76,134437,1,2,0:3:0:0:
256,124,134776,1,0,0:0:0:0:
256,115,134945,1,0,0:0:0:0:
256,36,135115,5,2,0:0:0:0:
256,344,135793,1,0,0:0:0:0:
404,76,136471,5,2,0:0:0:0:
176,36,136979,1,2,0:0:0:0:
108,76,137149,1,2,0:3:0:0:
152,140,137318,2,0,L|156:168,2,27.4999976158142,0|0|0,0:0|0:0|0:0,0:0:0:0:
220,104,137657,1,0,0:0:0:0:
256,36,137827,5,2,0:0:0:0:
256,344,138505,1,0,0:0:0:0:
404,76,139183,5,2,0:0:0:0:
256,36,139522,1,2,0:0:0:0:
108,76,139861,1,2,0:3:0:0:
256,124,140199,1,0,0:0:0:0:
256,115,140369,1,0,0:0:0:0:
256,36,140538,5,2,0:0:0:0:
256,344,141216,1,0,0:0:0:0:
108,76,141894,5,2,0:0:0:0:
328,20,142403,1,2,0:0:0:0:
332,28,142488,1,2,0:0:0:0:
336,36,142572,1,2,0:3:0:0:
403,76,142742,2,0,P|431:73|455:61,2,54.9999952316285,0|0|0,0:0|0:0|0:0,0:0:0:0:
256,88,143250,5,2,0:0:0:0:
256,88,143589,1,0,0:0:0:0:
256,88,143928,1,0,0:0:0:0:
256,88,144267,1,0,0:0:0:0:
256,88,144606,5,0,0:0:0:0:
256,88,144945,1,0,0:0:0:0:
256,88,145284,1,0,0:0:0:0:
256,88,145623,1,2,0:0:0:0:
256,12,145793,1,2,0:0:0:0:
256,88,145962,5,2,0:0:0:0:
256,88,146301,1,0,0:0:0:0:
256,88,146640,1,0,0:0:0:0:
256,88,146979,1,0,0:0:0:0:
256,88,147318,5,0,0:0:0:0:
256,88,147657,1,0,0:0:0:0:
256,88,147996,1,0,0:0:0:0:
256,88,148335,1,2,0:0:0:0:
256,164,148505,1,2,0:0:0:0:
256,176,148589,1,2,0:0:0:0:
256,188,148674,5,2,0:0:0:0:
326,154,148844,1,0,0:0:0:0:
343,79,149013,1,0,0:0:0:0:
295,19,149183,1,0,0:0:0:0:
218,19,149352,1,0,0:0:0:0:
170,79,149522,1,0,0:0:0:0:
187,154,149691,1,0,0:0:0:0:
256,188,149861,1,2,0:0:0:0:
256,200,149945,1,2,0:0:0:0:
256,212,150030,5,2,0:0:0:0:
325,178,150199,1,0,0:0:0:0:
342,103,150369,1,0,0:0:0:0:
294,43,150538,1,0,0:0:0:0:
217,43,150708,1,0,0:0:0:0:
169,103,150877,1,0,0:0:0:0:
186,178,151047,1,0,0:0:0:0:
256,212,151216,1,2,0:0:0:0:
256,224,151301,1,2,0:0:0:0:
256,236,151386,6,0,L|256:272,3,27.4999976158142,2|0|8|2,0:0|0:0|0:0|0:0,0:0:0:0:
300,172,151725,2,0,L|324:159,3,27.4999976158142,2|0|8|2,0:0|0:0|0:0|0:0,0:0:0:0:
212,172,152064,2,0,L|188:159,3,27.4999976158142,2|0|8|2,0:0|0:0|0:0|0:0,0:0:0:0:
256,104,152403,2,0,L|256:64,3,27.4999976158142,2|0|8|2,0:0|0:0|0:0|0:0,0:0:0:0:
256,0,152742,5,2,0:0:0:0:
256,0,153759,5,0,0:0:0:0:
152,292,154097,6,0,P|136:352|72:320,1,140.249990515709,6|0,0:0|0:0,0:0:0:0:
24,272,154436,2,0,L|24:120,1,140.249990515709,10|0,0:0|0:0,0:0:0:0:
56,60,154775,2,0,B|88:52|88:52|156:68,1,93.4999936771393,0|2,0:0|0:0,0:0:0:0:
236,36,155114,2,0,B|294:50|294:50|326:42,1,93.4999936771393,8|0,0:0|0:0,0:0:0:0:
344,36,155368,1,0,0:0:0:0:
360,28,155453,6,0,P|348:73|362:117,1,93.4999936771393,2|0,0:0|0:0,0:0:0:0:
412,196,155792,2,0,P|426:240|414:285,1,93.4999936771393,8|0,0:0|0:0,0:0:0:0:
340,340,156131,1,0,0:0:0:0:
264,284,156300,2,0,P|252:240|266:196,2,93.4999936771393,2|8|2,0:0|0:0|0:0,0:0:0:0:
340,340,156809,6,0,L|176:340,1,140.249990515709,2|0,0:0|0:0,0:0:0:0:
136,292,157148,2,0,P|139:227|76:208,1,140.249990515709,10|0,0:0|0:0,0:0:0:0:
3,240,157487,2,0,P|-4:195|18:155,1,93.4999936771393,0|2,0:0|0:0,0:0:0:0:
92,100,157826,2,0,P|76:84|64:60,2,46.7499968385696,8|0|0,0:0|0:0|0:0,0:0:0:0:
108,112,158080,1,0,0:0:0:0:
124,120,158165,2,0,L|248:120,1,93.4999936771393,2|0,0:0|0:0,0:0:0:0:
312,120,158504,2,0,L|405:120,1,93.4999936771393,8|0,0:0|0:0,0:0:0:0:
444,32,158843,5,8,0:3:0:0:
444,32,159012,1,8,0:0:0:0:
360,200,159182,1,0,0:0:0:0:
360,200,159351,1,2,0:0:0:0:
312,120,159521,6,0,L|148:120,1,140.249990515709,6|0,0:0|0:0,0:0:0:0:
104,80,159860,2,0,P|52:92|60:176,1,140.249990515709,10|0,0:0|0:0,0:0:0:0:
0,228,160199,2,0,P|41:248|87:240,1,93.4999936771393,0|2,0:0|0:0,0:0:0:0:
180,240,160538,2,0,P|225:248|267:229,1,93.4999936771393,8|0,0:0|0:0,0:0:0:0:
280,216,160792,1,0,0:0:0:0:
292,204,160877,6,0,L|296:320,1,93.4999936771393,2|0,0:0|0:0,0:0:0:0:
380,260,161216,2,0,L|376:144,1,93.4999936771393,8|0,0:0|0:0,0:0:0:0:
368,148,161470,1,0,0:0:0:0:
360,133,161555,6,0,P|357:109|363:87,1,46.7499968385696,0|0,0:0|0:0,0:0:0:0:
280,120,161724,2,0,P|277:97|283:75,1,46.7499968385696,2|0,0:0|0:0,0:0:0:0:
192,52,161894,2,0,P|189:75|195:97,1,46.7499968385696,8|0,0:0|0:0,0:0:0:0:
111,64,162063,2,0,P|108:87|114:109,1,46.7499968385696,2|0,0:0|0:0,0:0:0:0:
24,80,162233,6,0,B|16:96|16:96|32:112|32:112|16:128|16:128|32:144|32:144|16:160|16:160|32:176|32:176|16:192|16:192|32:208|32:208|16:224|16:224|24:240,1,206.249982118607,6|2,0:0|0:0,0:0:0:0:
4,244,163588,6,0,P|52:236|108:264,3,93.4999936771393,12|8|8|2,0:0|0:0|0:3|0:0,0:0:0:0:
172,304,164266,2,0,B|176:376|176:376|196:304,1,140.249990515709,10|0,0:0|0:0,0:0:0:0:
252,256,164605,2,0,B|270:190|270:190|274:262,1,140.249990515709,2|0,0:0|0:0,0:0:0:0:
352,248,164944,6,0,P|420:261|388:322,1,140.249990515709,6|0,0:0|0:0,0:0:0:0:
328,332,165283,2,0,L|152:332,1,140.249990515709,10|0,0:0|0:0,0:0:0:0:
120,376,165622,2,0,P|107:331|123:288,1,93.4999936771393,0|2,0:0|0:0,0:0:0:0:
172,208,165961,2,0,P|187:164|175:120,1,93.4999936771393,8|0,0:0|0:0,0:0:0:0:
168,108,166216,1,0,0:0:0:0:
160,96,166300,6,0,L|253:96,1,93.4999936771393,2|0,0:0|0:0,0:0:0:0:
347,96,166639,2,0,L|440:96,1,93.4999936771393,8|0,0:0|0:0,0:0:0:0:
496,172,166978,1,0,0:0:0:0:
444,252,167148,2,0,P|432:296|445:340,2,93.4999936771393,2|8|2,0:0|0:0|0:0,0:0:0:0:
496,172,167656,6,0,L|355:172,1,140.249990515709,2|0,0:0|0:0,0:0:0:0:
307,234,167995,2,0,P|314:297|251:307,1,140.249990515709,10|0,0:0|0:0,0:0:0:0:
184,348,168334,2,0,P|171:303|187:260,1,93.4999936771393,0|2,0:0|0:0,0:0:0:0:
116,200,168673,2,0,P|100:216|76:228,2,46.7499968385696,8|0|0,0:0|0:0|0:0,0:0:0:0:
128,184,168927,1,0,0:0:0:0:
136,168,169012,2,0,L|136:44,1,93.4999936771393,2|0,0:0|0:0,0:0:0:0:
224,40,169351,2,0,L|224:133,1,93.4999936771393,8|0,0:0|0:0,0:0:0:0:
304,184,169690,5,2,0:0:0:0:
304,184,169860,1,8,0:0:0:0:
404,24,170029,1,0,0:0:0:0:
404,24,170199,1,0,0:0:0:0:
480,80,170368,6,0,L|480:224,1,140.249990515709,2|0,0:0|0:0,0:0:0:0:
432,284,170707,2,0,P|379:241|313:256,1,140.249990515709,10|0,0:0|0:0,0:0:0:0:
240,228,171046,2,0,P|230:273|250:314,1,93.4999936771393,0|2,0:0|0:0,0:0:0:0:
172,364,171385,2,0,P|142:329|97:318,1,93.4999936771393,8|0,0:0|0:0,0:0:0:0:
80,328,171639,1,0,0:0:0:0:
64,336,171724,6,0,L|64:232,1,93.4999936771393,2|0,0:0|0:0,0:0:0:0:
64,148,172063,1,8,0:0:0:0:
148,188,172233,2,0,L|148:240,2,46.7499968385696,0|0|0,0:0|0:0|0:0,0:0:0:0:
232,148,172571,2,0,P|260:156|272:188,1,46.7499968385696,2|0,0:0|0:0,0:0:0:0:
348,215,172741,2,0,P|332:233|310:237,1,46.7499968385696,8|0,0:0|0:0,0:0:0:0:
236,280,172910,2,0,P|227:258|234:236,1,46.7499968385696,2|0,0:0|0:0,0:0:0:0:
120,308,173080,6,0,B|112:292|112:292|128:276|128:276|112:260|112:260|128:244|128:244|112:228|112:228|128:212|128:212|112:196|112:196|128:180|128:180|112:164|112:164|120:148,1,206.249982118607,6|0,0:0|0:0,0:0:0:0:
108,140,174436,6,0,P|154:148|208:128,3,93.4999936771393,12|0|8|0,0:0|0:0|0:3|0:0,0:0:0:0:
268,196,175114,2,0,B|272:268|272:268|292:196,1,140.249990515709,0|0,0:0|0:0,0:0:0:0:
348,144,175453,2,0,B|367:78|367:78|371:150,1,140.249990515709,0|0,0:0|0:0,0:0:0:0:
404,224,175792,6,0,B|415:324|415:324|423:375|345:393|326:344,1,211.749988103867,6|0,0:0|0:0,0:0:0:0:
156,300,176470,6,0,B|272:304|272:304|244:340,1,140.249990515709,8|0,0:0|0:0,0:0:0:0:
128,204,176809,2,0,B|12:208|12:208|40:244,1,140.249990515709,0|0,0:0|0:0,0:0:0:0:
216,156,177148,6,0,L|200:36,1,115.49998646164,2|0,0:0|0:0,0:0:0:0:
320,56,177826,6,0,L|272:64,1,41.2499979972839,8|0,0:0|0:0,0:0:0:0:
336,84,177995,2,0,L|288:92,1,41.2499979972839,0|0,0:0|0:0,0:0:0:0:
100,128,178165,2,0,L|148:136,1,41.2499979972839,2|0,0:0|0:0,0:0:0:0:
84,156,178334,2,0,L|132:164,1,41.2499979972839,0|0,0:0|0:0,0:0:0:0:
320,192,178504,6,0,B|264:216|216:192|216:192|168:168|112:192,1,211.749988103867,2|0,0:0|0:0,0:0:0:0:
104,348,179182,6,0,B|129:372|129:372|165:272,1,140.249990515709,8|0,0:0|0:0,0:0:0:0:
204,36,179521,2,0,B|229:11|229:11|265:111,1,140.249990515709,0|0,0:0|0:0,0:0:0:0:
408,256,179860,6,0,L|284:272,1,115.49998646164,2|0,0:0|0:0,0:0:0:0:
460,356,180538,6,0,L|454:315,1,41.2499979972839,8|0,0:0|0:0,0:0:0:0:
488,340,180707,2,0,L|482:299,1,41.2499979972839,0|0,0:0|0:0,0:0:0:0:
372,132,180877,2,0,L|364:180,1,41.2499979972839,8|0,0:0|0:0,0:0:0:0:
344,116,181046,2,0,L|336:164,1,41.2499979972839,0|0,0:0|0:0,0:0:0:0:
148,252,181216,6,0,P|214:197|219:282,1,211.749988103867,6|0,0:0|0:0,0:0:0:0:
88,156,181894,6,0,B|80:52|80:52|116:24,1,140.249990515709,8|0,0:0|0:0,0:0:0:0:
292,76,182233,2,0,B|270:104|270:104|166:96,1,140.249990515709,0|0,0:0|0:0,0:0:0:0:
32,240,182571,6,0,L|152:232,1,115.49998646164,2|0,0:0|0:0,0:0:0:0:
110,315,183249,6,0,L|116:356,1,41.2499979972839,8|0,0:0|0:0,0:0:0:0:
88,372,183419,2,0,L|80:324,1,41.2499979972839,0|0,0:0|0:0,0:0:0:0:
260,284,183588,2,0,L|266:244,1,41.2499979972839,2|0,0:0|0:0,0:0:0:0:
294,260,183758,2,0,L|288:300,1,41.2499979972839,0|0,0:0|0:0,0:0:0:0:
472,356,183927,6,0,B|480:340|480:340|464:324|464:324|480:308|480:308|464:292|464:292|480:276|480:276|464:260|464:260|480:244|480:244|464:228|464:228|480:212|480:212|472:196,1,206.249982118607,6|2,0:0|0:0,0:0:0:0:
488,192,185283,6,0,P|440:200|384:172,3,93.4999936771393,12|8|8|2,0:0|0:0|0:3|0:0,0:0:0:0:
364,100,185961,2,0,B|360:28|360:28|340:100,1,140.249990515709,12|0,0:0|0:0,0:0:0:0:
312,168,186300,2,0,B|294:234|294:234|290:162,1,140.249990515709,2|0,0:0|0:0,0:0:0:0:
220,128,186639,6,0,B|176:144|140:116|140:116|108:136|108:136|72:104|4:112,1,211.749988103867,6|0,0:0|0:0,0:0:0:0:
180,0,187317,6,0,P|224:44|180:36,1,140.249990515709,8|0,0:0|0:0,0:0:0:0:
60,240,187656,2,0,P|16:196|60:204,1,140.249990515709,0|0,0:0|0:0,0:0:0:0:
224,268,187995,6,0,L|227:384,1,115.49998646164,2|0,0:0|0:0,0:0:0:0:
303,341,188673,6,0,L|304:296,1,41.2499979972839,8|0,0:0|0:0,0:0:0:0:
148,344,188843,2,0,L|144:296,1,41.2499979972839,0|0,0:0|0:0,0:0:0:0:
300,288,189012,2,0,L|301:243,1,41.2499979972839,2|0,0:0|0:0,0:0:0:0:
145,291,189182,2,0,L|141:243,1,41.2499979972839,0|0,0:0|0:0,0:0:0:0:
260,184,189351,6,0,B|228:83|228:83|192:186,1,211.749988103867,2|0,0:0|0:0,0:0:0:0:
380,144,190029,6,0,B|407:140|410:107|410:107|323:88,1,140.249990515709,8|0,0:0|0:0,0:0:0:0:
139,81,190368,2,0,B|52:91|52:91|52:124|79:130,1,140.249990515709,0|0,0:0|0:0,0:0:0:0:
231,127,190707,6,0,L|232:8,1,115.49998646164,2|0,0:0|0:0,0:0:0:0:
153,73,191385,6,0,L|150:114,1,41.2499979972839,8|0,0:0|0:0,0:0:0:0:
308,76,191555,2,0,L|309:117,1,41.2499979972839,0|0,0:0|0:0,0:0:0:0:
150,126,191724,2,0,L|147:167,1,41.2499979972839,8|0,0:0|0:0,0:0:0:0:
305,129,191894,2,0,L|306:170,1,41.2499979972839,0|0,0:0|0:0,0:0:0:0:
305,367,192063,6,0,P|244:307|328:295,1,211.749988103867,6|0,0:0|0:0,0:0:0:0:
163,233,192741,6,0,B|152:156|152:156|148:112|204:96,1,140.249990515709,10|0,0:0|0:0,0:0:0:0:
356,105,193080,2,0,B|388:112|384:156|384:156|373:233,1,140.249990515709,2|0,0:0|0:0,0:0:0:0:
268,144,193419,6,0,L|268:28,1,115.49998646164,2|0,0:0|0:0,0:0:0:0:
344,80,194097,6,0,L|347:121,1,41.2499979972839,6|0,0:0|0:0,0:0:0:0:
188,124,194266,2,0,L|189:83,1,41.2499979972839,0|0,0:0|0:0,0:0:0:0:
347,133,194436,2,0,L|350:174,1,41.2499979972839,8|0,0:3|0:0,0:0:0:0:
191,177,194605,2,0,L|192:136,1,41.2499979972839,2|0,0:0|0:0,0:0:0:0:
32,60,194775,6,0,B|24:76|24:76|40:92|40:92|24:108|24:108|40:124|40:124|24:140|24:140|40:156|40:156|24:172|24:172|40:188|40:188|24:204|24:204|32:220,1,206.249982118607,6|0,0:0|0:0,0:0:0:0:
24,228,196131,6,0,P|70:220|124:240,3,93.4999936771393,6|0|0|0,0:0|0:0|0:0|0:0,0:0:0:0:
196,188,196809,2,0,B|200:116|200:116|220:188,1,140.249990515709,0|0,0:0|0:0,0:0:0:0:
292,212,197148,2,0,B|310:278|310:278|314:206,1,140.249990515709,0|0,0:0|0:0,0:0:0:0:
372,152,197487,5,6,0:1:0:0:
