osu file format v14

[General]
AudioFilename: audio.mp3
AudioLeadIn: 0
PreviewTime: 78082
Countdown: 0
SampleSet: Normal
StackLeniency: 0.2
Mode: 0
LetterboxInBreaks: 0
WidescreenStoryboard: 1

[Editor]
DistanceSpacing: 0.7
BeatDivisor: 16
GridSize: 4
TimelineZoom: 4.699997

[Metadata]
Title:KAEDE
TitleUnicode:KAEDE
Artist:Ocelot
ArtistUnicode:Ocelot
Creator:Hollow Wings
Version:EX EX
Source:
Tags:japan diverse system dubstep Hatsune Miku DJ Ginsuke Ocelot SiSTEMA Function Phantom Thinktech fanzhen0019 Kalindraz Kawashiro Moecho Koiyuki Minakami Yuki mtbbsben Skystar Amamiya Yuko Irreversible
BeatmapID:1398809
BeatmapSetID:660630

[Difficulty]
HPDrainRate:4.8
CircleSize:3.5
OverallDifficulty:10
ApproachRate:9.6
SliderMultiplier:3.49999990463257
SliderTickRate:1

[Events]
//Background and Video events
0,0,"KAEDE.jpg",0,0
//Break Periods
2,100060,108826
2,110907,118318
//Storyboard Layer 0 (Background)
//Storyboard Layer 1 (Fail)
//Storyboard Layer 2 (Pass)
//Storyboard Layer 3 (Foreground)
//Storyboard Sound Samples

[TimingPoints]
2233,338.983050847458,4,2,99,80,1,0
23927,-200,4,2,99,80,0,0
45622,-100,4,2,99,70,0,0
51046,-66.6666666666667,4,2,99,80,0,0
56470,-200,4,1,99,100,0,1
57150,-50,4,1,99,100,0,1
59182,-200,4,1,99,100,0,1
59862,-50,4,1,99,100,0,1
61894,-200,4,1,99,100,0,1
62573,-50,4,1,99,100,0,1
64605,-200,4,1,99,100,0,1
65622,-50,4,1,99,100,0,1
66639,-200,4,1,99,100,0,0
67317,-200,4,1,99,100,0,1
67995,-50,4,1,99,100,0,1
70029,-200,4,1,99,100,0,1
70707,-50,4,1,99,100,0,1
72741,-200,4,1,99,100,0,1
73419,-50,4,1,99,100,0,1
75453,-200,4,1,99,100,0,1
76470,-50,4,1,99,100,0,1
77487,-200,4,1,99,100,0,0
78165,-200,4,1,99,80,0,1
78843,-20,4,1,99,80,0,1
80199,-50,4,1,99,80,0,1
80877,-200,4,1,99,80,0,1
81555,-20,4,1,99,80,0,1
82910,-50,4,1,99,80,0,1
83588,-200,4,1,99,80,0,1
84266,-20,4,1,99,80,0,1
85622,-50,4,1,99,80,0,1
88334,-200,4,1,99,80,0,0
89012,-200,4,1,99,80,0,1
89690,-20,4,1,99,80,0,1
91046,-50,4,1,99,80,0,1
91724,-200,4,1,99,80,0,1
92402,-20,4,1,99,80,0,1
93758,-50,4,1,99,80,0,1
94436,-200,4,1,99,80,0,1
95114,-20,4,1,99,80,0,1
96470,-50,4,1,99,80,0,1
99182,-200,4,1,99,80,0,1
99860,-200,4,2,99,60,0,0
121555,-200,4,2,99,80,0,0
143249,-100,4,2,99,70,0,0
148673,-66.6666666666667,4,2,99,80,0,0
154097,-200,4,1,99,100,0,1
154775,-50,4,1,99,100,0,1
156809,-200,4,1,99,100,0,1
157487,-50,4,1,99,100,0,1
159521,-200,4,1,99,100,0,1
160199,-50,4,1,99,100,0,1
162233,-200,4,1,99,100,0,1
163249,-50,4,1,99,100,0,1
164266,-200,4,1,99,100,0,0
164944,-200,4,1,99,100,0,1
165622,-50,4,1,99,100,0,1
167656,-200,4,1,99,100,0,1
168334,-50,4,1,99,100,0,1
170368,-200,4,1,99,100,0,1
171046,-50,4,1,99,100,0,1
173080,-200,4,1,99,100,0,1
174097,-50,4,1,99,100,0,1
175114,-200,4,1,99,100,0,0
175792,-200,4,1,99,80,0,1
176470,-20,4,1,99,80,0,1
177826,-50,4,1,99,80,0,1
178504,-200,4,1,99,80,0,1
179182,-20,4,1,99,80,0,1
180538,-50,4,1,99,80,0,1
181216,-200,4,1,99,80,0,1
181894,-20,4,1,99,80,0,1
183249,-50,4,1,99,80,0,1
185961,-200,4,1,99,80,0,0
186639,-200,4,1,99,80,0,1
187317,-20,4,1,99,80,0,1
188673,-50,4,1,99,80,0,1
189351,-200,4,1,99,80,0,1
190029,-20,4,1,99,80,0,1
191385,-50,4,1,99,80,0,1
192063,-200,4,1,99,80,0,1
192741,-20,4,1,99,80,0,1
194097,-50,4,1,99,80,0,1
196809,-200,4,1,99,80,0,1
197487,-100,4,2,99,60,0,0

[Colours]
Combo1 : 255,255,128
Combo2 : 91,173,255
Combo3 : 255,128,128
Combo4 : 255,128,64

[HitObjects]
256,192,21216,12,0,23758,0:0:0:0:
155,207,23927,5,6,0:0:0:0:
313,122,24605,1,0,0:0:0:0:
155,207,24944,1,0,0:0:0:0:
307,310,25283,2,0,L|481:321,2,174.999995231629,2|2|2,0:0|0:0|3:0,0:0:0:0:
307,310,26300,1,0,0:0:0:0:
46,319,26639,6,0,B|76:302|76:302|217:295,3,174.999995231629,2|0|0|0,0:0|0:0|0:0|0:0,0:0:0:0:
217,295,27995,1,2,0:0:0:0:
217,295,28504,1,2,0:0:0:0:
253,129,28673,2,0,L|234:32,3,87.4999976158143,2|0|0|0,0:3|0:0|0:0|0:0,0:0:0:0:
217,295,29351,5,2,0:0:0:0:
114,162,30029,1,0,0:0:0:0:
236,43,30368,1,0,0:0:0:0:
388,116,30707,2,0,L|213:122,2,174.999995231629,2|2|2,0:0|0:0|0:3,0:0:0:0:
114,162,31724,1,0,0:0:0:0:
114,162,32063,6,0,B|104:199|104:199|120:334,3,174.999995231629,2|0|0|0,0:0|0:0|0:0|0:0,0:0:0:0:
120,334,33419,1,2,0:0:0:0:
120,334,33927,1,2,0:0:0:0:
428,336,34097,1,2,0:3:0:0:
258,249,34266,1,0,0:0:0:0:
434,242,34436,1,0,0:0:0:0:
207,175,34605,1,0,0:0:0:0:
114,162,34775,5,6,0:0:0:0:
383,178,35453,1,0,0:0:0:0:
114,162,35792,1,0,0:0:0:0:
383,178,36131,2,0,B|417:155|417:155|479:36,2,174.999995231629,2|2|2,0:0|0:0|0:3,0:0:0:0:
479,36,37148,1,0,0:0:0:0:
300,167,37487,6,0,B|306:211|306:211|372:326,3,174.999995231629,2|0|0|0,0:0|0:0|0:0|0:0,0:0:0:0:
371,323,38843,1,2,0:0:0:0:
371,323,39351,1,2,0:0:0:0:
165,276,39521,2,0,L|77:281,3,87.4999976158143,2|0|0|0,0:3|0:0|0:0|0:0,0:0:0:0:
371,323,40199,5,2,0:0:0:0:
77,281,40877,1,0,0:0:0:0:
218,339,41216,1,0,0:0:0:0:
371,323,41555,2,0,L|204:246,2,174.999995231629,2|2|2,0:0|0:0|0:3,0:0:0:0:
371,323,42571,1,0,0:0:0:0:
326,32,42910,6,0,L|187:163,3,174.999995231629,2|0|0|0,0:0|0:0|0:0|0:0,0:0:0:0:
82,217,44266,2,0,L|138:211,6,43.7499988079071,2|0|0|0|0|0|2,0:0|0:0|0:0|0:0|0:0|0:0|0:0,0:0:0:0:
141,291,44860,1,2,0:0:0:0:
220,342,44944,2,0,L|304:320,3,87.4999976158143,2|0|0|0,0:3|0:0|0:0|0:0,0:0:0:0:
53,286,45622,6,0,B|87:273|87:273|393:340,7,349.999990463257,2|0|0|0|0|0|0|2,0:0|0:0|0:0|0:0|0:0|0:0|0:0|0:0,0:0:0:0:
199,212,48165,1,2,0:0:0:0:
123,19,48334,2,0,B|144:43|144:43|96:369,7,349.999990463257,2|0|0|0|0|0|0|2,0:0|0:0|0:0|0:0|0:0|0:0|0:0|0:0,0:0:0:0:
147,106,50877,2,0,L|234:118,1,87.4999976158143,2|2,0:0|0:0,0:0:0:0:
424,168,51046,6,0,B|297:196|297:196|164:195,7,262.500002861023,2|0|0|0|0|0|0|2,0:0|0:0|0:0|0:0|0:0|0:0|0:0|0:0,0:0:0:0:
147,106,52317,1,2,0:0:0:0:
80,166,52402,2,0,B|145:281|145:281|234:378,7,262.500002861023,2|0|0|0|0|0|0|2,0:0|0:0|0:0|0:0|0:0|0:0|0:0|0:0,0:0:0:0:
156,339,53673,1,2,0:0:0:0:
231,292,53758,6,0,B|293:314|293:314|319:375,3,131.250001430512,2|0|8|2,0:0|0:0|0:0|0:0,0:0:0:0:
495,328,54097,2,0,B|441:288|441:288|377:300,3,131.250001430512,2|0|8|2,0:0|0:0|0:0|0:0,0:0:0:0:
212,206,54436,2,0,B|262:163|262:163|327:171,3,131.250001430512,2|0|8|2,0:0|0:0|0:0|0:0,0:0:0:0:
475,128,54775,2,0,B|414:154|414:154|392:215,3,131.250001430512,2|0|8|2,0:0|0:0|0:0|0:0,0:0:0:0:
158,352,55114,6,0,B|251:324|251:324|378:323|378:323|297:187|297:187|271:46,1,525.000005722046,2|0,0:0|0:0,0:0:0:0:
182,56,55538,2,0,L|53:87,1,131.250001430512
142,148,55707,2,0,L|228:147,2,65.6250007152558
65,361,56046,2,0,L|72:227,1,131.250001430512,0|0,0:0|0:0,0:0:0:0:
451,248,56470,6,0,L|465:248,12,10.9374997019768,6|0|0|0|0|0|0|0|0|0|0|0|0,0:0|0:0|0:0|0:0|0:0|0:0|0:0|0:0|0:0|0:0|0:0|0:0|0:0,0:0:0:0:
241,166,56809,2,0,L|226:162,12,10.9374997019768,2|0|0|0|0|0|0|0|0|0|0|0|0,0:0|0:0|0:0|0:0|0:0|0:0|0:0|0:0|0:0|0:0|0:0|0:0|0:0,0:0:0:0:
66,296,57148,5,8,0:0:0:0:
201,244,57317,2,0,L|287:234,3,87.4999976158143
119,231,57487,1,2,0:0:0:0:
40,50,57656,2,0,B|26:91|26:91|37:227,1,174.999995231629
66,296,57826,6,0,L|415:314,2,349.999990463257
66,296,58207,2,0,B|40:329|40:329|44:374,3,87.4999976158143
125,355,58504,5,8,0:0:0:0:
212,19,58673,2,0,L|125:28,1,87.4999976158143
350,74,58843,2,0,L|263:83,1,87.4999976158143
485,131,59012,2,0,L|398:140,1,87.4999976158143,2|0,0:0|0:0,0:0:0:0:
161,171,59182,6,0,L|146:166,12,10.9374997019768,2|0|0|0|0|0|0|0|0|0|0|0|0,0:0|0:0|0:0|0:0|0:0|0:0|0:0|0:0|0:0|0:0|0:0|0:0|0:0,0:0:0:0:
125,355,59521,2,0,L|108:356,12,10.9374997019768,2|0|0|0|0|0|0|0|0|0|0|0|0,0:0|0:0|0:0|0:0|0:0|0:0|0:0|0:0|0:0|0:0|0:0|0:0|0:0,0:0:0:0:
311,290,59860,5,8,0:0:0:0:
504,189,60029,2,0,L|488:275,3,87.4999976158143
408,238,60199,2,0,L|239:186,1,174.999995231629
67,126,60368,2,0,L|188:251,1,174.999995231629
428,160,60538,6,0,L|96:272,2,349.999990463257,2|0|2,0:0|0:0|0:0,0:0:0:0:
428,160,60919,2,0,B|456:56,3,87.4999976158143,0|0|0|2,0:0|0:0|0:0|0:0,0:0:0:0:
481,364,61216,5,8,0:0:0:0:
315,105,61385,2,0,L|300:19,1,87.4999976158143
171,109,61555,2,0,L|155:22,1,87.4999976158143,8|0,0:0|0:0,0:0:0:0:
30,117,61724,2,0,L|14:30,1,87.4999976158143
215,195,61894,6,0,L|201:195,12,10.9374997019768,4|0|0|0|0|0|0|0|0|0|0|0|0,0:0|0:0|0:0|0:0|0:0|0:0|0:0|0:0|0:0|0:0|0:0|0:0|0:0,0:0:0:0:
10,257,62233,2,0,L|25:253,12,10.9374997019768,2|0|0|0|0|0|0|0|0|0|0|0|0,0:0|0:0|0:0|0:0|0:0|0:0|0:0|0:0|0:0|0:0|0:0|0:0|0:0,0:0:0:0:
215,294,62571,5,8,0:0:0:0:
458,243,62741,2,0,L|372:233,3,87.4999976158143
313,295,62910,1,2,0:0:0:0:
340,34,63080,2,0,B|389:40|389:40|421:166,1,174.999995231629
369,360,63249,6,0,L|20:342,2,349.999990463257,2|0|0,0:0|0:0|0:0,0:0:0:0:
369,360,63631,2,0,B|455:348,3,87.4999976158143
313,295,63927,5,8,0:0:0:0:
25,92,64097,2,0,L|112:101,1,87.4999976158143,2|0,0:0|0:0,0:0:0:0:
222,319,64266,2,0,L|135:310,1,87.4999976158143,2|0,0:0|0:0,0:0:0:0:
183,51,64436,2,0,L|270:60,1,87.4999976158143
351,171,64605,6,0,L|368:164,12,10.9374997019768,2|0|0|0|0|0|0|0|0|0|0|0|0,0:0|0:0|0:0|0:0|0:0|0:0|0:0|0:0|0:0|0:0|0:0|0:0|0:0,0:0:0:0:
387,355,64944,2,0,L|404:356,12,10.9374997019768,8|0|0|0|0|0|0|0|0|0|0|0|0,0:0|0:0|0:0|0:0|0:0|0:0|0:0|0:0|0:0|0:0|0:0|0:0|0:0,0:0:0:0:
201,290,65283,5,2,0:0:0:0:
19,341,65453,2,0,L|2:342,4,10.9374997019768,8|0|0|0|0,0:0|0:0|0:0|0:0|0:0,0:0:0:0:
110,334,65622,2,0,L|290:345,1,174.999995231629
457,92,65792,2,0,L|414:261,1,174.999995231629
333,277,65961,6,0,L|102:6,3,349.999990463257,12|0|8|0,0:0|0:0|0:3|0:0,0:0:0:0:
284,344,66639,6,0,L|273:347,28,10.9374997019768,2|0|0|0|0|0|0|0|0|0|0|0|0|0|0|0|2|0|0|0|0|0|0|0|0|0|0|0|0,0:0|0:0|0:0|0:0|0:0|0:0|0:0|0:0|0:0|0:0|0:0|0:0|0:0|0:0|0:0|0:0|0:0|0:0|0:0|0:0|0:0|0:0|0:0|0:0|0:0|0:0|0:0|0:0|0:0,0:0:0:0:
254,145,67317,6,0,L|240:145,12,10.9374997019768,6|0|0|0|0|0|0|0|0|0|0|0|0,0:0|0:0|0:0|0:0|0:0|0:0|0:0|0:0|0:0|0:0|0:0|0:0|0:0,0:0:0:0:
97,22,67656,2,0,L|112:18,12,10.9374997019768,2|0|0|0|0|0|0|0|0|0|0|0|0,0:0|0:0|0:0|0:0|0:0|0:0|0:0|0:0|0:0|0:0|0:0|0:0|0:0,0:0:0:0:
168,203,67995,5,8,0:0:0:0:
94,373,68165,2,0,L|9:349,3,87.4999976158143
184,354,68334,1,0,0:0:0:0:
113,119,68504,2,0,B|111:250|111:250|122:293,1,174.999995231629
208,270,68673,6,0,L|490:61,2,349.999990463257,2|0|0,0:0|0:0|0:0,0:0:0:0:
208,270,69055,2,0,B|184:354,3,87.4999976158143
279,323,69351,5,8,0:0:0:0:
382,104,69521,2,0,L|415:22,1,87.4999976158143
186,105,69690,2,0,L|152:24,1,87.4999976158143,2|0,0:0|0:0,0:0:0:0:
83,237,69860,2,0,L|0:209,1,87.4999976158143
288,130,70029,6,0,L|277:133,12,10.9374997019768,2|0|0|0|0|0|0|0|0|0|0|0|0,0:0|0:0|0:0|0:0|0:0|0:0|0:0|0:0|0:0|0:0|0:0|0:0|0:0,0:0:0:0:
448,242,70368,2,0,L|465:243,12,10.9374997019768,2|0|0|0|0|0|0|0|0|0|0|0|0,0:0|0:0|0:0|0:0|0:0|0:0|0:0|0:0|0:0|0:0|0:0|0:0|0:0,0:0:0:0:
279,323,70707,5,8,0:0:0:0:
63,361,70877,2,0,L|13:290,3,87.4999976158143
103,275,71046,2,0,L|137:81,1,174.999995231629
374,200,71216,2,0,L|204:243,1,174.999995231629
190,36,71385,6,0,L|355:344,2,349.999990463257,2|0|0,0:0|0:0|0:0,0:0:0:0:
190,36,71766,2,0,B|133:102,3,87.4999976158143,0|0|0|2,0:0|0:0|0:0|0:0,0:0:0:0:
63,41,72063,5,8,0:0:0:0:
468,362,72233,2,0,L|503:279,1,87.4999976158143
374,200,72402,2,0,L|390:113,1,87.4999976158143,8|0,0:0|0:0,0:0:0:0:
211,121,72571,2,0,L|190:34,1,87.4999976158143
21,356,72741,6,0,L|35:356,12,10.9374997019768,2|0|0|0|0|0|0|0|0|0|0|0|0,0:0|0:0|0:0|0:0|0:0|0:0|0:0|0:0|0:0|0:0|0:0|0:0|0:0,0:0:0:0:
182,226,73080,2,0,L|167:222,12,10.9374997019768,2|0|0|0|0|0|0|0|0|0|0|0|0,0:0|0:0|0:0|0:0|0:0|0:0|0:0|0:0|0:0|0:0|0:0|0:0|0:0,0:0:0:0:
374,200,73419,5,8,0:0:0:0:
39,264,73588,2,0,L|123:295,3,87.4999976158143
213,305,73758,1,0,0:0:0:0:
455,157,73927,2,0,B|406:157|406:157|281:123,1,174.999995231629
128,46,74097,6,0,L|295:353,2,349.999990463257,2|0|0,0:0|0:0|0:0,0:0:0:0:
128,46,74478,2,0,B|87:33|87:33|42:34,3,87.4999976158143
222,26,74775,5,8,0:0:0:0:
5,179,74944,2,0,L|92:170,1,87.4999976158143
420,47,75114,2,0,L|333:56,1,87.4999976158143,2|0,0:0|0:0,0:0:0:0:
198,212,75283,2,0,L|285:203,1,87.4999976158143
498,101,75453,6,0,L|481:94,12,10.9374997019768,2|0|0|0|0|0|0|0|0|0|0|0|0,0:0|0:0|0:0|0:0|0:0|0:0|0:0|0:0|0:0|0:0|0:0|0:0|0:0,0:0:0:0:
281,122,75792,2,0,L|264:123,12,10.9374997019768
255,339,76131,5,0,0:0:0:0:
65,295,76300,2,0,L|82:296,4,10.9374997019768
150,344,76470,2,0,L|202:160,1,174.999995231629
257,19,76639,2,0,L|300:188,1,174.999995231629
380,231,76809,6,0,L|31:203,3,349.999990463257,6|0|8|0,0:0|0:0|0:3|0:0,0:0:0:0:
470,193,77487,6,0,L|480:189,28,10.9374997019768,2|0|0|0|0|0|0|0|0|0|0|0|0|0|0|0|0|0|0|0|0|0|0|0|0|0|0|0|0,0:0|0:0|0:0|0:0|0:0|0:0|0:0|0:0|0:0|0:0|0:0|0:0|0:0|0:0|0:0|0:0|0:0|0:0|0:0|0:0|0:0|0:0|0:0|0:0|0:0|0:0|0:0|0:0|0:0,0:0:0:0:
264,209,78165,6,0,L|244:206,28,10.9374997019768,6|0|0|0|0|0|0|0|0|0|0|0|0|0|0|0|0|0|0|0|0|0|0|0|0|0|0|0|0,0:0|0:0|0:0|0:0|0:0|0:0|0:0|0:0|0:0|0:0|0:0|0:0|0:0|0:0|0:0|0:0|0:0|0:0|0:0|0:0|0:0|0:0|0:0|0:0|0:0|0:0|0:0|0:0|0:0,0:0:0:0:
177,177,78843,6,0,B|160:128|160:128|204:91,12,109.374997019768,8|0|0|0|0|0|0|0|0|0|0|0|0,0:0|0:0|0:0|0:0|0:0|0:0|0:0|0:0|0:0|0:0|0:0|0:0|0:0,0:0:0:0:
182,261,79182,2,0,B|147:300|147:300|93:281,12,109.374997019768
327,271,79521,6,0,L|435:288,28,109.374997019768,2|0|0|0|0|0|0|0|0|0|0|0|0|0|0|0|0|0|0|0|0|0|0|0|0|0|0|0|0,0:0|0:0|0:0|0:0|0:0|0:0|0:0|0:0|0:0|0:0|0:0|0:0|0:0|0:0|0:0|0:0|0:0|0:0|0:0|0:0|0:0|0:0|0:0|0:0|0:0|0:0|0:0|0:0|0:0,0:0:0:0:
264,381,80199,6,0,L|253:294,1,87.4999976158143,8|0,0:0|0:0,0:0:0:0:
234,113,80368,2,0,L|223:26,1,87.4999976158143
136,23,80538,2,0,L|147:110,1,87.4999976158143,2|0,0:0|0:0,0:0:0:0:
166,291,80707,2,0,L|177:378,1,87.4999976158143
362,354,80877,6,0,L|382:351,28,10.9374997019768,2|0|0|0|0|0|0|0|0|0|0|0|0|0|0|0|0|0|0|0|0|0|0|0|0|0|0|0|0,0:0|0:0|0:0|0:0|0:0|0:0|0:0|0:0|0:0|0:0|0:0|0:0|0:0|0:0|0:0|0:0|0:0|0:0|0:0|0:0|0:0|0:0|0:0|0:0|0:0|0:0|0:0|0:0|0:0,0:0:0:0:
339,278,81555,6,0,B|356:229|356:229|313:192,12,109.374997019768,8|0|0|0|0|0|0|0|0|0|0|0|0,0:0|0:0|0:0|0:0|0:0|0:0|0:0|0:0|0:0|0:0|0:0|0:0|0:0,0:0:0:0:
238,226,81894,2,0,B|184:244|184:244|149:205,12,109.374997019768
95,135,82233,6,0,L|86:26,28,109.374997019768,2|0|0|0|0|0|0|0|0|0|0|0|0|0|0|0|0|0|0|0|0|0|0|0|2|0|0|0|0,0:0|0:0|0:0|0:0|0:0|0:0|0:0|0:0|0:0|0:0|0:0|0:0|0:0|0:0|0:0|0:0|0:0|0:0|0:0|0:0|0:0|0:0|0:0|0:0|0:0|0:0|0:0|0:0|0:0,0:0:0:0:
0,268,82910,6,0,L|86:278,1,87.4999976158143,8|0,0:0|0:0,0:0:0:0:
362,164,83080,2,0,L|275:153,1,87.4999976158143
8,124,83249,2,0,L|94:134,1,87.4999976158143,8|0,0:0|0:0,0:0:0:0:
354,308,83419,2,0,L|268:298,1,87.4999976158143
175,339,83588,6,0,L|195:342,28,10.9374997019768,6|0|0|0|0|0|0|0|0|0|0|0|0|0|0|0|0|0|0|0|0|0|0|0|0|0|0|0|0,0:0|0:0|0:0|0:0|0:0|0:0|0:0|0:0|0:0|0:0|0:0|0:0|0:0|0:0|0:0|0:0|0:0|0:0|0:0|0:0|0:0|0:0|0:0|0:0|0:0|0:0|0:0|0:0|0:0,0:0:0:0:
287,226,84266,6,0,B|304:275|304:275|261:312,12,109.374997019768,8|0|0|0|0|0|0|0|0|0|0|0|0,0:0|0:0|0:0|0:0|0:0|0:0|0:0|0:0|0:0|0:0|0:0|0:0|0:0,0:0:0:0:
85,357,84605,2,0,B|34:346|34:346|23:291,12,109.374997019768
89,241,84944,6,0,L|199:246,28,109.374997019768,2|0|0|0|0|0|0|0|0|0|0|0|0|0|0|0|0|0|0|0|0|0|0|0|0|0|0|0|0,0:0|0:0|0:0|0:0|0:0|0:0|0:0|0:0|0:0|0:0|0:0|0:0|0:0|0:0|0:0|0:0|0:0|0:0|0:0|0:0|0:0|0:0|0:0|0:0|0:0|0:0|0:0|0:0|0:0,0:0:0:0:
177,163,85622,6,0,L|263:153,1,87.4999976158143,8|0,0:0|0:0,0:0:0:0:
341,293,85792,2,0,L|331:207,1,87.4999976158143
474,130,85961,2,0,L|388:140,1,87.4999976158143,2|0,0:0|0:0,0:0:0:0:
307,2,86131,2,0,L|318:89,1,87.4999976158143
471,331,86300,6,0,L|537:353,12,43.7499988079071,6|0|0|0|0|0|0|0|0|0|0|0|0,0:0|0:0|0:0|0:0|0:0|0:0|0:0|0:0|0:0|0:0|0:0|0:0|0:0,0:0:0:0:
341,293,86639,2,0,L|382:279,12,43.7499988079071,8|0|0|0|0|0|0|0|0|0|0|0|0,0:0|0:0|0:0|0:0|0:0|0:0|0:0|0:0|0:0|0:0|0:0|0:0|0:0,0:0:0:0:
213,350,86978,5,2,0:0:0:0:
131,38,87148,2,0,L|89:24,12,43.7499988079071,8|0|0|0|0|0|0|0|0|0|0|0|0,0:0|0:0|0:0|0:0|0:0|0:0|0:0|0:0|0:0|0:0|0:0|0:0|0:0,0:0:0:0:
171,108,87487,2,0,L|156:282,1,174.999995231629,2|2,0:0|0:0,0:0:0:0:
90,105,87656,6,0,L|433:37,3,349.999990463257,6|8|8|2,0:0|0:0|0:3|0:0,0:0:0:0:
16,61,88334,6,0,L|6:48,28,10.9374997019768,8|0|0|0|0|0|0|0|0|0|0|0|0|0|0|0|2|0|0|0|0|0|0|0|0|0|0|0|0,0:0|0:0|0:0|0:0|0:0|0:0|0:0|0:0|0:0|0:0|0:0|0:0|0:0|0:0|0:0|0:0|0:0|0:0|0:0|0:0|0:0|0:0|0:0|0:0|0:0|0:0|0:0|0:0|0:0,0:0:0:0:
226,116,89012,6,0,L|246:113,28,10.9374997019768,6|0|0|0|0|0|0|0|0|0|0|0|0|0|0|0|0|0|0|0|0|0|0|0|0|0|0|0|0,0:0|0:0|0:0|0:0|0:0|0:0|0:0|0:0|0:0|0:0|0:0|0:0|0:0|0:0|0:0|0:0|0:0|0:0|0:0|0:0|0:0|0:0|0:0|0:0|0:0|0:0|0:0|0:0|0:0,0:0:0:0:
326,128,89690,6,0,B|402:105|402:105|427:88,12,109.374997019768,8|0|0|0|0|0|0|0|0|0|0|0|0,0:0|0:0|0:0|0:0|0:0|0:0|0:0|0:0|0:0|0:0|0:0|0:0|0:0,0:0:0:0:
261,205,90029,2,0,B|242:282|242:282|245:312,12,109.374997019768
156,336,90368,6,0,L|48:319,28,109.374997019768,2|0|0|0|0|0|0|0|0|0|0|0|0|0|0|0|0|0|0|0|0|0|0|0|0|0|0|0|0,0:0|0:0|0:0|0:0|0:0|0:0|0:0|0:0|0:0|0:0|0:0|0:0|0:0|0:0|0:0|0:0|0:0|0:0|0:0|0:0|0:0|0:0|0:0|0:0|0:0|0:0|0:0|0:0|0:0,0:0:0:0:
48,319,91046,6,0,L|59:232,1,87.4999976158143,8|0,0:0|0:0,0:0:0:0:
47,21,91216,2,0,L|58:108,1,87.4999976158143
156,336,91385,2,0,L|167:249,1,87.4999976158143,2|0,0:0|0:0,0:0:0:0:
155,38,91555,2,0,L|166:125,1,87.4999976158143
262,356,91724,6,0,L|264:337,28,10.9374997019768,2|0|0|0|0|0|0|0|0|0|0|0|0|0|0|0|0|0|0|0|0|0|0|0|0|0|0|0|0,0:0|0:0|0:0|0:0|0:0|0:0|0:0|0:0|0:0|0:0|0:0|0:0|0:0|0:0|0:0|0:0|0:0|0:0|0:0|0:0|0:0|0:0|0:0|0:0|0:0|0:0|0:0|0:0|0:0,0:0:0:0:
340,301,92402,6,0,B|415:274|415:274|445:274,12,109.374997019768,8|0|0|0|0|0|0|0|0|0|0|0|0,0:0|0:0|0:0|0:0|0:0|0:0|0:0|0:0|0:0|0:0|0:0|0:0|0:0,0:0:0:0:
269,243,92741,2,0,B|208:192|208:192|192:166,12,109.374997019768
100,169,93080,6,0,L|112:61,28,109.374997019768,2|0|0|0|0|0|0|0|0|0|0|0|0|0|0|0|0|0|0|0|0|0|0|0|2|0|0|0|0,0:0|0:0|0:0|0:0|0:0|0:0|0:0|0:0|0:0|0:0|0:0|0:0|0:0|0:0|0:0|0:0|0:0|0:0|0:0|0:0|0:0|0:0|0:0|0:0|0:0|0:0|0:0|0:0|0:0,0:0:0:0:
25,72,93758,6,0,L|112:61,1,87.4999976158143,8|0,0:0|0:0,0:0:0:0:
327,56,93927,2,0,L|413:46,1,87.4999976158143
396,281,94097,2,0,L|310:271,1,87.4999976158143,8|0,0:0|0:0,0:0:0:0:
95,266,94266,2,0,L|8:255,1,87.4999976158143
233,82,94436,6,0,L|213:85,28,10.9374997019768,6|0|0|0|0|0|0|0|0|0|0|0|0|0|0|0|2|0|0|0|0|0|0|0|0|0|0|0|0,0:0|0:0|0:0|0:0|0:0|0:0|0:0|0:0|0:0|0:0|0:0|0:0|0:0|0:0|0:0|0:0|0:0|0:0|0:0|0:0|0:0|0:0|0:0|0:0|0:0|0:0|0:0|0:0|0:0,0:0:0:0:
220,174,95114,6,0,B|236:200|236:200|297:251,12,109.374997019768,10|0|0|0|0|0|0|0|0|0|0|0|0,0:0|0:0|0:0|0:0|0:0|0:0|0:0|0:0|0:0|0:0|0:0|0:0|0:0,0:0:0:0:
138,209,95453,2,0,B|108:209|108:209|33:236,12,109.374997019768,2|0|0|0|0|0|0|0|2|0|0|0|0,0:0|0:0|0:0|0:0|0:0|0:0|0:0|0:0|0:0|0:0|0:0|0:0|0:0,0:0:0:0:
192,288,95792,6,0,L|280:355,28,109.374997019768,2|0|0|0|0|0|0|0|0|0|0|0|0|0|0|0|2|0|0|0|0|0|0|0|0|0|0|0|0,0:0|0:0|0:0|0:0|0:0|0:0|0:0|0:0|0:0|0:0|0:0|0:0|0:0|0:0|0:0|0:0|0:0|0:0|0:0|0:0|0:0|0:0|0:0|0:0|0:0|0:0|0:0|0:0|0:0,0:0:0:0:
280,355,96470,6,0,L|194:345,1,87.4999976158143,10|0,0:0|0:0,0:0:0:0:
24,323,96639,2,0,L|34:237,1,87.4999976158143
59,62,96809,2,0,L|145:72,1,87.4999976158143,8|0,0:3|0:0,0:0:0:0:
315,94,96978,2,0,L|305:180,1,87.4999976158143,2|0,0:0|0:0,0:0:0:0:
76,142,97148,6,0,L|10:164,12,43.7499988079071,6|0|0|0|0|0|0|0|0|0|0|0|0,0:0|0:0|0:0|0:0|0:0|0:0|0:0|0:0|0:0|0:0|0:0|0:0|0:0,0:0:0:0:
212,162,97487,2,0,L|171:148,12,43.7499988079071
246,275,97826,1,0,0:0:0:0:
454,359,97995,2,0,L|496:345,12,43.7499988079071
376,366,98334,2,0,L|201:351,1,174.999995231629
113,359,98504,6,0,L|37:15,3,349.999990463257,6|0|8|0,0:0|0:0|0:3|0:0,0:0:0:0:
26,344,99182,6,0,L|19:352,28,10.9374997019768,2|0|0|0|0|0|0|0|0|0|0|0|0|0|0|0|0|0|0|0|0|0|0|0|0|0|0|0|0,0:0|0:0|0:0|0:0|0:0|0:0|0:0|0:0|0:0|0:0|0:0|0:0|0:0|0:0|0:0|0:0|0:0|0:0|0:0|0:0|0:0|0:0|0:0|0:0|0:0|0:0|0:0|0:0|0:0,0:0:0:0:
240,268,99860,5,6,0:1:0:0:
218,212,109351,5,0,0:0:0:0:
218,212,109860,6,0,L|208:170,2,43.7499988079071,2|2|2,0:0|0:0|0:0,0:0:0:0:
222,68,110199,1,0,0:0:0:0:
194,306,110368,1,2,0:0:0:0:
222,68,110538,1,0,0:0:0:0:
282,347,110707,5,6,0:1:0:0:
256,192,118843,12,0,121385,0:0:0:0:
357,207,121555,21,6,0:0:0:0:
438,39,122233,1,0,0:0:0:0:
357,207,122571,1,0,0:0:0:0:
498,352,122910,2,0,B|362:361|362:361|310:354,2,174.999995231629,0|0|2,0:0|0:0|0:3,0:0:0:0:
498,352,123927,1,0,0:0:0:0:
249,318,124266,6,0,B|57:294,3,174.999995231629
75,296,125622,1,0,0:0:0:0:
75,296,126131,1,0,0:0:0:0:
281,231,126300,2,0,B|318:254|318:254|340:293,3,87.4999976158143,0|8|0|0,0:0|0:3|0:0|0:0,0:0:0:0:
340,293,126978,5,0,0:0:0:0:
262,130,127656,1,0,0:0:0:0:
417,28,127995,1,0,0:0:0:0:
262,130,128334,2,0,B|177:134|177:134|87:124,2,174.999995231629,0|0|2,0:0|0:0|0:3,0:0:0:0:
417,28,129351,1,0,0:0:0:0:
432,207,129690,6,0,B|457:380,3,174.999995231629
458,380,131046,1,0,0:0:0:0:
458,380,131555,1,0,0:0:0:0:
231,344,131724,1,0,0:0:0:0:
458,380,131894,1,8,0:3:0:0:
135,356,132063,1,0,0:0:0:0:
46,96,132233,1,8,0:3:0:0:
86,270,132402,5,4,0:0:0:0:
117,173,133080,1,0,0:0:0:0:
381,138,133419,1,0,0:0:0:0:
117,173,133758,2,0,B|297:193,2,174.999995231629,0|0|2,0:0|0:0|0:3,0:0:0:0:
33,36,134775,1,0,0:0:0:0:
211,140,135114,6,0,B|162:308,3,174.999995231629
162,308,136470,1,0,0:0:0:0:
162,308,136978,1,0,0:0:0:0:
129,117,137148,2,0,B|150:77|150:77|196:48,3,87.4999976158143,0|8|0|0,0:0|0:3|0:0|0:0,0:0:0:0:
162,308,137826,5,0,0:0:0:0:
407,273,138504,1,0,0:0:0:0:
277,253,138843,1,0,0:0:0:0:
162,308,139182,2,0,B|88:351|88:351|3:379,2,174.999995231629,0|0|2,0:0|0:0|0:3,0:0:0:0:
162,308,140199,1,0,0:0:0:0:
124,68,140538,6,0,B|95:146|95:146|93:237,3,174.999995231629
262,308,141894,2,0,L|306:313,6,43.7499988079071
377,250,142487,1,0,0:0:0:0:
388,343,142571,2,0,B|427:363|427:363|470:367,3,87.4999976158143,0|8|0|8,0:0|0:3|0:0|0:3,0:0:0:0:
420,160,143249,6,0,B|114:93|114:93|80:106,7,349.999990463257,6|0|0|0|0|0|0|2,0:0|0:0|0:0|0:0|0:0|0:0|0:0|0:0,0:0:0:0:
305,222,145792,1,2,0:0:0:0:
94,353,145961,2,0,B|36:40|36:40|57:16,7,349.999990463257,2|0|0|0|0|0|0|2,0:0|0:0|0:0|0:0|0:0|0:0|0:0|0:0,0:0:0:0:
164,167,148504,2,0,L|251:168,1,87.4999976158143,2|2,0:0|0:0,0:0:0:0:
421,20,148673,6,0,B|371:139|371:139|294:248,7,262.500002861023,2|0|0|0|0|0|0|2,0:0|0:0|0:0|0:0|0:0|0:0|0:0|0:0,0:0:0:0:
208,249,149944,1,2,0:0:0:0:
252,169,150029,2,0,B|352:254|352:254|430:360,7,262.500002861023,2|0|0|0|0|0|0|2,0:0|0:0|0:0|0:0|0:0|0:0|0:0|0:0,0:0:0:0:
348,320,151300,1,2,0:0:0:0:
420,268,151385,6,0,B|452:140,3,131.250001430512,2|0|8|2,0:0|0:0|0:0|0:0,0:0:0:0:
247,136,151724,2,0,B|340:227,3,131.250001430512,2|0|8|2,0:0|0:0|0:0|0:0,0:0:0:0:
455,55,152063,2,0,B|328:90,3,131.250001430512,2|0|8|2,0:0|0:0|0:0|0:0,0:0:0:0:
147,114,152402,2,0,B|53:22,3,131.250001430512,2|0|8|2,0:0|0:0|0:0|0:0,0:0:0:0:
241,46,152741,6,0,B|215:187|215:187|134:323|134:323|261:324|261:324|354:352,1,525.000005722046,2|0,0:0|0:0,0:0:0:0:
442,358,153165,2,0,L|467:229,1,131.250001430512
369,244,153334,2,0,L|283:243,2,65.6250007152558
331,46,153673,2,0,L|402:157,1,131.250001430512
61,248,154097,6,0,L|47:248,12,10.9374997019768,6|0|0|0|0|0|0|0|0|0|0|0|0,0:0|0:0|0:0|0:0|0:0|0:0|0:0|0:0|0:0|0:0|0:0|0:0|0:0,0:0:0:0:
245,347,154436,2,0,L|260:343,12,10.9374997019768,10|0|0|0|0|0|0|0|0|0|0|0|0,0:0|0:0|0:0|0:0|0:0|0:0|0:0|0:0|0:0|0:0|0:0|0:0|0:0,0:0:0:0:
446,296,154775,5,0,0:0:0:0:
240,261,154944,2,0,L|154:251,3,87.4999976158143,2|0|0|0,0:0|0:0|0:0|0:0,0:0:0:0:
274,183,155114,1,8,0:0:0:0:
92,86,155283,2,0,B|152:250,1,174.999995231629
98,327,155453,6,0,B|406:307|406:307|446:296,2,349.999990463257,2|0|8,0:0|0:0|0:0,0:0:0:0:
98,327,155834,2,0,B|34:267,3,87.4999976158143
105,178,156131,5,0,0:0:0:0:
316,352,156300,2,0,L|325:265,1,87.4999976158143,2|0,0:0|0:0,0:0:0:0:
495,113,156470,2,0,L|414:147,1,87.4999976158143,8|0,0:0|0:0,0:0:0:0:
194,78,156639,2,0,L|264:129,1,87.4999976158143,2|0,0:0|0:0,0:0:0:0:
421,243,156809,6,0,L|436:238,12,10.9374997019768,2|0|0|0|0|0|0|0|0|0|0|0|0,0:0|0:0|0:0|0:0|0:0|0:0|0:0|0:0|0:0|0:0|0:0|0:0|0:0,0:0:0:0:
244,299,157148,2,0,L|233:298,12,10.9374997019768,10|0|0|0|0|0|0|0|0|0|0|0|0,0:0|0:0|0:0|0:0|0:0|0:0|0:0|0:0|0:0|0:0|0:0|0:0|0:0,0:0:0:0:
105,178,157487,5,0,0:0:0:0:
337,20,157656,2,0,L|321:106,3,87.4999976158143,2|0|0|0,0:0|0:0|0:0|0:0,0:0:0:0:
252,46,157826,2,0,L|84:97,1,174.999995231629,8|0,0:0|0:0,0:0:0:0:
58,354,157995,2,0,L|179:228,1,174.999995231629
33,33,158165,6,0,B|37:105|37:105|172:347,2,349.999990463257,2|0|8,0:0|0:0|0:0,0:0:0:0:
33,33,158546,2,0,B|119:22,3,87.4999976158143
47,200,158843,5,8,0:3:0:0:
212,19,159012,2,0,L|197:105,1,87.4999976158143,8|0,0:0|0:0,0:0:0:0:
273,270,159182,2,0,L|257:183,1,87.4999976158143
459,80,159351,2,0,L|443:167,1,87.4999976158143,2|0,0:0|0:0,0:0:0:0:
478,348,159521,6,0,L|492:348,12,10.9374997019768,6|0|0|0|0|0|0|0|0|0|0|0|0,0:0|0:0|0:0|0:0|0:0|0:0|0:0|0:0|0:0|0:0|0:0|0:0|0:0,0:0:0:0:
354,202,159860,2,0,L|339:198,12,10.9374997019768,10|0|0|0|0|0|0|0|0|0|0|0|0,0:0|0:0|0:0|0:0|0:0|0:0|0:0|0:0|0:0|0:0|0:0|0:0|0:0,0:0:0:0:
409,12,160199,5,0,0:0:0:0:
172,34,160368,2,0,L|86:44,3,87.4999976158143,2|0|0|0,0:0|0:0|0:0|0:0,0:0:0:0:
39,108,160538,1,8,0:0:0:0:
115,357,160707,2,0,B|79:185,1,174.999995231629
252,67,160877,6,0,B|315:99|315:99|485:355,2,349.999990463257,2|0|8,0:0|0:0|0:0,0:0:0:0:
252,67,161258,2,0,B|226:100|226:100|185:121,3,87.4999976158143
266,172,161555,5,0,0:0:0:0:
28,366,161724,2,0,L|115:357,1,87.4999976158143,2|0,0:0|0:0,0:0:0:0:
214,254,161894,2,0,L|301:245,1,87.4999976158143,8|0,0:0|0:0,0:0:0:0:
406,147,162063,2,0,L|493:138,1,87.4999976158143,2|0,0:0|0:0,0:0:0:0:
252,67,162233,6,0,L|235:60,12,10.9374997019768,6|0|0|0|0|0|0|0|0|0|0|0|0,0:0|0:0|0:0|0:0|0:0|0:0|0:0|0:0|0:0|0:0|0:0|0:0|0:0,0:0:0:0:
394,228,162571,2,0,L|377:229,12,10.9374997019768,10|0|0|0|0|0|0|0|0|0|0|0|0,0:0|0:0|0:0|0:0|0:0|0:0|0:0|0:0|0:0|0:0|0:0|0:0|0:0,0:0:0:0:
221,358,162910,5,2,0:0:0:0:
466,290,163080,2,0,L|483:291,4,10.9374997019768,8|0|0|0|0,0:0|0:0|0:0|0:0|0:0,0:0:0:0:
378,319,163249,2,0,L|202:263,1,174.999995231629
109,80,163419,2,0,L|116:259,1,174.999995231629,2|2,0:0|0:0,0:0:0:0:
125,350,163588,6,0,B|175:329|175:329|356:79,3,349.999990463257,12|8|8|2,0:0|0:0|0:3|0:0,0:0:0:0:
37,335,164266,6,0,L|26:332,28,10.9374997019768,10|0|0|0|0|0|0|0|0|0|0|0|0|0|0|0|2|0|0|0|0|0|0|0|0|0|0|0|0,0:0|0:0|0:0|0:0|0:0|0:0|0:0|0:0|0:0|0:0|0:0|0:0|0:0|0:0|0:0|0:0|0:0|0:0|0:0|0:0|0:0|0:0|0:0|0:0|0:0|0:0|0:0|0:0|0:0,0:0:0:0:
229,258,164944,6,0,L|243:258,12,10.9374997019768,6|0|0|0|0|0|0|0|0|0|0|0|0,0:0|0:0|0:0|0:0|0:0|0:0|0:0|0:0|0:0|0:0|0:0|0:0|0:0,0:0:0:0:
411,349,165283,2,0,L|396:345,12,10.9374997019768,10|0|0|0|0|0|0|0|0|0|0|0|0,0:0|0:0|0:0|0:0|0:0|0:0|0:0|0:0|0:0|0:0|0:0|0:0|0:0,0:0:0:0:
403,143,165622,5,0,0:0:0:0:
195,179,165792,2,0,L|110:203,3,87.4999976158143,2|0|0|0,0:0|0:0|0:0|0:0,0:0:0:0:
197,86,165961,1,8,0:0:0:0:
194,334,166131,2,0,B|287:181,1,174.999995231629
359,217,166300,6,0,B|302:211|302:211|3:92,2,349.999990463257,2|0|8,0:0|0:0|0:0,0:0:0:0:
359,217,166682,2,0,B|390:244|390:244|433:261,3,87.4999976158143
323,295,166978,5,0,0:0:0:0:
49,331,167148,2,0,L|16:249,1,87.4999976158143,2|0,0:0|0:0,0:0:0:0:
157,195,167317,2,0,L|190:277,1,87.4999976158143,8|0,0:0|0:0,0:0:0:0:
433,261,167487,2,0,L|466:179,1,87.4999976158143,2|0,0:0|0:0,0:0:0:0:
222,369,167656,6,0,L|233:372,12,10.9374997019768,2|0|0|0|0|0|0|0|0|0|0|0|0,0:0|0:0|0:0|0:0|0:0|0:0|0:0|0:0|0:0|0:0|0:0|0:0|0:0,0:0:0:0:
157,195,167995,2,0,L|140:196,12,10.9374997019768,10|0|0|0|0|0|0|0|0|0|0|0|0,0:0|0:0|0:0|0:0|0:0|0:0|0:0|0:0|0:0|0:0|0:0|0:0|0:0,0:0:0:0:
258,48,168334,5,0,0:0:0:0:
222,243,168504,2,0,L|172:314,3,87.4999976158143,2|0|0|0,0:0|0:0|0:0|0:0,0:0:0:0:
304,250,168673,2,0,L|348:59,1,174.999995231629,8|0,0:0|0:0,0:0:0:0:
480,45,168843,2,0,L|498:241,1,174.999995231629
335,357,169012,6,0,B|356:330|356:330|398:17,2,349.999990463257,2|0|8,0:0|0:0|0:0,0:0:0:0:
335,356,169394,2,0,B|254:320,3,87.4999976158143
439,331,169690,5,2,0:0:0:0:
168,322,169860,2,0,L|83:342,1,87.4999976158143,8|0,0:0|0:0,0:0:0:0:
37,87,170029,2,0,L|112:131,1,87.4999976158143
294,118,170199,2,0,L|315:31,1,87.4999976158143
254,320,170368,6,0,L|264:320,12,10.9374997019768,2|0|0|0|0|0|0|0|0|0|0|0|0,0:0|0:0|0:0|0:0|0:0|0:0|0:0|0:0|0:0|0:0|0:0|0:0|0:0,0:0:0:0:
439,331,170707,2,0,L|454:327,12,10.9374997019768,10|0|0|0|0|0|0|0|0|0|0|0|0,0:0|0:0|0:0|0:0|0:0|0:0|0:0|0:0|0:0|0:0|0:0|0:0|0:0,0:0:0:0:
381,147,171046,5,0,0:0:0:0:
202,257,171216,2,0,L|118:288,3,87.4999976158143,2|0|0|0,0:0|0:0|0:0|0:0,0:0:0:0:
285,242,171385,1,8,0:0:0:0:
69,108,171555,2,0,B|229:176,1,174.999995231629
353,57,171724,6,0,B|341:104|341:104|174:364,2,349.999990463257,2|0|8,0:0|0:0|0:0,0:0:0:0:
353,57,172105,2,0,B|383:90|383:90|428:121,3,87.4999976158143
267,65,172402,5,0,0:0:0:0:
94,76,172571,2,0,L|181:85,1,87.4999976158143,2|0,0:0|0:0,0:0:0:0:
414,197,172741,2,0,L|501:206,1,87.4999976158143,8|0,0:0|0:0,0:0:0:0:
240,198,172910,2,0,L|327:207,1,87.4999976158143,2|0,0:0|0:0,0:0:0:0:
65,202,173080,6,0,L|54:206,12,10.9374997019768,6|0|0|0|0|0|0|0|0|0|0|0|0,0:0|0:0|0:0|0:0|0:0|0:0|0:0|0:0|0:0|0:0|0:0|0:0|0:0,0:0:0:0:
209,335,173419,2,0,L|226:336,12,10.9374997019768,10|0|0|0|0|0|0|0|0|0|0|0|0,0:0|0:0|0:0|0:0|0:0|0:0|0:0|0:0|0:0|0:0|0:0|0:0|0:0,0:0:0:0:
30,352,173758,5,0,0:0:0:0:
240,198,173927,2,0,L|223:199,4,10.9374997019768
319,183,174097,2,0,L|475:271,1,174.999995231629
171,265,174266,2,0,L|197:87,1,174.999995231629
428,190,174436,6,0,B|375:196|375:196|84:138,3,349.999990463257,12|0|8|0,0:0|0:0|0:3|0:0,0:0:0:0:
469,118,175114,6,0,L|479:114,28,10.9374997019768
422,312,175792,6,0,L|411:313,28,10.9374997019768,6|0|0|0|0|0|0|0|0|0|0|0|0|0|0|0|0|0|0|0|0|0|0|0|0|0|0|0|0,0:0|0:0|0:0|0:0|0:0|0:0|0:0|0:0|0:0|0:0|0:0|0:0|0:0|0:0|0:0|0:0|0:0|0:0|0:0|0:0|0:0|0:0|0:0|0:0|0:0|0:0|0:0|0:0|0:0,0:0:0:0:
415,224,176470,6,0,B|430:230|430:230|387:147,12,109.374997019768,8|0|0|0|0|0|0|0|0|0|0|0|0,0:0|0:0|0:0|0:0|0:0|0:0|0:0|0:0|0:0|0:0|0:0|0:0|0:0,0:0:0:0:
336,271,176809,2,0,B|333:256|333:256|283:335,12,109.374997019768
192,330,177148,6,0,L|84:347,28,109.374997019768,2|0|0|0|0|0|0|0|0|0|0|0|0|0|0|0|0|0|0|0|0|0|0|0|0|0|0|0|0,0:0|0:0|0:0|0:0|0:0|0:0|0:0|0:0|0:0|0:0|0:0|0:0|0:0|0:0|0:0|0:0|0:0|0:0|0:0|0:0|0:0|0:0|0:0|0:0|0:0|0:0|0:0|0:0|0:0,0:0:0:0:
237,250,177826,6,0,L|248:163,1,87.4999976158143,8|0,0:0|0:0,0:0:0:0:
197,101,177995,2,0,L|208:14,1,87.4999976158143
457,36,178165,2,0,L|446:123,1,87.4999976158143,2|0,0:0|0:0,0:0:0:0:
497,185,178334,2,0,L|486:272,1,87.4999976158143
289,335,178504,6,0,L|279:334,28,10.9374997019768,2|0|0|0|0|0|0|0|0|0|0|0|0|0|0|0|0|0|0|0|0|0|0|0|0|0|0|0|0,0:0|0:0|0:0|0:0|0:0|0:0|0:0|0:0|0:0|0:0|0:0|0:0|0:0|0:0|0:0|0:0|0:0|0:0|0:0|0:0|0:0|0:0|0:0|0:0|0:0|0:0|0:0|0:0|0:0,0:0:0:0:
200,263,179182,6,0,B|215:269|215:269|172:186,12,109.374997019768,8|0|0|0|0|0|0|0|0|0|0|0|0,0:0|0:0|0:0|0:0|0:0|0:0|0:0|0:0|0:0|0:0|0:0|0:0|0:0,0:0:0:0:
386,335,179521,2,0,B|373:345|373:345|467:349,12,109.374997019768
434,263,179860,6,0,L|443:154,28,109.374997019768,2|0|0|0|0|0|0|0|0|0|0|0|0|0|0|0|0|0|0|0|0|0|0|0|2|0|0|0|0,0:0|0:0|0:0|0:0|0:0|0:0|0:0|0:0|0:0|0:0|0:0|0:0|0:0|0:0|0:0|0:0|0:0|0:0|0:0|0:0|0:0|0:0|0:0|0:0|0:0|0:0|0:0|0:0|0:0,0:0:0:0:
364,84,180538,6,0,L|278:94,1,87.4999976158143,8|0,0:0|0:0,0:0:0:0:
183,70,180707,2,0,L|97:80,1,87.4999976158143
107,321,180877,2,0,L|21:331,1,87.4999976158143,8|0,0:0|0:0,0:0:0:0:
288,335,181046,2,0,L|202:345,1,87.4999976158143
199,200,181216,6,0,L|179:203,28,10.9374997019768,6|0|0|0|0|0|0|0|0|0|0|0|0|0|0|0|0|0|0|0|0|0|0|0|0|0|0|0|0,0:0|0:0|0:0|0:0|0:0|0:0|0:0|0:0|0:0|0:0|0:0|0:0|0:0|0:0|0:0|0:0|0:0|0:0|0:0|0:0|0:0|0:0|0:0|0:0|0:0|0:0|0:0|0:0|0:0,0:0:0:0:
270,143,181894,6,0,B|364:147|364:147|352:158,12,109.374997019768,8|0|0|0|0|0|0|0|0|0|0|0|0,0:0|0:0|0:0|0:0|0:0|0:0|0:0|0:0|0:0|0:0|0:0|0:0|0:0,0:0:0:0:
110,253,182233,2,0,B|16:248|16:248|28:238,12,109.374997019768
194,99,182571,6,0,L|291:49,28,109.374997019768,2|0|0|0|0|0|0|0|0|0|0|0|0|0|0|0|0|0|0|0|0|0|0|0|0|0|0|0|0,0:0|0:0|0:0|0:0|0:0|0:0|0:0|0:0|0:0|0:0|0:0|0:0|0:0|0:0|0:0|0:0|0:0|0:0|0:0|0:0|0:0|0:0|0:0|0:0|0:0|0:0|0:0|0:0|0:0,0:0:0:0:
400,122,183249,6,0,L|324:164,1,87.4999976158143,8|0,0:0|0:0,0:0:0:0:
90,199,183419,2,0,L|4:189,1,87.4999976158143
177,14,183588,2,0,L|194:98,1,87.4999976158143,2|0,0:0|0:0,0:0:0:0:
302,297,183758,2,0,L|366:356,1,87.4999976158143
150,317,183927,6,0,L|84:339,12,43.7499988079071,6|0|0|0|0|0|0|0|0|0|0|0|0,0:0|0:0|0:0|0:0|0:0|0:0|0:0|0:0|0:0|0:0|0:0|0:0|0:0,0:0:0:0:
50,275,184266,2,0,L|5:268,12,43.7499988079071,8|0|0|0|0|0|0|0|0|0|0|0|0,0:0|0:0|0:0|0:0|0:0|0:0|0:0|0:0|0:0|0:0|0:0|0:0|0:0,0:0:0:0:
90,199,184605,5,2,0:0:0:0:
261,40,184775,2,0,L|303:26,12,43.7499988079071,8|0|0|0|0|0|0|0|0|0|0|0|0,0:0|0:0|0:0|0:0|0:0|0:0|0:0|0:0|0:0|0:0|0:0|0:0|0:0,0:0:0:0:
298,117,185114,2,0,B|296:202|296:202|313:291,1,174.999995231629,2|2,0:0|0:0,0:0:0:0:
457,266,185283,6,0,B|409:268|409:268|110:336,3,349.999990463257,12|8|8|2,0:0|0:0|0:3|0:0,0:0:0:0:
477,348,185961,6,0,L|494:347,28,10.9374997019768,12|0|0|0|0|0|0|0|0|0|0|0|0|0|0|0|2|0|0|0|0|0|0|0|0|0|0|0|0,0:0|0:0|0:0|0:0|0:0|0:0|0:0|0:0|0:0|0:0|0:0|0:0|0:0|0:0|0:0|0:0|0:0|0:0|0:0|0:0|0:0|0:0|0:0|0:0|0:0|0:0|0:0|0:0|0:0,0:0:0:0:
293,297,186639,6,0,L|273:294,28,10.9374997019768,6|0|0|0|0|0|0|0|0|0|0|0|0|0|0|0|0|0|0|0|0|0|0|0|0|0|0|0|0,0:0|0:0|0:0|0:0|0:0|0:0|0:0|0:0|0:0|0:0|0:0|0:0|0:0|0:0|0:0|0:0|0:0|0:0|0:0|0:0|0:0|0:0|0:0|0:0|0:0|0:0|0:0|0:0|0:0,0:0:0:0:
208,170,187317,6,0,B|107:130,12,109.374997019768,8|0|0|0|0|0|0|0|0|0|0|0|0,0:0|0:0|0:0|0:0|0:0|0:0|0:0|0:0|0:0|0:0|0:0|0:0|0:0,0:0:0:0:
235,261,187656,2,0,B|251:369,12,109.374997019768
340,358,187995,6,0,L|448:341,28,109.374997019768,2|0|0|0|0|0|0|0|0|0|0|0|0|0|0|0|0|0|0|0|0|0|0|0|0|0|0|0|0,0:0|0:0|0:0|0:0|0:0|0:0|0:0|0:0|0:0|0:0|0:0|0:0|0:0|0:0|0:0|0:0|0:0|0:0|0:0|0:0|0:0|0:0|0:0|0:0|0:0|0:0|0:0|0:0|0:0,0:0:0:0:
448,341,188673,6,0,L|368:288,1,87.4999976158143,8|0,0:0|0:0,0:0:0:0:
439,148,188843,2,0,L|343:152,1,87.4999976158143
258,24,189012,2,0,L|182:83,1,87.4999976158143,2|0,0:0|0:0,0:0:0:0:
39,40,189182,2,0,L|13:132,1,87.4999976158143
13,350,189351,6,0,L|14:360,28,10.9374997019768,2|0|0|0|0|0|0|0|0|0|0|0|0|0|0|0|0|0|0|0|0|0|0|0|0|0|0|0|0,0:0|0:0|0:0|0:0|0:0|0:0|0:0|0:0|0:0|0:0|0:0|0:0|0:0|0:0|0:0|0:0|0:0|0:0|0:0|0:0|0:0|0:0|0:0|0:0|0:0|0:0|0:0|0:0|0:0,0:0:0:0:
116,164,190029,6,0,B|15:124,12,109.374997019768,8|0|0|0|0|0|0|0|0|0|0|0|0,0:0|0:0|0:0|0:0|0:0|0:0|0:0|0:0|0:0|0:0|0:0|0:0|0:0,0:0:0:0:
183,248,190368,2,0,B|291:233,12,109.374997019768
380,134,190707,6,0,L|392:26,28,109.374997019768,2|0|0|0|0|0|0|0|0|0|0|0|0|0|0|0|0|0|0|0|0|0|0|0|2|0|0|0|0,0:0|0:0|0:0|0:0|0:0|0:0|0:0|0:0|0:0|0:0|0:0|0:0|0:0|0:0|0:0|0:0|0:0|0:0|0:0|0:0|0:0|0:0|0:0|0:0|0:0|0:0|0:0|0:0|0:0,0:0:0:0:
379,134,191385,6,0,L|466:123,1,87.4999976158143,8|0,0:0|0:0,0:0:0:0:
142,152,191555,2,0,L|55:163,1,87.4999976158143
419,209,191724,2,0,L|505:219,1,87.4999976158143,8|0,0:0|0:0,0:0:0:0:
181,248,191894,2,0,L|95:238,1,87.4999976158143
380,284,192063,6,0,L|400:287,28,10.9374997019768,6|0|0|0|0|0|0|0|0|0|0|0|0|0|0|0|2|0|0|0|0|0|0|0|0|0|0|0|0,0:0|0:0|0:0|0:0|0:0|0:0|0:0|0:0|0:0|0:0|0:0|0:0|0:0|0:0|0:0|0:0|0:0|0:0|0:0|0:0|0:0|0:0|0:0|0:0|0:0|0:0|0:0|0:0|0:0,0:0:0:0:
297,292,192741,6,0,B|189:309,12,109.374997019768,10|0|0|0|0|0|0|0|0|0|0|0|0,0:0|0:0|0:0|0:0|0:0|0:0|0:0|0:0|0:0|0:0|0:0|0:0|0:0,0:0:0:0:
348,356,193080,2,0,B|456:372,12,109.374997019768,2|0|0|0|0|0|0|0|2|0|0|0|0,0:0|0:0|0:0|0:0|0:0|0:0|0:0|0:0|0:0|0:0|0:0|0:0|0:0,0:0:0:0:
322,217,193419,6,0,L|253:129,28,109.374997019768,2|0|0|0|0|0|0|0|0|0|0|0|0|0|0|0|2|0|0|0|0|0|0|0|0|0|0|0|0,0:0|0:0|0:0|0:0|0:0|0:0|0:0|0:0|0:0|0:0|0:0|0:0|0:0|0:0|0:0|0:0|0:0|0:0|0:0|0:0|0:0|0:0|0:0|0:0|0:0|0:0|0:0|0:0|0:0,0:0:0:0:
54,194,194097,6,0,L|140:184,1,87.4999976158143,6|0,0:0|0:0,0:0:0:0:
491,220,194266,2,0,L|405:230,1,87.4999976158143
34,103,194436,2,0,L|120:93,1,87.4999976158143,8|0,0:3|0:0,0:0:0:0:
471,129,194605,2,0,L|385:139,1,87.4999976158143,2|0,0:0|0:0,0:0:0:0:
198,39,194775,6,0,L|264:61,12,43.7499988079071,6|0|0|0|0|0|0|0|0|0|0|0|0,0:0|0:0|0:0|0:0|0:0|0:0|0:0|0:0|0:0|0:0|0:0|0:0|0:0,0:0:0:0:
329,65,195114,2,0,L|370:51,12,43.7499988079071
459,46,195453,1,0,0:0:0:0:
248,260,195622,2,0,L|238:216,12,43.7499988079071
352,288,195961,2,0,L|177:303,1,174.999995231629
73,295,196131,6,0,B|402:316|402:316|421:323,3,349.999990463257,6|0|8|0,0:0|0:0|0:3|0:0,0:0:0:0:
16,353,196809,6,0,L|6:358,28,10.9374997019768
93,160,197487,5,6,0:1:0:0:
