osu file format v14

[General]
AudioFilename: Enishi.mp3
AudioLeadIn: 0
PreviewTime: 11501
Countdown: 0
SampleSet: Soft
StackLeniency: 0.2
Mode: 0
LetterboxInBreaks: 0
WidescreenStoryboard: 0

[Editor]
DistanceSpacing: 1
BeatDivisor: 4
GridSize: 8
TimelineZoom: 1.400001

[Metadata]
Title:ENISHI (feat. Hatsune Miku)
TitleUnicode:ENISHI (feat. 初音ミク)
Artist:Ocelot
ArtistUnicode:Ocelot
Creator:DeRandom Otaku
Version:N0's EX
Source:
Tags:Drumstep Vocaloid Dubstep ginsuke melancholia -Tochi Nothing special N0thingSpecial deppyforce deppy force Melancholia クロネコラウンジ 凛 Rin ぎんすけ Ginsuke
BeatmapID:1116645
BeatmapSetID:506140

[Difficulty]
HPDrainRate:6
CircleSize:4
OverallDifficulty:9
ApproachRate:9.4
SliderMultiplier:1.94
SliderTickRate:1

[Events]
//Background and Video events
0,0,"bg.jpg",0,0
//Break Periods
//Storyboard Layer 0 (Background)
//Storyboard Layer 1 (Fail)
//Storyboard Layer 2 (Pass)
//Storyboard Layer 3 (Foreground)
//Storyboard Sound Samples

[TimingPoints]
510,344.827586206897,4,2,2,30,1,0
510,-200,4,2,2,30,0,0
11544,-111.111111111111,4,2,2,30,0,0
28096,-166.666666666667,4,2,2,30,0,0
29475,-142.857142857143,4,2,2,30,0,0
32234,-375,4,2,2,30,0,0
33527,-375,4,2,2,5,0,0
33613,-62.5,4,2,2,50,0,1
33958,-83.3333333333333,4,2,2,50,0,1
34303,-62.5,4,2,2,50,0,1
34992,-100,4,2,2,50,0,1
35682,-62.5,4,2,2,50,0,1
36372,-50,4,2,2,50,0,1
36630,-50,4,2,2,5,0,1
36716,-50,4,2,2,50,0,1
38785,-62.5,4,2,2,50,0,1
39130,-50,4,2,2,50,0,1
39475,-62.5,4,2,2,50,0,1
39820,-62.5,4,2,2,50,0,1
40510,-50,4,2,2,50,0,1
41199,-62.5,4,2,2,50,0,1
42406,-83.3333333333333,4,2,2,50,0,1
42751,-62.5,4,2,2,50,0,1
43268,-200,4,2,2,30,0,0
43872,-200,4,2,2,5,0,0
43958,-200,4,2,2,30,0,0
44561,-200,4,2,2,5,0,0
44647,-62.5,4,2,2,60,0,1
44992,-83.3333333333333,4,2,2,60,0,1
45337,-62.5,4,2,2,60,0,1
46027,-50,4,2,2,60,0,1
46372,-55.5555555555556,4,2,2,60,0,1
46716,-83.3333333333333,4,2,2,60,0,1
47406,-62.5,4,2,2,60,0,1
49475,-83.3333333333333,4,2,2,60,0,1
50165,-55.5555555555556,4,2,2,60,0,1
52234,-83.3333333333333,4,2,2,60,0,1
52492,-83.3333333333333,4,2,2,5,0,1
52578,-83.3333333333333,4,2,2,60,0,1
53613,-50,4,2,2,60,0,1
54303,-50,4,2,2,30,0,0
54820,-62.5,4,2,2,30,0,0
54992,-200,4,2,2,30,0,0
55682,-62.5,4,2,2,60,0,1
56372,-66.6666666666667,4,2,2,60,0,1
57406,-62.5,4,2,2,60,0,1
58441,-50,4,2,2,60,0,1
58785,-62.5,4,2,2,60,0,1
59130,-66.6666666666667,4,2,2,60,0,1
60165,-62.5,4,2,2,60,0,1
60423,-62.5,4,2,2,5,0,1
60510,-55.5555555555556,4,2,2,60,0,1
60768,-55.5555555555556,4,2,2,5,0,1
60854,-50,4,2,2,60,0,1
61113,-50,4,2,2,5,0,1
61199,-50,4,2,2,60,0,1
63268,-62.5,4,2,2,60,0,1
63958,-83.3333333333333,4,2,2,60,0,1
65165,-62.5,4,2,2,60,0,1
65682,-50,4,2,2,60,0,1
66027,-50,4,2,2,30,0,0
66716,-111.111111111111,4,2,2,30,0,0

[Colours]
Combo1 : 159,255,64
Combo2 : 255,108,108
Combo3 : 255,43,43
Combo4 : 255,140,255

[HitObjects]
179,232,510,6,0,L|241:221,1,48.5,4|2,0:2|0:0,0:0:0:0:
348,152,854,2,0,L|300:160,1,48.5,0|2,0:0|0:0,0:0:0:0:
156,237,1199,2,0,P|155:274|175:296,2,48.5,2|0|0,0:0|0:0|0:0,0:0:0:0:
221,111,1716,1,0,0:0:0:0:
209,127,1889,6,0,P|231:89|216:21,1,97,2|2,0:0|0:0,0:0:0:0:
318,258,2578,2,0,L|427:298,1,97,2|2,0:0|0:0,0:0:0:0:
409,291,3096,1,2,0:0:0:0:
255,183,3268,6,0,L|188:158,1,48.5
336,251,3613,2,0,L|402:226,1,48.5,2|2,0:0|0:0,0:0:0:0:
199,149,3958,2,0,L|107:115,1,97,2|0,0:0|0:0,0:0:0:0:
107,115,4475,1,2,0:0:0:0:
216,245,4647,6,0,L|227:309,1,48.5,2|0,0:0|0:0,0:0:0:0:
209,132,4992,2,0,L|200:84,1,48.5,2|0,0:0|0:0,0:0:0:0:
113,254,5337,2,0,P|160:258|201:233,1,97,2|0,0:0|0:0,0:0:0:0:
201,233,6027,6,0,L|191:284,1,48.5,2|2,0:2|0:0,0:0:0:0:
133,144,6372,2,0,L|99:178,1,48.5,0|2,0:0|0:0,0:0:0:0:
128,32,6716,2,0,L|80:40,1,48.5,2|0,0:0|0:0,0:0:0:0:
264,88,7060,1,0,0:0:0:0:
419,35,7234,1,2,0:0:0:0:
400,32,7406,6,0,L|447:40,1,48.5,2|0,0:0|0:0,0:0:0:0:
394,144,7750,2,0,L|428:178,1,48.5,2|0,0:0|0:0,0:0:0:0:
327,233,8096,2,0,L|335:280,2,48.5,2|0|0,0:0|0:0|0:0,0:0:0:0:
377,48,8613,1,2,0:0:0:0:
374,29,8785,6,0,L|390:124,1,97,0|0,0:0|0:0,0:0:0:0:
403,199,9303,1,2,0:0:0:0:
368,25,9475,2,0,L|384:120,1,97,2|2,0:0|0:0,0:0:0:0:
362,21,10165,6,0,L|370:72,1,48.5,2|0,0:0|0:0,0:0:0:0:
212,145,10510,2,0,P|186:158|157:159,1,48.5,0|0,0:0|0:0,0:0:0:0:
358,85,10854,2,0,L|377:197,1,97,0|0,0:0|0:0,0:0:0:0:
374,180,11544,6,0,L|468:195,1,87.2999973358155,4|0,0:2|0:0,0:0:0:0:
340,88,11889,1,2,0:0:0:0:
393,183,12061,1,0,0:0:0:0:
182,146,12234,2,0,L|95:132,1,87.2999973358155,10|0,0:0|0:0,0:0:0:0:
244,71,12578,1,0,0:0:0:0:
340,88,12751,1,0,0:0:0:0:
119,220,12923,6,0,P|152:169|258:193,1,174.599994671631,0|2,0:0|0:0,0:0:0:0:
286,277,13441,1,0,0:0:0:0:
340,88,13613,2,0,L|367:-14,2,87.2999973358155,10|2|0,0:0|0:0|0:0,0:0:0:0:
246,167,14130,1,2,0:0:0:0:
252,185,14303,6,0,L|215:85,1,87.2999973358155,0|2,0:0|0:0,0:0:0:0:
292,295,14647,2,0,P|250:327|207:324,1,87.2999973358155,2|2,0:0|0:0,0:0:0:0:
414,157,14992,2,0,L|384:329,1,174.599994671631,10|0,0:0|0:0,0:0:0:0:
246,167,15510,1,2,0:0:0:0:
252,185,15682,6,0,L|215:87,1,87.2999973358155,2|0,0:0|0:0,0:0:0:0:
270,78,15941,2,0,L|255:164,1,87.2999973358155,2|0,0:0|0:0,0:0:0:0:
156,201,16199,1,0,0:0:0:0:
366,95,16372,1,10,0:0:0:0:
372,113,16716,5,2,0:0:0:0:
434,38,16889,1,0,0:0:0:0:
310,188,17061,6,0,L|344:281,1,87.2999973358155,2|2,0:2|0:0,0:0:0:0:
195,86,17406,2,0,B|191:108|191:108|213:170,1,87.2999973358155,0|2,0:0|0:0,0:0:0:0:
175,316,17751,2,0,B|142:224|142:224|129:205|129:205|128:184|128:184|117:153,1,174.599994671631,10|0,0:0|0:0,0:0:0:0:
195,86,18268,1,2,0:0:0:0:
170,321,18441,6,0,B|136:229|136:229|124:210|124:210|123:189|123:189|111:157,1,174.599994671631,0|0,0:0|0:0,0:0:0:0:
111,158,19130,1,10,0:0:0:0:
63,30,19303,1,2,0:0:0:0:
23,118,19475,1,2,0:0:0:0:
151,70,19647,1,2,0:0:0:0:
345,125,19820,6,0,P|284:181|208:149,1,174.599994671631,0|0,0:0|0:0,0:0:0:0:
247,60,20337,1,2,0:0:0:0:
130,250,20510,6,0,P|210:267|260:201,1,174.599994671631,10|2,0:0|0:0,0:0:0:0:
247,60,21027,1,0,0:0:0:0:
60,264,21199,6,0,B|77:272|77:272|144:261,1,87.2999973358155,0|0,0:0|0:0,0:0:0:0:
373,190,21544,2,0,L|245:213,1,130.949996003723,0|0,0:0|0:0,0:0:0:0:
392,186,21889,1,8,0:2:0:0:
278,305,22061,1,0,0:0:0:0:
411,182,22234,1,0,0:0:0:0:
137,350,22578,6,0,B|149:277|149:277|140:242|140:242|152:179,1,174.599994671631,4|0,0:0|0:0,0:0:0:0:
129,351,23096,2,0,B|141:277|141:277|132:242|132:242|143:179,1,174.599994671631
225,335,23613,1,2,0:0:0:0:
142,179,23785,1,2,0:0:0:0:
317,303,23958,6,0,L|484:242,1,174.599994671631
316,312,24475,2,0,L|483:251,1,174.599994671631
241,249,24992,1,2,0:0:0:0:
229,112,25165,1,2,0:0:0:0:
62,247,25337,6,0,B|20:258|20:258|149:282,1,174.599994671631,0|2,0:0|0:0,0:0:0:0:
59,240,25854,2,0,B|16:250|16:250|145:274,1,174.599994671631
236,240,26372,1,2,0:0:0:0:
400,180,26716,6,0,L|235:239,1,174.599994671631
401,171,27233,2,0,L|236:230,1,174.599994671631
464,97,27751,1,0,0:0:0:0:
467,77,28096,6,0,L|453:151,1,58.199998223877,4|0,0:2|0:0,0:0:0:0:
439,229,28441,1,0,0:0:0:0:
363,166,28613,1,0,0:0:0:0:
452,305,28785,2,0,L|438:231,1,58.199998223877
363,166,29130,1,0,0:0:0:0:
439,229,29302,1,0,0:0:0:0:
299,36,29475,6,0,L|287:103,1,67.8999979278565,4|0,0:2|0:0,0:0:0:0:
270,198,29820,1,0,0:0:0:0:
194,135,29992,1,0,0:0:0:0:
285,283,30165,2,0,L|272:216,1,67.8999979278565,0|0,0:0|0:0,0:0:0:0:
124,38,30510,1,0,0:0:0:0:
123,46,30596,1,0,0:0:0:0:
121,55,30682,1,0,0:0:0:0:
120,63,30768,1,0,0:0:0:0:
119,72,30854,5,4,0:2:0:0:
220,22,31027,1,0,0:0:0:0:
252,212,31199,1,0,0:0:0:0:
331,101,31372,1,0,0:0:0:0:
364,295,31544,5,4,0:2:0:0:
365,303,31630,1,0,0:0:0:0:
367,312,31716,2,0,L|373:349,1,33.9499989639283,0|0,0:0|0:0,0:0:0:0:
252,212,31889,1,0,0:0:0:0:
244,165,31975,1,0,0:0:0:0:
236,118,32061,1,0,0:0:0:0:
228,71,32148,1,0,0:0:0:0:
179,13,32234,6,0,B|212:204,1,194,4|0,0:2|0:0,0:0:0:0:
225,279,33613,6,0,B|293:291|293:291|362:346|362:346|449:362,1,232.8,4|0,0:2|0:0,0:0:0:0:
423,145,33958,6,0,B|381:152|351:192|357:239|357:239|391:271,1,174.599994671631,2|0,0:2|0:0,0:0:0:0:
498,274,34303,6,0,L|485:197,1,77.6,8|0,0:0|0:0,0:0:0:0:
501,101,34475,2,0,L|487:24,1,77.6,0|0,0:0|0:0,0:0:0:0:
407,308,34647,6,0,L|393:231,1,77.6,2|0,0:2|0:0,0:0:0:0:
409,134,34820,2,0,L|395:57,1,77.6,0|0,0:0|0:0,0:0:0:0:
73,261,34992,6,0,B|161:222|161:222|212:227|212:227|326:172|326:172|302:199|305:234,1,339.5,0|0,0:0|0:0,0:0:0:0:
322,222,35682,6,0,L|398:185,1,77.6,8|0,0:0|0:0,0:0:0:0:
404,30,35854,2,0,L|334:63,1,77.6,0|0,0:0|0:0,0:0:0:0:
314,241,36027,6,0,L|383:207,1,77.6,2|0,0:2|0:0,0:0:0:0:
395,48,36199,2,0,L|326:82,1,77.6,8|8,0:0|0:0,0:0:0:0:
182,303,36372,6,0,B|242:313|242:313|269:331|269:331|387:352|387:352|370:312|370:312|328:332,1,291,8|0,0:0|0:0,0:0:0:0:
148,211,36716,1,2,0:2:0:0:
403,172,36889,1,0,0:0:0:0:
52,281,37061,5,8,0:0:0:0:
86,286,37146,1,0,0:0:0:0:
148,211,37234,1,0,0:0:0:0:
182,206,37319,1,0,0:0:0:0:
216,201,37406,5,0,0:0:0:0:
233,75,37578,1,8,0:0:0:0:
182,303,37751,5,4,0:2:0:0:
349,278,37923,1,0,0:0:0:0:
233,75,38096,5,2,0:2:0:0:
273,339,38268,1,0,0:0:0:0:
461,126,38441,5,12,0:2:0:0:
198,167,38613,1,0,0:0:0:0:
410,354,38785,6,0,L|393:261,1,77.6,8|8,0:0|0:0,0:0:0:0:
369,89,38958,1,0,0:0:0:0:
158,262,39130,6,0,B|273:302|273:302|254:186|254:186|171:251,1,291,4|0,0:2|0:0,0:0:0:0:
62,281,39475,1,2,0:2:0:0:
118,49,39647,1,0,0:0:0:0:
171,338,39820,6,0,L|155:250,1,77.6,8|0,0:0|0:0,0:0:0:0:
132,126,39992,2,0,L|116:38,1,77.6,0|0,0:0|0:0,0:0:0:0:
288,167,40165,6,0,L|200:182,1,77.6,2|0,0:2|0:0,0:0:0:0:
76,206,40337,2,0,L|-11:221,1,77.6,8|0,0:0|0:0,0:0:0:0:
375,218,40510,6,0,B|432:185|432:185|400:243|400:243|219:275,1,291,0|2,0:0|0:0,0:0:0:0:
148,255,40854,1,2,0:2:0:0:
288,167,41027,1,0,0:0:0:0:
135,332,41199,6,0,L|151:244,1,77.6,8|0,0:0|0:0,0:0:0:0:
174,120,41372,2,0,L|190:32,1,77.6
242,304,41544,5,8,0:0:0:0:
237,269,41630,1,8,0:0:0:0:
232,234,41716,1,8,0:0:0:0:
227,199,41803,1,2,0:0:0:0:
174,120,41889,5,4,0:2:0:0:
131,350,42061,1,0,0:0:0:0:
266,87,42234,5,2,0:2:0:0:
42,47,42406,2,0,L|100:58,1,58.199998223877,0|0,0:0|0:0,0:0:0:0:
346,277,42578,5,12,0:2:0:0:
392,27,42751,2,0,L|378:103,1,77.6,0|0,0:0|0:0,0:0:0:0:
131,350,42923,5,8,0:0:0:0:
100,58,43096,1,0,0:0:0:0:
346,277,43268,6,0,B|357:212|357:212|409:253|409:253|363:269,1,169.75,2|0,0:2|0:0,0:0:0:0:
324,295,43958,2,0,B|312:230|312:230|375:251|375:251|338:282,1,169.75,2|0,0:2|0:0,0:0:0:0:
249,357,44647,6,0,B|223:211|223:211|235:172|235:172|223:105,1,232.8,4|0,0:2|0:0,0:0:0:0:
145,94,44992,6,0,B|124:135|124:135|151:283,1,174.599994671631,2|0,0:2|0:0,0:0:0:0:
249,357,45337,6,0,P|250:318|235:283,1,77.6,8|0,0:0|0:0,0:0:0:0:
227,128,45510,2,0,B|217:148|217:148|227:206,1,77.6,0|0,0:0|0:0,0:0:0:0:
301,235,45682,1,2,0:2:0:0:
62,227,45854,1,8,0:0:0:0:
440,266,46027,6,0,B|477:294|477:294|509:252|509:252|400:243|400:243|377:248|377:248|364:240|364:240|320:236,1,291
243,273,46372,6,0,P|233:222|277:167,1,87.2999973358155,2|0,0:2|0:0,0:0:0:0:
408,157,46544,2,0,L|322:150,1,87.2999973358155,0|0,0:0|0:0,0:0:0:0:
110,127,46716,6,0,B|94:110|74:103|74:103|205:115,1,174.599994671631,8|0,0:0|0:0,0:0:0:0:
281,74,47061,1,2,0:2:0:0:
354,277,47234,1,8,0:0:0:0:
351,263,47320,1,8,0:0:0:0:
349,249,47406,6,0,B|386:208|386:208|344:-23,1,232.8
351,14,47751,1,2,0:2:0:0:
477,205,47923,1,0,0:0:0:0:
107,240,48096,1,8,0:0:0:0:
165,245,48182,1,0,0:0:0:0:
223,250,48268,1,0,0:0:0:0:
281,255,48354,1,0,0:0:0:0:
339,261,48441,6,0,L|323:171,1,77.6,2|0,0:2|0:0,0:0:0:0:
344,15,48613,2,0,L|358:92,1,77.6,8|0,0:0|0:0,0:0:0:0:
402,336,48785,5,4,0:2:0:0:
232,150,48958,1,2,0:0:0:0:
306,352,49130,5,0,0:0:0:0:
266,58,49303,1,2,0:0:0:0:
402,336,49475,6,0,B|266:312|266:312|285:323|297:355,1,174.599994671631,4|0,0:2|0:0,0:0:0:0:
306,352,49820,2,0,L|248:341,1,58.199998223877,8|8,0:0|0:0,0:0:0:0:
110,227,49992,1,0,0:0:0:0:
169,371,50165,6,0,P|174:301|209:267,1,87.2999973358155,4|0,0:2|0:0,0:0:0:0:
290,150,50337,2,0,P|285:80|250:46,1,87.2999973358155,0|0,0:0|0:0,0:0:0:0:
248,341,50510,5,2,0:2:0:0:
212,122,50682,1,0,0:0:0:0:
77,307,50854,6,0,L|163:292,1,87.2999973358155,8|0,0:0|0:0,0:0:0:0:
420,230,51027,2,0,L|334:214,1,87.2999973358155,0|0,0:0|0:0,0:0:0:0:
196,190,51199,5,2,0:2:0:0:
248,341,51372,1,8,0:0:0:0:
335,50,51544,6,0,B|340:7|340:7|307:59|307:59|336:226,1,261.899992007447
336,231,51889,1,2,0:2:0:0:
189,92,52061,1,0,0:0:0:0:
94,360,52234,6,0,L|127:173,1,174.599994671631,8|0,0:0|0:0,0:0:0:0:
72,134,52578,2,8,P|98:148|115:171,1,58.199998223877
183,319,52751,2,8,P|157:305|140:282,1,58.199998223877
27,233,52923,5,10,0:2:0:0:
377,203,53096,1,0,0:0:0:0:
214,20,53268,5,0,0:0:0:0:
256,373,53441,1,8,0:0:0:0:
281,301,53527,1,8,0:0:0:0:
206,315,53613,6,0,B|256:319|256:319|272:332|272:332|313:324|313:324|519:342,1,291,12|0,0:2|0:0,0:0:0:0:
505,341,53958,1,8,0:0:0:0:
109,306,54130,1,0,0:0:0:0:
474,260,54303,6,0,L|232:238,1,194,8|0,0:0|0:0,0:0:0:0:
489,4,54647,1,8,0:0:0:0:
243,226,54820,6,0,L|324:233,1,77.6,8|8,0:0|0:0,0:0:0:0:
490,248,54992,6,0,L|321:233,1,169.75
87,225,55682,6,0,B|210:179|210:179|242:225|242:225|197:220,1,232.8,2|0,0:2|0:0,0:0:0:0:
181,219,56027,1,0,0:0:0:0:
197,53,56199,1,0,0:0:0:0:
308,250,56372,1,8,0:0:0:0:
309,258,56458,1,0,0:0:0:0:
310,266,56544,6,0,L|323:341,1,72.7500027751924
374,90,56716,2,0,L|361:18,1,72.7500027751924,0|0,0:0|0:0,0:0:0:0:
445,244,56889,1,8,0:0:0:0:
189,120,57061,1,0,0:0:0:0:
365,187,57234,1,8,0:0:0:0:
81,245,57406,6,0,B|160:251|160:251|196:244|196:244|229:257|229:257|310:265,1,232.8,0|0,0:0|0:0,0:0:0:0:
365,187,57751,2,0,L|442:193,1,77.6,8|0,0:0|0:0,0:0:0:0:
228,15,57923,2,0,B|217:36|217:36|227:89,1,77.6
284,271,58096,1,0,0:0:0:0:
324,98,58268,1,2,0:2:0:0:
253,372,58441,6,0,B|228:232|228:232|244:186|244:186|226:87,1,291
23,127,58785,6,0,B|164:184|164:184|156:140|156:140|123:157,1,232.8
226,87,59130,6,0,L|209:-6,1,72.7500027751924,8|0,0:0|0:0,0:0:0:0:
258,257,59303,2,0,L|246:186,1,72.7500027751924
427,126,59475,5,0,0:2:0:0:
224,3,59647,2,0,L|237:75,1,72.7500027751924,8|8,0:0|0:0,0:0:0:0:
275,356,59820,5,0,0:0:0:0:
335,102,59992,1,8,0:0:0:0:
126,313,60165,6,0,B|104:296|80:291|80:291|258:258,1,232.8,0|0,0:0|0:0,0:0:0:0:
443,276,60510,6,0,B|359:291|359:291|317:322|317:322|180:348,1,261.899992007447,8|0,0:0|0:0,0:0:0:0:
0,293,60854,6,0,L|343:231,1,291
320,149,61199,5,4,0:2:0:0:
371,361,61372,1,0,0:0:0:0:
395,87,61544,5,0,0:0:0:0:
308,286,61716,1,0,0:0:0:0:
206,6,61889,5,8,0:0:0:0:
214,53,61975,1,0,0:0:0:0:
222,101,62061,1,0,0:0:0:0:
231,149,62147,1,0,0:0:0:0:
239,197,62233,1,0,0:0:0:0:
131,68,62406,1,10,0:0:0:0:
332,156,62578,5,0,0:0:0:0:
113,59,62751,1,8,0:0:0:0:
108,308,62923,2,0,P|45:224|196:216,1,291
191,264,63268,6,0,L|121:232,1,77.6,8|0,0:0|0:0,0:0:0:0:
420,197,63441,2,0,L|490:164,1,77.6,0|0,0:0|0:0,0:0:0:0:
172,270,63613,2,0,B|26:202|26:202|62:187|62:187|84:219,1,232.8
251,240,63958,6,0,P|247:309|154:353,1,174.599994671631,0|0,0:0|0:0,0:0:0:0:
93,299,64303,1,0,0:0:0:0:
330,211,64475,1,0,0:0:0:0:
172,7,64647,5,8,0:0:0:0:
178,47,64734,1,0,0:0:0:0:
144,138,64820,1,0,0:0:0:0:
138,178,64906,1,0,0:0:0:0:
172,270,64992,5,0,0:0:0:0:
372,64,65165,2,0,L|386:141,1,77.6,8|8,0:0|0:0,0:0:0:0:
169,290,65337,5,0,0:0:0:0:
438,5,65509,1,8,0:0:0:0:
166,310,65682,6,0,B|130:111|130:111|109:169|109:169|136:196,1,291,0|0,0:0|0:0,0:0:0:0:
258,344,66027,5,6,0:2:0:0:
261,363,66716,6,0,L|280:253,1,87.2999973358155,6|2,0:2|0:0,0:0:0:0:
291,124,67061,1,2,0:0:0:0:
266,259,67234,1,2,0:0:0:0:
301,107,67406,2,0,L|281:-2,1,87.2999973358155,10|0,0:0|0:0,0:0:0:0:
211,180,67751,1,2,0:0:0:0:
346,204,67923,1,2,0:0:0:0:
170,360,68096,6,0,P|185:279|266:259,1,174.599994671631,0|2,0:0|0:0,0:0:0:0:
241,332,68613,1,0,0:0:0:0:
114,196,68785,2,0,L|11:177,2,87.2999973358155,10|0|0,0:0|0:0|0:0,0:0:0:0:
285,262,69303,1,2,0:0:0:0:
266,259,69475,6,0,L|366:276,1,87.2999973358155,0|2,0:0|0:0,0:0:0:0:
255,122,69820,1,2,0:0:0:0:
192,196,69992,1,2,0:0:0:0:
181,59,70165,2,0,L|80:41,1,87.2999973358155,10|0,0:0|0:0,0:0:0:0:
318,48,70510,1,2,0:0:0:0:
288,213,70682,1,2,0:0:0:0:
410,81,70854,6,0,L|394:-3,1,87.2999973358155,2|0,0:0|0:0,0:0:0:0:
400,98,71113,2,0,L|415:183,1,87.2999973358155,2|0,0:0|0:0,0:0:0:0:
384,17,71372,1,0,0:0:0:0:
382,275,71544,2,0,L|397:360,2,87.2999973358155,10|0|0,0:0|0:0|0:0,0:0:0:0:
304,114,72061,1,0,0:0:0:0:
319,126,72234,6,0,P|270:100|219:115,1,87.2999973358155,2|2,0:0|0:0,0:0:0:0:
415,183,72578,2,0,P|463:208|514:193,1,87.2999973358155,0|2,0:0|0:0,0:0:0:0:
290,241,72923,2,0,L|308:348,1,87.2999973358155,10|0,0:0|0:0,0:0:0:0:
323,149,73268,1,2,0:0:0:0:
398,87,73441,1,2,0:0:0:0:
198,207,73613,6,0,L|234:416,1,174.599994671631
228,378,74303,1,10,0:0:0:0:
299,277,74475,1,2,0:0:0:0:
198,207,74647,1,2,0:0:0:0:
268,105,74820,1,2,0:0:0:0:
149,266,74992,6,0,P|121:211|197:130,1,174.599994671631,2|0,0:0|0:0,0:0:0:0:
268,105,75510,1,2,0:0:0:0:
142,268,75682,6,0,P|114:213|190:132,1,174.599994671631,10|2,0:0|0:0,0:0:0:0:
268,105,76199,1,2,0:0:0:0:
110,341,76372,6,0,L|127:256,1,87.2999973358155,2|0,0:0|0:0,0:0:0:0:
162,121,76716,2,0,L|146:35,1,87.2999973358155,0|0,0:0|0:0,0:0:0:0:
148,26,76975,1,0,0:0:0:0:
151,18,77061,5,8,0:0:0:0:
284,201,77234,1,0,0:0:0:0:
284,201,77406,1,0,0:0:0:0:
287,220,77751,5,4,0:0:0:0:
