osu file format v14

[General]
AudioFilename: Enishi.mp3
AudioLeadIn: 0
PreviewTime: 11501
Countdown: 0
SampleSet: Soft
StackLeniency: 0.4
Mode: 0
LetterboxInBreaks: 0
WidescreenStoryboard: 0

[Editor]
DistanceSpacing: 1.3
BeatDivisor: 4
GridSize: 4
TimelineZoom: 2.100001

[Metadata]
Title:ENISHI (feat. Hatsune Miku)
TitleUnicode:ENISHI (feat. 初音ミク)
Artist:Ocelot
ArtistUnicode:Ocelot
Creator:DeRandom Otaku
Version:Hyper
Source:
Tags:Drumstep Vocaloid Dubstep ginsuke melancholia -Tochi Nothing special N0thingSpecial deppyforce deppy force Melancholia クロネコラウンジ 凛 Rin ぎんすけ Ginsuke
BeatmapID:1115477
BeatmapSetID:506140

[Difficulty]
HPDrainRate:6
CircleSize:3.8
OverallDifficulty:6.5
ApproachRate:8
SliderMultiplier:1.5
SliderTickRate:1

[Events]
//Background and Video events
0,0,"bg.jpg",0,0
//Break Periods
//Storyboard Layer 0 (Background)
//Storyboard Layer 1 (Fail)
//Storyboard Layer 2 (Pass)
//Storyboard Layer 3 (Foreground)
//Storyboard Sound Samples

[TimingPoints]
510,344.827586206897,4,2,0,40,1,0
11544,-100,4,2,0,40,0,0
22578,-117.647058823529,4,2,0,40,0,0
28096,-100,4,2,0,45,0,0
29130,-100,4,2,0,50,0,0
29475,-100,4,2,0,55,0,0
30854,-100,4,2,0,60,0,0
33613,-83.3333333333333,4,2,0,65,0,1
37751,-100,4,2,0,65,0,0
39130,-83.3333333333333,4,2,0,65,0,1
43268,-153.846153846154,4,2,0,40,0,0
44647,-83.3333333333333,4,2,0,65,0,1
48785,-100,4,2,0,65,0,0
50165,-83.3333333333333,4,2,0,65,0,1
54303,-100,4,2,0,65,0,0
54992,-153.846153846154,4,2,0,65,0,0
55682,-83.3333333333333,4,2,0,65,0,1
61199,-80,4,2,0,65,0,1
66027,-125,4,2,0,65,0,0
66716,-100,4,2,0,40,0,0

[Colours]
Combo1 : 159,255,64
Combo2 : 255,108,108
Combo3 : 255,43,43
Combo4 : 255,140,255

[HitObjects]
170,67,11544,6,0,L|253:73,1,75,4|0,1:0|0:0,0:0:0:0:
342,79,11889,2,0,P|347:116|338:155,1,75,0|0,0:0|0:0,0:0:0:0:
323,249,12234,1,8,0:0:0:0:
414,215,12406,2,0,P|451:210|490:219,1,75,0|0,0:0|0:0,0:0:0:0:
447,307,12751,1,0,0:0:0:0:
323,249,12923,6,0,B|229:249|229:249|160:274,1,150,0|0,1:0|0:0,0:0:0:0:
90,315,13441,1,0,0:0:0:0:
31,237,13613,2,0,B|31:143|31:143|56:74,1,150,8|0,0:0|0:0,0:0:0:0:
114,17,14130,1,0,0:0:0:0:
170,142,14303,6,0,L|255:143,1,75,0|0,1:0|0:0,0:0:0:0:
244,240,14647,2,0,L|329:241,1,75,0|0,0:0|0:0,0:0:0:0:
383,167,14992,2,0,P|352:238|390:314,1,150,8|0,0:0|0:0,0:0:0:0:
452,239,15510,1,0,0:0:0:0:
318,240,15682,6,0,L|191:240,2,112.5,0|0|0,1:0|1:0|1:0,0:0:0:0:
383,167,16372,2,0,P|383:100|324:43,1,150,8|0,0:0|0:0,0:0:0:0:
291,135,16889,1,0,1:0:0:0:
318,240,17061,6,0,L|330:318,1,75,0|0,1:0|0:0,0:0:0:0:
394,241,17406,2,0,L|382:163,1,75
291,135,17751,2,0,P|365:135|421:82,1,150,8|0,0:0|0:0,0:0:0:0:
331,42,18268,1,0,0:0:0:0:
263,149,18441,6,0,L|281:306,2,150,0|0|8,1:0|0:0|0:0,0:0:0:0:
197,76,19303,1,0,0:0:0:0:
118,18,19475,2,0,L|37:28,1,75,0|0,0:0|0:0,0:0:0:0:
197,76,19820,6,0,B|276:64|276:64|359:77,1,150,0|0,1:0|0:0,0:0:0:0:
440,97,20337,1,0,0:0:0:0:
373,168,20510,2,0,B|362:237|362:237|374:316,1,150,8|0,0:0|0:0,0:0:0:0:
453,374,21027,1,0,1:0:0:0:
340,297,21199,6,0,L|177:309,1,150,0|0,1:0|1:0,0:0:0:0:
76,214,21803,1,8,0:0:0:0:
76,214,21889,2,0,B|70:177|70:177|78:135,1,75,8|0,0:0|0:0,0:0:0:0:
139,65,22234,2,0,B|176:59|176:59|218:67,1,75,0|0,0:0|0:0,0:0:0:0:
252,187,22578,6,0,P|252:76|320:24,2,191.250003647804,4|0|0,1:0|1:0|0:0,0:0:0:0:
287,262,23785,1,0,0:0:0:0:
219,310,23958,6,0,B|91:316|91:316|127:258,2,191.250003647804,0|0|0,1:0|1:0|0:0,0:0:0:0:
287,262,25165,1,0,0:0:0:0:
252,187,25337,6,0,P|252:122|305:74,1,127.50000243187,0|0,1:0|1:0,0:0:0:0:
330,155,25854,1,0,1:0:0:0:
252,187,26027,2,0,P|187:187|139:134,1,127.50000243187,0|0,0:0|1:0,0:0:0:0:
68,264,26716,6,0,L|202:308,1,127.50000243187,0|0,1:0|0:0,0:0:0:0:
248,244,27234,1,0,1:0:0:0:
304,301,27406,2,0,L|426:262,1,127.50000243187
426,262,28096,6,0,L|407:107,1,150,4|0,1:0|1:0,0:0:0:0:
233,203,28785,2,0,L|252:358,1,150,0|0,1:0|1:0,0:0:0:0:
344,316,29303,1,0,1:0:0:0:
426,262,29475,6,0,P|430:188|407:107,1,150,4|0,1:0|1:0,0:0:0:0:
236,205,30165,2,0,P|232:279|255:360,1,150,0|0,1:0|1:0,0:0:0:0:
299,336,30596,1,0,1:0:0:0:
344,316,30682,1,0,1:0:0:0:
389,295,30768,1,0,1:0:0:0:
426,262,30854,6,0,B|410:225|410:225|410:173,1,75,4|0,1:0|1:0,0:0:0:0:
410,92,31199,2,0,B|373:108|373:108|321:108,1,75,0|0,1:0|1:0,0:0:0:0:
240,108,31544,2,0,L|186:90,3,37.5,4|0|0|0,1:0|1:0|1:0|1:0,0:0:0:0:
169,81,31889,1,0,1:0:0:0:
133,69,31975,1,0,1:0:0:0:
96,65,32061,1,0,1:0:0:0:
59,71,32147,1,0,1:0:0:0:
24,84,32234,5,4,1:0:0:0:
169,81,33613,6,0,B|186:125|186:125|184:175,1,89.9999972534181,4|0,1:0|0:0,0:0:0:0:
101,237,33958,2,0,B|188:205|188:205|280:240,1,179.999994506836,2|10,0:0|0:0,0:0:0:0:
359,296,34475,1,2,0:0:0:0:
365,188,34647,1,2,0:0:0:0:
269,236,34820,1,10,0:0:0:0:
275,128,34992,5,0,1:0:0:0:
275,128,35165,2,0,B|308:93|308:93|160:93|160:93|208:170,1,269.999991760254,0|10,0:0|0:0,0:0:0:0:
269,236,35854,1,2,0:0:0:0:
365,188,36027,1,2,0:0:0:0:
359,296,36199,1,10,0:0:0:0:
359,296,36285,1,0,0:0:0:0:
359,296,36372,6,0,B|423:281|474:299|474:299|456:273|462:234,1,179.999994506836,0|2,1:0|0:0,0:0:0:0:
445,130,36889,1,2,0:0:0:0:
355,188,37061,2,0,L|302:195,3,44.999998626709,8|0|0|0,0:0|0:0|0:0|0:0,0:0:0:0:
266,201,37406,1,0,0:0:0:0:
189,124,37578,1,8,0:0:0:0:
124,212,37751,6,0,L|136:296,1,75,4|0,1:0|0:0,0:0:0:0:
36,286,38096,2,0,L|48:202,1,75,0|0,0:0|0:0,0:0:0:0:
85,122,38441,1,12,0:0:0:0:
124,212,38613,1,0,0:0:0:0:
204,158,38785,2,0,L|184:113,2,37.5,8|8|8,0:0|0:0|0:0,0:0:0:0:
291,220,39130,6,0,P|209:188|124:212,1,179.999994506836,4|2,1:0|0:0,0:0:0:0:
47,288,39647,1,2,0:0:0:0:
123,364,39820,2,0,B|167:365|167:365|217:349,1,89.9999972534181,10|2,0:0|0:0,0:0:0:0:
308,304,40165,2,0,B|352:303|352:303|395:317,1,89.9999972534181,2|10,0:0|0:0,0:0:0:0:
463,232,40510,6,0,B|409:171|409:171|459:142|464:80,1,179.999994506836,0|2,1:0|0:0,0:0:0:0:
355,77,41027,1,2,0:0:0:0:
303,171,41199,1,10,0:0:0:0:
251,77,41372,1,2,0:0:0:0:
303,171,41544,2,0,L|303:233,3,44.999998626709,10|8|10|8,0:0|0:0|0:0|0:0,0:0:0:0:
303,262,41889,6,0,P|348:273|413:252,1,89.9999972534181,4|0,1:0|0:0,0:0:0:0:
493,239,42234,1,0,0:0:0:0:
411,171,42406,2,0,B|409:147|409:147|412:122,2,44.999998626709,0|0|12,1:0|1:0|0:0,0:0:0:0:
303,171,42751,2,0,B|301:147|301:147|304:122,2,44.999998626709,0|0|8,0:0|1:0|0:0,0:0:0:0:
303,279,43096,1,0,1:0:0:0:
220,211,43268,6,0,B|124:211|124:211|78:230,1,146.249993305207,0|0,1:0|0:0,0:0:0:0:
77,328,43958,2,0,B|123:347|123:347|219:347,1,146.249993305207,0|0,0:0|0:0,0:0:0:0:
303,279,44647,6,0,B|391:257|391:257|483:278,2,179.999994506836,4|2|10,1:0|0:0|0:0,0:0:0:0:
219,347,45510,1,2,0:0:0:0:
134,279,45682,2,0,P|127:232|136:185,1,89.9999972534181,0|8,0:0|0:0,0:0:0:0:
220,124,46027,6,0,P|139:158|51:111,1,179.999994506836,0|0,1:0|0:0,0:0:0:0:
142,52,46544,1,0,0:0:0:0:
220,124,46716,2,0,B|222:180|242:211|242:211|225:241|225:303,1,179.999994506836,8|0,0:0|0:0,0:0:0:0:
309,366,47234,1,0,0:0:0:0:
309,366,47320,1,8,0:0:0:0:
309,366,47406,6,0,B|346:342|346:342|412:381|482:336,1,179.999994506836,0|2,1:0|0:0,0:0:0:0:
474,340,47923,1,2,0:0:0:0:
410,252,48096,2,0,L|410:197,3,44.999998626709,8|0|0|0,0:0|0:0|0:0|0:0,0:0:0:0:
410,162,48441,2,0,P|410:113|432:73,1,89.9999972534181,0|8,0:0|0:0,0:0:0:0:
337,30,48785,6,0,L|184:48,1,150,4|0,1:0|1:0,0:0:0:0:
118,117,49303,1,0,0:0:0:0:
186,185,49475,2,0,B|202:259|202:259|184:352,1,150,12|8,0:0|0:0,0:0:0:0:
180,368,49906,1,8,0:0:0:0:
180,368,49992,1,8,0:0:0:0:
284,337,50165,6,0,L|393:344,1,89.9999972534181,4|0,1:0|0:0,0:0:0:0:
464,283,50510,1,2,0:0:0:0:
464,283,50682,1,2,0:0:0:0:
372,226,50854,2,0,B|372:180|372:180|388:130,1,89.9999972534181,10|2,0:0|0:0,0:0:0:0:
277,138,51199,2,0,B|290:179|290:179|290:225,1,89.9999972534181,0|8,0:0|0:0,0:0:0:0:
281,265,51458,1,8,0:0:0:0:
281,265,51544,6,0,B|201:265|201:265|195:270|195:270|73:270,1,179.999994506836,0|0,1:0|0:0,0:0:0:0:
26,193,52061,1,0,0:0:0:0:
102,116,52234,2,0,B|194:116|194:116|200:121|200:121|280:121,1,179.999994506836,8|8,0:0|0:0,0:0:0:0:
325,121,52665,1,8,0:0:0:0:
370,121,52751,1,8,0:0:0:0:
415,121,52837,1,8,0:0:0:0:
460,121,52923,6,0,L|453:222,1,89.9999972534181,4|0,1:0|1:0,0:0:0:0:
478,316,53268,1,0,1:0:0:0:
374,284,53441,2,0,L|325:288,2,44.999998626709,0|0|12,1:0|1:0|0:0,0:0:0:0:
454,210,53785,2,0,L|459:148,2,44.999998626709,0|0|8,0:0|1:0|0:0,0:0:0:0:
478,316,54130,1,0,1:0:0:0:
374,284,54303,6,0,L|210:298,1,150,8|8,0:0|0:0,0:0:0:0:
134,242,54820,1,8,0:0:0:0:
134,242,54906,1,8,0:0:0:0:
134,242,54992,6,0,P|116:176|160:109,1,146.249993305207,0|0,1:0|0:0,0:0:0:0:
276,79,55682,6,0,L|385:91,1,89.9999972534181,4|0,1:0|0:0,0:0:0:0:
298,196,56027,2,0,L|209:187,1,89.9999972534181,0|0,0:0|0:0,0:0:0:0:
158,71,56372,2,0,L|99:79,3,44.999998626709,8|0|0|0,0:0|0:0|0:0|0:0,0:0:0:0:
78,81,56716,1,0,0:0:0:0:
16,192,56889,1,8,0:0:0:0:
78,303,57061,6,0,B|122:311|122:311|176:301,1,89.9999972534181,0|8,1:0|0:0,0:0:0:0:
241,200,57406,2,0,P|208:281|238:365,1,179.999994506836,8|8,0:0|0:0,0:0:0:0:
337,286,57923,1,0,0:0:0:0:
337,286,58010,1,0,0:0:0:0:
337,286,58096,2,0,P|381:307|437:314,1,89.9999972534181,0|0,0:0|0:0,0:0:0:0:
414,189,58441,6,0,B|372:198|338:188|338:188|318:203|318:203|286:186|205:209,2,179.999994506836,0|0|8,1:0|0:0|0:0,0:0:0:0:
498,95,59303,1,0,0:0:0:0:
498,95,59389,1,0,0:0:0:0:
498,95,59475,1,0,0:0:0:0:
379,52,59647,1,8,0:0:0:0:
379,52,59734,1,8,0:0:0:0:
379,52,59820,6,0,L|274:63,1,89.9999972534181,0|8,1:0|0:0,0:0:0:0:
164,76,60165,1,0,1:0:0:0:
164,76,60510,2,0,B|176:120|176:120|166:165,1,89.9999972534181,8|0,0:0|0:0,0:0:0:0:
40,163,60854,2,0,B|28:207|28:207|38:252,1,89.9999972534181,0|0,0:0|0:0,0:0:0:0:
131,344,61199,6,0,B|185:326|185:326|263:326|263:326|352:302,1,187.5,4|0,1:0|0:0,0:0:0:0:
406,219,61716,1,0,1:0:0:0:
311,124,61889,2,0,L|245:129,3,46.875,8|0|0|0,0:0|0:0|0:0|0:0,0:0:0:0:
224,131,62234,1,0,0:0:0:0:
316,39,62406,1,8,0:0:0:0:
409,131,62578,6,0,P|421:179|403:224,1,93.75,0|8,1:0|0:0,0:0:0:0:
313,312,62923,2,0,L|208:313,1,93.75,0|0,1:0|0:0,0:0:0:0:
112,235,63268,2,0,L|58:235,2,46.875,8|0|0,0:0|0:0|0:0,0:0:0:0:
205,141,63613,1,0,0:0:0:0:
205,141,63785,1,0,0:0:0:0:
73,141,63958,6,0,P|7:106|81:67,2,187.5,0|0|8,1:0|0:0|0:0,0:0:0:0:
205,141,64820,1,0,0:0:0:0:
205,141,64906,1,0,0:0:0:0:
205,141,64992,1,0,0:0:0:0:
298,47,65165,1,8,0:0:0:0:
298,47,65251,1,8,0:0:0:0:
298,47,65337,1,0,1:0:0:0:
391,140,65510,2,0,B|405:187|405:187|393:236,1,93.75,8|0,0:0|0:0,0:0:0:0:
394,230,66027,6,0,P|313:231|313:324,1,180,4|0,1:0|0:0,0:0:0:0:
196,347,66716,6,0,L|111:347,1,75,4|0,1:0|0:0,0:0:0:0:
174,265,67061,2,0,L|259:265,1,75,0|0,0:0|0:0,0:0:0:0:
346,265,67406,2,0,P|333:222|341:178,2,75,8|0|0,0:0|0:0|0:0,0:0:0:0:
431,216,67923,1,0,0:0:0:0:
337,152,68096,6,0,L|179:163,1,150,0|0,1:0|0:0,0:0:0:0:
104,110,68613,1,0,0:0:0:0:
179,48,68785,2,0,L|328:37,1,150,8|0,0:0|0:0,0:0:0:0:
425,57,69303,1,0,0:0:0:0:
337,152,69475,6,0,P|337:196|352:224,1,75,0|0,1:0|0:0,0:0:0:0:
376,317,69820,2,0,P|332:317|294:329,1,75,0|0,0:0|0:0,0:0:0:0:
207,350,70165,2,0,B|188:277|188:277|204:200,1,150,8|0,0:0|0:0,0:0:0:0:
265,128,70682,1,0,0:0:0:0:
336,193,70854,2,0,B|412:193|412:193|451:176,2,112.5,0|0|0,1:0|1:0|1:0,0:0:0:0:
265,128,71544,1,8,0:0:0:0:
229,134,71889,1,0,1:0:0:0:
194,144,72234,6,0,L|182:66,1,75,4|0,1:0|0:0,0:0:0:0:
118,143,72579,2,0,L|130:221,1,75,0|0,0:0|0:0,0:0:0:0:
221,249,72924,2,0,P|147:249|91:302,1,150,8|0,0:0|0:0,0:0:0:0:
181,342,73441,1,0,0:0:0:0:
249,235,73614,6,0,L|231:78,2,150,0|0|8,1:0|0:0|0:0,0:0:0:0:
315,308,74476,1,0,0:0:0:0:
394,366,74648,2,0,L|475:356,1,75,0|0,0:0|0:0,0:0:0:0:
315,308,74993,6,0,B|236:320|236:320|153:307,1,150,0|0,1:0|0:0,0:0:0:0:
72,287,75510,1,0,0:0:0:0:
139,216,75683,2,0,B|150:147|150:147|138:68,1,150,8|0,0:0|0:0,0:0:0:0:
59,10,76200,1,0,1:0:0:0:
172,87,76372,6,0,L|335:75,1,150,0|0,1:0|1:0,0:0:0:0:
436,170,76976,1,8,0:0:0:0:
436,170,77062,2,0,B|442:207|442:207|435:252,1,75,8|0,0:0|0:0,0:0:0:0:
373,319,77407,2,0,B|336:325|336:325|294:317,1,75,0|0,0:0|0:0,0:0:0:0:
457,327,77751,5,4,1:0:0:0:
