osu file format v14

[General]
AudioFilename: Enishi.mp3
AudioLeadIn: 0
PreviewTime: 11501
Countdown: 0
SampleSet: Soft
StackLeniency: 0.6
Mode: 0
LetterboxInBreaks: 0
WidescreenStoryboard: 0

[Editor]
DistanceSpacing: 1
BeatDivisor: 4
GridSize: 4
TimelineZoom: 3.699999

[Metadata]
Title:ENISHI (feat. Hatsune Miku)
TitleUnicode:ENISHI (feat. 初音ミク)
Artist:Ocelot
ArtistUnicode:Ocelot
Creator:DeRandom Otaku
Version:Deppy's EX
Source:
Tags:Drumstep Vocaloid Dubstep ginsuke melancholia -Tochi Nothing special N0thingSpecial deppyforce deppy force Melancholia クロネコラウンジ 凛 Rin ぎんすけ Ginsuke
BeatmapID:1118876
BeatmapSetID:506140

[Difficulty]
HPDrainRate:6
CircleSize:6.4
OverallDifficulty:8.8
ApproachRate:9.6
SliderMultiplier:2.3
SliderTickRate:1

[Events]
//Background and Video events
0,0,"bg.jpg",0,0
//Break Periods
//Storyboard Layer 0 (Background)
//Storyboard Layer 1 (Fail)
//Storyboard Layer 2 (Pass)
//Storyboard Layer 3 (Foreground)
//Storyboard Sound Samples

[TimingPoints]
510,344.827586206897,4,2,2,30,1,0
510,-200,4,2,2,30,0,0
11544,-166.666666666667,4,2,2,40,0,0
22578,-133.333333333333,4,2,2,40,0,0
23010,-133.333333333333,4,2,2,5,0,0
23096,-133.333333333333,4,2,2,40,0,0
23527,-133.333333333333,4,2,2,5,0,0
23613,-133.333333333333,4,2,2,40,0,0
24389,-133.333333333333,4,2,2,5,0,0
24475,-133.333333333333,4,2,2,40,0,0
24906,-133.333333333333,4,2,2,5,0,0
24992,-133.333333333333,4,2,2,40,0,0
25596,-133.333333333333,4,2,2,5,0,0
25682,-133.333333333333,4,2,2,40,0,0
25941,-133.333333333333,4,2,2,5,0,0
26027,-133.333333333333,4,2,2,40,0,0
26285,-133.333333333333,4,2,2,5,0,0
26372,-133.333333333333,4,2,2,40,0,0
26630,-133.333333333333,4,2,2,5,0,0
26716,-133.333333333333,4,2,2,40,0,0
26975,-133.333333333333,4,2,2,5,0,0
27061,-133.333333333333,4,2,2,40,0,0
27320,-133.333333333333,4,2,2,5,0,0
27406,-133.333333333333,4,2,2,40,0,0
27665,-133.333333333333,4,2,2,5,0,0
27751,-133.333333333333,4,2,2,40,0,0
28010,-133.333333333333,4,2,2,5,0,0
28096,-166.666666666667,4,2,2,45,0,0
29130,-166.666666666667,4,2,2,50,0,0
29475,-166.666666666667,4,2,2,55,0,0
30854,-166.666666666667,4,2,2,60,0,0
32234,-400,4,2,2,60,0,0
32578,-400,4,2,2,5,0,0
33613,-100,4,2,2,65,0,1
33872,-100,4,2,2,5,0,1
33958,-125,4,2,2,65,0,1
34216,-125,4,2,2,5,0,1
34303,-80,4,2,2,65,0,1
34992,-200,4,2,2,65,0,1
35165,-200,4,2,2,5,0,1
35251,-125,4,2,2,39,0,1
35596,-125,4,2,2,5,0,1
35682,-80,4,2,2,65,0,1
36372,-133.333333333333,4,2,2,65,0,1
36630,-100,4,2,2,5,0,1
36716,-100,4,2,2,65,0,1
36803,-100,4,2,2,5,0,1
36889,-200,4,2,2,65,0,1
36975,-200,4,2,2,5,0,1
37061,-66.6666666666667,4,2,2,65,0,1
37406,-111.111111111111,4,2,2,65,0,1
37578,-83.3333333333333,4,2,2,65,0,1
37751,-50,4,2,2,65,0,0
39130,-100,4,2,2,65,0,1
39389,-100,4,2,2,5,0,1
39475,-125,4,2,2,65,0,1
39561,-125,4,2,2,5,0,1
39647,-111.111111111111,4,2,2,65,0,1
39820,-80,4,2,2,65,0,1
40510,-71.4285714285714,4,2,2,65,0,1
40768,-71.4285714285714,4,2,2,5,0,1
40854,-100,4,2,2,65,0,1
40941,-100,4,2,2,5,0,1
41027,-90.9090909090909,4,2,2,65,0,1
41199,-80,4,2,2,65,0,1
41889,-90.9090909090909,4,2,2,65,0,1
42061,-100,4,2,2,65,0,1
42234,-111.111111111111,4,2,2,65,0,1
42406,-125,4,2,2,65,0,1
42578,-142.857142857143,4,2,2,65,0,1
42751,-166.666666666667,4,2,2,65,0,1
42923,-200,4,2,2,65,0,1
43096,-250,4,2,2,65,0,1
43268,-400,4,2,2,40,0,0
43613,-400,4,2,2,5,0,0
43958,-400,4,2,2,40,0,0
44303,-400,4,2,2,5,0,0
44647,-71.4285714285714,4,2,2,65,0,1
44906,-71.4285714285714,4,2,2,5,0,1
44992,-111.111111111111,4,2,2,65,0,1
45251,-111.111111111111,4,2,2,5,0,1
45337,-76.9230769230769,4,2,2,65,0,1
45682,-100,4,2,2,65,0,1
46027,-125,4,2,2,65,0,1
46285,-125,4,2,2,5,0,1
46372,-100,4,2,2,65,0,1
46458,-100,4,2,2,5,0,1
46544,-100,4,2,2,65,0,1
46630,-100,4,2,2,5,0,1
46716,-76.9230769230769,4,2,2,65,0,1
46975,-76.9230769230769,4,2,2,5,0,1
47061,-133.333333333333,4,2,2,65,0,1
47406,-66.6666666666667,4,2,2,65,0,1
47665,-66.6666666666667,4,2,2,5,0,1
47751,-200,4,2,2,65,0,1
47837,-200,4,2,2,5,0,1
48096,-71.4285714285714,4,2,2,65,0,1
48441,-83.3333333333333,4,2,2,65,0,1
48785,-117.647058823529,4,2,2,65,0,0
48872,-117.647058823529,4,2,2,5,0,0
48958,-105.263157894737,4,2,2,65,0,0
49044,-105.263157894737,4,2,2,5,0,0
49130,-83.3333333333333,4,2,2,65,0,0
49216,-83.3333333333333,4,2,2,5,0,0
49303,-71.4285714285714,4,2,2,65,0,0
49389,-71.4285714285714,4,2,2,5,0,0
49475,-166.666666666667,4,2,2,65,0,0
49734,-166.666666666667,4,2,2,5,0,0
49820,-200,4,2,2,65,0,0
50165,-100,4,2,2,65,0,1
50251,-100,4,2,2,5,0,1
50337,-100,4,2,2,65,0,1
50423,-100,4,2,2,5,0,1
50510,-76.9230769230769,4,2,2,65,0,1
50596,-76.9230769230769,4,2,2,5,0,1
50682,-100,4,2,2,65,0,1
50854,-80,4,2,2,65,0,1
51199,-66.6666666666667,4,2,2,65,0,1
51544,-200,4,2,2,65,0,1
51803,-100,4,2,2,5,0,1
51889,-100,4,2,2,65,0,1
51975,-100,4,2,2,5,0,1
52061,-100,4,2,2,65,0,1
52147,-100,4,2,2,5,0,1
52234,-76.9230769230769,4,2,2,65,0,1
52923,-90.9090909090909,4,2,2,65,0,1
54303,-111.111111111111,4,2,2,65,0,0
54647,-83.3333333333333,4,2,2,60,0,0
54992,-50,4,2,2,25,0,0
55682,-166.666666666667,4,2,2,65,0,1
56372,-90.9090909090909,4,2,2,65,0,1
57406,-200,4,2,2,65,0,1
57665,-200,4,2,2,5,0,1
57751,-90.9090909090909,4,2,2,65,0,1
58441,-66.6666666666667,4,2,2,65,0,1
58699,-66.6666666666667,4,2,2,5,0,1
58785,-57.1428571428571,4,2,2,65,0,1
59044,-57.1428571428571,4,2,2,5,0,1
59130,-111.111111111111,4,2,2,65,0,1
59475,-90.9090909090909,4,2,2,65,0,1
60165,-71.4285714285714,4,2,2,65,0,1
60510,-125,4,2,2,65,0,1
60768,-125,4,2,2,5,0,1
60854,-200,4,2,2,65,0,1
61113,-200,4,2,2,5,0,1
61199,-62.5,4,2,2,65,0,1
61458,-62.5,4,2,2,5,0,1
61544,-100,4,2,2,65,0,1
61889,-83.3333333333333,4,2,2,65,0,1
62923,-125,4,2,2,65,0,1
63182,-125,4,2,2,5,0,1
63268,-66.6666666666667,4,2,2,65,0,1
63613,-200,4,2,2,65,0,1
63872,-200,4,2,2,5,0,1
63958,-100,4,2,2,65,0,1
64216,-100,4,2,2,5,0,1
64303,-133.333333333333,4,2,2,65,0,1
64561,-133.333333333333,4,2,2,5,0,1
64647,-50,4,2,2,65,0,1
65337,-90.9090909090909,4,2,2,65,0,1
65510,-200,4,2,2,65,0,1
65682,-133.333333333333,4,2,2,65,0,1
65941,-133.333333333333,4,2,2,5,0,1
66027,-400,4,2,2,65,0,0
66372,-400,4,2,2,5,0,0
66716,-50,4,2,2,40,0,0
66889,-133.333333333333,4,2,2,40,0,0
71889,-200,4,2,2,40,0,0
72234,-100,4,2,2,40,0,0
72578,-133.333333333333,4,2,2,40,0,0
77751,-400,4,2,2,40,0,0
78441,-400,4,2,2,5,0,0

[Colours]
Combo1 : 159,255,64
Combo2 : 255,108,108
Combo3 : 255,43,43
Combo4 : 255,140,255

[HitObjects]
94,166,510,6,0,B|66:157|66:157|37:158,1,57.5,4|2,0:2|0:0,0:0:0:0:
113,187,768,1,0,0:0:0:0:
132,208,854,6,0,L|127:236,1,28.75,0|0,0:0|0:0,0:0:0:0:
202,204,1027,2,0,L|197:232,1,28.75,2|0,0:0|0:0,0:0:0:0:
237,191,1199,2,0,L|232:219,1,28.75,2|0,0:0|0:0,0:0:0:0:
245,181,1372,2,0,L|240:209,1,28.75,0|0,0:0|0:0,0:0:0:0:
230,299,1544,1,0,0:0:0:0:
229,299,1889,6,0,P|257:292|286:294,1,57.5,2|0,0:0|0:0,0:0:0:0:
308,305,2234,1,2,0:0:0:0:
378,228,2578,6,0,P|350:221|321:223,1,57.5,2|0,0:0|0:0,0:0:0:0:
459,236,2923,2,0,P|431:243|402:241,1,57.5,2|2,0:0|0:0,0:0:0:0:
428,96,3268,6,0,L|424:153,1,57.5,0|0,0:0|0:0,0:0:0:0:
407,77,3527,1,0,0:0:0:0:
385,57,3613,6,0,P|370:55|356:56,1,28.75,2|0,0:0|0:0,0:0:0:0:
312,10,3785,2,0,P|303:21|296:34,1,28.75,2|0,0:0|0:0,0:0:0:0:
249,24,3958,2,0,P|254:37|262:49,1,28.75,2|0,0:0|0:0,0:0:0:0:
233,48,4130,2,0,P|247:49|261:48,1,28.75,0|0,0:0|0:0,0:0:0:0:
379,29,4303,1,0,0:0:0:0:
379,29,4647,6,0,L|374:87,2,57.5,2|0|2,0:0|0:0|0:0,0:0:0:0:
394,114,5337,6,0,L|389:172,1,57.5,2|0,0:0|0:0,0:0:0:0:
379,29,5682,2,0,L|374:87,1,57.5,0|0,0:0|0:0,0:0:0:0:
397,234,6027,6,0,P|369:233|344:218,1,57.5,2|2,0:2|0:0,0:0:0:0:
398,263,6285,1,0,0:0:0:0:
398,292,6372,1,0,0:0:0:0:
470,340,6544,1,2,0:0:0:0:
356,307,6716,1,2,0:0:0:0:
440,307,6889,1,0,0:0:0:0:
326,340,7061,1,0,0:0:0:0:
326,339,7406,6,0,P|295:308|301:351,1,115,2|2,0:0|0:0,0:0:0:0:
326,340,8096,6,0,B|298:331|298:331|276:349,1,57.5,2|0,0:0|0:0,0:0:0:0:
398,292,8441,2,0,B|370:283|370:283|348:301,1,57.5,0|2,0:0|0:0,0:0:0:0:
242,240,8785,6,0,P|218:224|204:199,1,57.5,0|0,0:0|0:0,0:0:0:0:
228,264,9043,1,0,0:0:0:0:
213,289,9130,1,0,0:0:0:0:
251,367,9302,1,2,0:0:0:0:
169,281,9474,1,2,0:0:0:0:
242,323,9647,1,0,0:0:0:0:
127,295,9820,2,0,L|123:352,1,57.5,2|0,0:0|0:0,0:0:0:0:
52,248,10165,6,0,L|56:191,1,57.5,2|0,0:0|0:0,0:0:0:0:
58,321,10510,1,0,0:0:0:0:
58,321,10854,6,0,L|62:264,1,57.5,0|0,0:0|0:0,0:0:0:0:
50,118,11199,2,0,L|46:175,1,57.5,0|0,0:0|0:0,0:0:0:0:
164,271,11544,6,0,B|198:278|233:266|233:266|269:253|299:263|299:263|295:297|324:317|355:317|371:303,1,241.499992630005,4|0,0:2|0:0,0:0:0:0:
261,290,12234,2,0,P|194:305|126:294,1,137.999995788574,10|0,0:0|0:0,0:0:0:0:
265,286,12751,1,0,0:0:0:0:
436,310,12923,6,0,P|407:273|370:301,1,103.499996841431,0|0,0:0|0:0,0:0:0:0:
488,251,13268,2,0,P|450:216|399:206,1,103.499996841431,2|0,0:0|0:0,0:0:0:0:
371,302,13613,1,10,0:0:0:0:
371,302,13785,1,2,0:0:0:0:
492,255,13958,1,0,0:0:0:0:
184,101,14303,6,0,B|177:136|177:136|183:168,1,68.9999978942872,0|2,0:0|0:0,0:0:0:0:
149,97,14561,1,0,0:0:0:0:
114,92,14647,2,0,L|107:58,1,34.4999989471436,2|0,0:0|0:0,0:0:0:0:
105,100,14820,2,0,L|98:66,1,34.4999989471436,2|0,0:0|0:0,0:0:0:0:
110,170,14992,2,0,L|82:35,1,137.999995788574,10|0,0:0|0:0,0:0:0:0:
101,178,15510,1,2,0:0:0:0:
249,266,15682,6,0,B|283:274|283:274|316:268,1,68.9999978942872,2|0,0:0|0:0,0:0:0:0:
177,291,15941,1,2,0:0:0:0:
177,291,16027,1,0,0:0:0:0:
249,266,16199,1,0,0:0:0:0:
109,288,16372,2,0,B|143:296|143:296|176:290,1,68.9999978942872,10|0,0:0|0:0,0:0:0:0:
316,268,16716,1,2,0:0:0:0:
237,227,16889,1,0,0:0:0:0:
139,364,17061,5,2,0:2:0:0:
109,288,17234,1,2,0:0:0:0:
109,288,17320,1,0,0:0:0:0:
109,288,17406,1,0,0:0:0:0:
146,383,17578,1,2,0:0:0:0:
23,304,17751,1,10,0:0:0:0:
23,304,18096,2,0,L|28:236,1,68.9999978942872,0|2,0:0|0:0,0:0:0:0:
16,62,18441,6,0,B|5:129|5:129|12:198,1,137.999995788574,0|0,0:0|0:0,0:0:0:0:
16,62,19130,2,0,L|85:56,1,68.9999978942872,10|2,0:0|0:0,0:0:0:0:
109,69,19475,2,0,L|178:63,1,68.9999978942872,2|2,0:0|0:0,0:0:0:0:
335,11,19820,6,0,L|404:5,1,68.9999978942872,0|0,0:0|0:0,0:0:0:0:
318,41,20078,1,0,0:0:0:0:
317,76,20165,1,0,0:0:0:0:
321,93,20251,1,0,0:0:0:0:
329,103,20337,1,2,0:0:0:0:
329,103,20423,1,0,0:0:0:0:
374,136,20510,6,0,L|443:130,2,68.9999978942872,10|0|2,0:0|0:0|0:0,0:0:0:0:
248,64,21027,1,0,0:0:0:0:
154,209,21199,6,0,P|191:172|238:152,1,103.499996841431,0|0,0:0|0:0,0:0:0:0:
168,277,21544,2,0,P|181:245|201:217,1,68.9999978942872,0|0,0:0|0:0,0:0:0:0:
222,320,21803,1,0,0:0:0:0:
222,320,21889,1,8,0:2:0:0:
114,203,22061,1,0,0:0:0:0:
67,356,22234,1,0,0:0:0:0:
67,356,22578,6,0,B|49:272|49:272|80:242|80:242|62:156,1,215.625008225441,4|0,0:0|0:0,0:0:0:0:
100,365,23096,2,0,B|82:281|82:281|113:251|113:251|95:165,1,215.625008225441,0|0,0:0|0:0,0:0:0:0:
222,320,23613,1,2,0:0:0:0:
82,281,23785,1,2,0:0:0:0:
240,105,23958,6,0,L|222:319,1,215.625008225441,0|0,0:0|0:0,0:0:0:0:
208,121,24475,2,0,L|190:335,1,215.625008225441,0|0,0:0|0:0,0:0:0:0:
272,173,24992,1,2,0:0:0:0:
132,212,25164,1,2,0:0:0:0:
330,237,25337,6,0,P|359:182|343:121,1,129.375004935265,0|0,0:0|0:0,0:0:0:0:
272,173,25682,2,0,L|400:156,1,129.375004935265,2|0,0:0|0:0,0:0:0:0:
344,355,26027,2,0,P|314:299|330:238,1,129.375004935265,0|0,0:0|0:0,0:0:0:0:
273,273,26372,2,0,L|402:290,1,129.375004935265,2|0,0:0|0:0,0:0:0:0:
216,372,26716,6,0,L|344:355,1,129.375004935265,0|0,0:0|0:0,0:0:0:0:
193,244,27061,2,0,L|321:260,1,129.375004935265
151,370,27406,2,0,L|279:353,1,129.375004935265,0|0,0:0|0:0,0:0:0:0:
142,298,27751,2,0,L|13:314,1,129.375004935265,0|0,0:0|0:0,0:0:0:0:
193,244,28096,5,4,0:2:0:0:
337,289,28441,1,0,0:0:0:0:
483,253,28785,1,0,0:0:0:0:
483,253,29130,5,0,0:0:0:0:
337,289,29303,1,0,0:0:0:0:
483,253,29475,5,4,0:2:0:0:
337,289,29820,1,0,0:0:0:0:
193,244,30165,1,0,0:0:0:0:
193,244,30510,6,0,L|197:278,1,34.4999989471436,0|0,0:0|0:0,0:0:0:0:
337,289,30682,2,0,L|341:323,1,34.4999989471436,0|0,0:0|0:0,0:0:0:0:
483,253,30854,5,4,0:2:0:0:
339,208,31027,1,0,0:0:0:0:
305,60,31199,1,0,0:0:0:0:
449,105,31372,1,0,0:0:0:0:
305,60,31544,5,4,0:2:0:0:
313,97,31630,1,0,0:0:0:0:
322,134,31716,1,0,0:0:0:0:
330,171,31803,1,0,0:0:0:0:
339,208,31889,1,0,0:0:0:0:
375,219,31975,1,0,0:0:0:0:
411,230,32061,1,0,0:0:0:0:
447,241,32148,1,0,0:0:0:0:
483,253,32234,6,0,P|405:199|367:285,1,215.625,4|0,0:2|0:0,0:0:0:0:
377,177,33613,6,0,L|388:349,1,172.5,4|0,0:2|0:0,0:0:0:0:
366,149,33958,2,0,B|357:219|357:219|368:289,1,138,2|0,0:2|0:0,0:0:0:0:
496,99,34303,6,0,L|425:104,1,71.875,8|0,0:0|0:0,0:0:0:0:
286,81,34475,2,0,L|357:76,1,71.875,0|0,0:0|0:0,0:0:0:0:
511,67,34647,2,0,L|440:72,1,71.875,2|0,0:2|0:0,0:0:0:0:
273,51,34819,2,0,L|344:46,1,71.875,0|0,0:0|0:0,0:0:0:0:
202,147,34992,6,0,P|181:161|171:138,1,57.5,0|0,0:0|0:0,0:0:0:0:
275,147,35251,2,0,P|197:109|137:171,1,184,0|0,0:0|0:0,0:0:0:0:
279,245,35682,6,0,B|286:174,1,71.875,8|0,0:0|0:0,0:0:0:0:
202,289,35854,2,0,B|193:254|193:254|195:218,1,71.875,0|0,0:0|0:0,0:0:0:0:
348,302,36027,2,0,B|362:269|362:269|367:233,1,71.875,2|0,0:2|0:0,0:0:0:0:
271,346,36199,5,8,0:0:0:0:
205,318,36285,1,8,0:0:0:0:
137,340,36372,6,0,B|73:353|73:353|9:337,1,129.375004935265,8|0,0:0|0:0,0:0:0:0:
154,368,36716,2,0,B|91:380,1,57.5,2|0,0:2|0:0,0:0:0:0:
40,332,36889,2,0,B|11:337,1,28.75,0|0,0:0|0:0,0:0:0:0:
56,200,37061,5,8,0:0:0:0:
75,221,37147,1,0,0:0:0:0:
112,242,37234,1,0,0:0:0:0:
172,244,37320,1,0,0:0:0:0:
229,209,37406,2,0,P|242:188|247:163,1,51.7499984207154,0|0,0:0|0:0,0:0:0:0:
181,91,37578,2,0,P|164:120|160:155,1,68.9999978942872,8|0,0:0|0:0,0:0:0:0:
309,248,37751,6,0,L|423:242,1,115,4|0,0:2|0:0,0:0:0:0:
193,281,37923,2,0,L|307:275,1,115,0|0,0:0|0:0,0:0:0:0:
158,127,38096,6,0,L|44:121,1,115,2|0,0:2|0:0,0:0:0:0:
278,170,38268,2,0,L|164:164,1,115,0|0,0:0|0:0,0:0:0:0:
371,7,38441,6,0,L|485:1,1,115,12|0,0:2|0:0,0:0:0:0:
259,84,38613,2,0,L|373:78,1,115,0|0,0:0|0:0,0:0:0:0:
178,5,38785,1,8,0:0:0:0:
178,5,38872,1,8,0:0:0:0:
178,5,38958,2,0,L|292:11,1,115,0|0,0:0|0:0,0:0:0:0:
430,118,39130,6,0,P|430:202|377:268,1,172.5,4|0,0:2|0:0,0:0:0:0:
508,170,39475,2,0,L|462:172,1,46,2|0,0:2|0:0,0:0:0:0:
354,192,39647,2,0,L|302:188,1,51.7499984207154,0|0,0:0|0:0,0:0:0:0:
495,132,39820,6,0,P|465:114|430:118,1,71.875,8|0,0:0|0:0,0:0:0:0:
345,25,39992,2,0,P|327:55|331:91,1,71.875,0|0,0:0|0:0,0:0:0:0:
174,199,40165,2,0,P|204:181|239:184,1,71.875,2|0,0:2|0:0,0:0:0:0:
345,156,40337,2,0,P|348:120|330:90,1,71.875,8|0,0:0|0:0,0:0:0:0:
331,307,40510,6,0,B|370:290|410:295|410:295|332:273|250:286,1,241.499992630005,0|2,0:0|0:0,0:0:0:0:
417,317,40854,2,0,P|389:317|360:321,1,57.5,2|0,0:2|0:0,0:0:0:0:
212,350,41027,2,0,P|243:351|274:346,1,63.2500019302369,0|0,0:0|0:0,0:0:0:0:
184,220,41199,6,0,L|189:291,1,71.875,8|0,0:0|0:0,0:0:0:0:
42,353,41372,2,0,L|47:282,1,71.875,0|0,0:0|0:0,0:0:0:0:
187,327,41544,5,8,0:0:0:0:
244,324,41630,1,8,0:0:0:0:
301,322,41716,1,8,0:0:0:0:
359,321,41802,1,8,0:0:0:0:
417,317,41889,6,0,L|412:380,1,63.2500019302369,4|0,0:2|0:0,0:0:0:0:
364,263,42061,2,0,L|359:320,1,57.5,0|0,0:0|0:0,0:0:0:0:
490,281,42234,2,0,L|493:332,1,51.7499984207154,2|0,0:2|0:0,0:0:0:0:
508,182,42406,5,0,0:0:0:0:
508,182,42492,1,0,0:0:0:0:
433,209,42578,2,0,L|429:249,1,40.2499987716675,12|0,0:2|0:0,0:0:0:0:
399,163,42751,5,0,0:0:0:0:
399,163,42837,1,0,0:0:0:0:
459,119,42923,2,0,L|461:147,1,28.75,8|0,0:0|0:0,0:0:0:0:
462,106,43096,2,0,L|463:128,1,23,0|0,0:0|0:0,0:0:0:0:
417,53,43268,6,0,B|368:44|368:44|320:58,1,100.625,2|0,0:2|0:0,0:0:0:0:
504,20,43958,2,0,B|455:11|455:11|407:25,1,100.625,2|0,0:2|0:0,0:0:0:0:
227,86,44647,6,0,B|181:108|195:151|195:151|277:126|259:21,1,241.499992630005,4|0,0:2|0:0,0:0:0:0:
211,176,44992,2,0,P|273:134|291:60,1,155.249995262146,2|0,0:2|0:0,0:0:0:0:
122,148,45337,6,0,L|197:152,1,74.7499965782167,8|0,0:0|0:0,0:0:0:0:
328,190,45510,2,0,L|403:194,1,74.7499965782167,0|0,0:0|0:0,0:0:0:0:
211,176,45682,6,0,L|153:172,1,57.5,2|0,0:2|0:0,0:0:0:0:
358,213,45854,2,0,L|301:210,1,57.5,8|0,0:0|0:0,0:0:0:0:
446,97,46027,6,0,B|400:100|400:100|362:76|362:76|316:79,1,138,0|0,0:0|0:0,0:0:0:0:
448,13,46372,6,0,L|439:69,1,57.5,2|0,0:2|0:0,0:0:0:0:
426,168,46544,2,0,L|417:224,1,57.5
407,323,46716,6,0,B|443:325|477:306|477:306|439:288|389:304|389:304|331:323|257:304,1,224.24998973465,8|0,0:0|0:0,0:0:0:0:
480,340,47061,2,0,P|508:310|491:273,1,86.2500032901765,2|8,0:2|0:0,0:0:0:0:
430,265,47320,1,8,0:0:0:0:
351,293,47406,6,0,B|307:269|269:291|269:291|275:329|324:354|324:354|294:390|247:378,1,258.75000987053
192,360,47751,6,0,L|185:274,1,86.25,2|0,0:2|0:0,0:0:0:0:
160,378,48096,5,8,0:0:0:0:
159,345,48182,1,0,0:0:0:0:
151,297,48268,1,0,0:0:0:0:
130,237,48354,1,0,0:0:0:0:
84,184,48441,6,0,B|63:212|63:212|61:246,1,68.9999978942872,2|0,0:2|0:0,0:0:0:0:
176,291,48613,2,0,B|197:263|197:263|198:228,1,68.9999978942872,8|0,0:0|0:0,0:0:0:0:
160,97,48785,6,0,L|165:146,1,48.8750009322167,4|0,0:2|0:0,0:0:0:0:
289,225,48958,2,0,L|343:219,1,54.6249985413552,2|0,0:0|0:0,0:0:0:0:
180,61,49130,2,0,L|186:129,1,68.9999978942872,0|0,0:0|0:0,0:0:0:0:
282,263,49303,2,0,L|362:254,1,80.499997543335,2|0,0:0|0:0,0:0:0:0:
414,114,49475,6,0,P|368:136|353:184,1,103.499996841431,4|0,0:2|0:0,0:0:0:0:
395,93,49820,1,8,0:0:0:0:
468,149,49906,1,8,0:0:0:0:
470,70,49992,1,0,0:0:0:0:
280,148,50165,6,0,P|308:151|336:146,1,57.5,4|0,0:2|0:0,0:0:0:0:
304,10,50337,2,0,P|301:38|306:67,1,57.5,0|0,0:0|0:0,0:0:0:0:
400,165,50510,2,0,P|408:201|400:237,1,74.7499965782167,2|0,0:2|0:0,0:0:0:0:
403,157,50682,2,0,P|417:181|423:209,1,57.5,0|0,0:0|0:0,0:0:0:0:
288,338,50854,6,0,B|255:353|255:353|219:350,1,71.875,8|0,0:0|0:0,0:0:0:0:
427,354,51027,2,0,B|394:369|394:369|358:366,1,71.875,0|0,0:0|0:0,0:0:0:0:
243,281,51199,2,0,P|237:238|248:197,1,86.2500032901765,2|0,0:2|0:0,0:0:0:0:
364,282,51372,2,0,P|369:324|358:365,1,86.2500032901765,8|0,0:0|0:0,0:0:0:0:
157,272,51544,6,0,L|242:280,1,86.25,0|0,0:0|0:0,0:0:0:0:
99,362,51889,6,0,L|96:304,1,57.5,2|0,0:2|0:0,0:0:0:0:
173,204,52061,2,0,L|170:146,1,57.5,0|0,0:0|0:0,0:0:0:0:
151,329,52234,6,0,P|230:275|257:367,1,224.24998973465,8|0,0:0|0:0,0:0:0:0:
226,216,52578,5,8,0:0:0:0:
251,268,52664,1,8,0:0:0:0:
302,297,52750,1,8,0:0:0:0:
361,295,52836,1,8,0:0:0:0:
415,265,52923,6,0,L|477:276,1,63.2500019302369,4|0,0:2|0:0,0:0:0:0:
335,229,53096,2,0,L|397:239,1,63.2500019302369,0|0,0:0|0:0,0:0:0:0:
254,192,53268,2,0,L|316:202,1,63.2500019302369,0|0,0:0|0:0,0:0:0:0:
415,265,53441,5,8,0:0:0:0:
415,265,53527,1,8,0:0:0:0:
415,265,53613,2,0,L|477:276,1,63.2500019302369,12|0,0:2|0:0,0:0:0:0:
316,202,53785,1,0,0:0:0:0:
316,202,53872,1,0,0:0:0:0:
316,202,53958,2,0,L|378:212,1,63.2500019302369,8|0,0:0|0:0,0:0:0:0:
421,332,54130,2,0,L|358:321,1,63.2500019302369,0|0,0:0|0:0,0:0:0:0:
487,357,54303,6,0,P|481:280|511:209,1,155.249995262146,8|0,0:0|0:0,0:0:0:0:
450,357,54647,2,0,P|445:322|448:288,1,68.9999978942872,8|0,0:0|0:0,0:0:0:0:
420,374,54820,1,8,0:0:0:0:
364,376,54906,1,8,0:0:0:0:
308,378,54992,6,0,P|266:341|210:331,1,115,0|0,0:0|0:0,0:0:0:0:
216,302,55165,2,0,P|272:313|315:351,1,115
319,336,55337,2,0,P|274:295|216:282,1,115
227,276,55510,2,0,P|281:291|324:330,1,115
99,362,55682,6,0,B|132:302|132:302|63:294|63:294|30:354,1,206.999993682861,2|0,0:2|0:0,0:0:0:0:
173,253,56372,6,0,L|47:236,1,126.500003860474,8|0,0:0|0:0,0:0:0:0:
154,230,56630,1,0,0:0:0:0:
135,207,56716,1,0,0:0:0:0:
238,323,56889,6,0,L|302:318,1,63.2500019302369,8|0,0:0|0:0,0:0:0:0:
173,253,57061,1,0,0:0:0:0:
357,295,57234,6,0,L|293:290,1,63.2500019302369,8|0,0:0|0:0,0:0:0:0:
422,225,57406,2,0,P|416:266|383:293,1,86.25,0|0,0:0|0:0,0:0:0:0:
443,246,57751,1,8,0:0:0:0:
407,252,57837,1,0,0:0:0:0:
373,243,57923,1,0,0:0:0:0:
345,221,58009,1,0,0:0:0:0:
330,189,58096,2,0,L|337:124,1,63.2500019302369,0|0,0:0|0:0,0:0:0:0:
450,183,58268,2,0,L|442:245,1,63.2500019302369,2|0,0:2|0:0,0:0:0:0:
279,138,58441,6,0,B|189:118|134:202|134:202|146:158|139:114,1,258.75000987053,0|0,0:0|0:0,0:0:0:0:
157,282,58785,2,0,B|199:193|199:193|110:142|110:142|154:51,1,301.875002878904
269,114,59130,5,8,0:0:0:0:
299,121,59216,1,0,0:0:0:0:
329,118,59302,1,0,0:0:0:0:
357,105,59388,1,0,0:0:0:0:
376,80,59475,2,0,P|347:93|328:118,1,63.2500019302369,0|0,0:2|0:0,0:0:0:0:
348,270,59647,5,8,0:0:0:0:
356,216,59733,1,8,0:0:0:0:
365,162,59819,1,0,0:0:0:0:
384,311,59992,1,8,0:0:0:0:
445,131,60165,6,0,B|489:204|457:287|457:287|428:255|442:213,1,241.499992630005,0|0,0:0|0:0,0:0:0:0:
510,324,60510,6,0,P|450:294|384:310,1,138,8|0,0:0|0:0,0:0:0:0:
304,384,60854,6,0,B|347:371|347:371|314:347,1,86.25,0|0,0:0|0:0,0:0:0:0:
164,236,61199,6,0,P|213:328|231:225,1,276,4|0,0:2|0:0,0:0:0:0:
90,279,61544,6,0,P|93:307|104:334,1,57.5,0|0,0:0|0:0,0:0:0:0:
177,215,61716,2,0,P|174:186|163:159,1,57.5,0|0,0:0|0:0,0:0:0:0:
32,180,61889,5,8,0:0:0:0:
65,189,61975,1,0,0:0:0:0:
100,188,62061,1,0,0:0:0:0:
134,178,62147,1,0,0:0:0:0:
164,160,62234,6,0,L|156:91,1,68.9999978942872,0|0,0:0|0:0,0:0:0:0:
235,203,62406,2,0,L|242:134,1,68.9999978942872,8|0,0:0|0:0,0:0:0:0:
128,41,62578,1,0,0:0:0:0:
271,85,62751,2,0,L|264:154,1,68.9999978942872,8|0,0:0|0:0,0:0:0:0:
217,6,62923,6,0,B|262:-2|262:-2|303:20|303:20|349:13,1,138,0|0,0:0|0:0,0:0:0:0:
329,142,63268,6,0,P|291:122|271:85,1,86.2500032901765,8|0,0:0|0:0,0:0:0:0:
423,189,63441,2,0,P|387:212|344:210,1,86.2500032901765,0|0,0:0|0:0,0:0:0:0:
510,131,63613,6,0,P|512:173|489:209,1,86.2500032901765,0|0,0:0|0:0,0:0:0:0:
407,93,63958,6,0,L|397:265,1,172.5,0|0,0:0|0:0,0:0:0:0:
381,76,64303,2,0,B|367:153|424:189,1,129.375004935265,0|0,0:0|0:0,0:0:0:0:
497,70,64647,5,8,0:0:0:0:
458,72,64733,1,0,0:0:0:0:
419,74,64819,1,0,0:0:0:0:
381,76,64905,1,0,0:0:0:0:
342,79,64992,6,0,B|231:48|231:48|254:-14|322:-1,1,230,0|8,0:0|0:0,0:0:0:0:
314,58,65251,1,8,0:0:0:0:
258,79,65337,6,0,L|265:149,1,63.2500019302369,0|0,0:0|0:0,0:0:0:0:
220,77,65510,2,0,L|222:105,1,28.75,8|0,0:0|0:0,0:0:0:0:
232,228,65682,2,0,P|242:165|222:105,1,129.375004935265,0|0,0:0|0:0,0:0:0:0:
118,174,66027,6,0,B|140:194|140:194|167:185|167:185|167:156|167:156|157:146,1,100.625,6|0,0:2|0:0,0:0:0:0:
294,258,66716,6,0,L|62:243,1,230,6|0,0:2|0:0,0:0:0:0:
298,262,67061,6,0,P|297:219|320:183,1,86.2500032901765,2|2,0:0|0:0,0:0:0:0:
463,230,67406,2,0,L|378:243,1,86.2500032901765,10|0,0:0|0:0,0:0:0:0:
266,209,67751,1,2,0:0:0:0:
266,209,67923,1,2,0:0:0:0:
106,275,68096,6,0,P|93:315|100:357,1,86.2500032901765,0|0,0:0|0:0,0:0:0:0:
125,255,68441,1,2,0:0:0:0:
37,152,68785,6,0,P|23:192|30:234,1,86.2500032901765,10|0,0:0|0:0,0:0:0:0:
55,131,69130,1,0,0:0:0:0:
55,131,69475,6,0,B|96:144|96:144|142:132,1,86.2500032901765,0|2,0:0|0:0,0:0:0:0:
60,99,69734,1,0,0:0:0:0:
65,67,69820,1,2,0:0:0:0:
156,127,69992,1,2,0:0:0:0:
256,19,70165,2,0,P|243:59|252:101,1,86.2500032901765,10|0,0:0|0:0,0:0:0:0:
334,160,70510,1,2,0:0:0:0:
334,160,70682,1,2,0:0:0:0:
480,108,70854,6,0,L|486:17,1,86.2500032901765,2|0,0:0|0:0,0:0:0:0:
448,175,71113,2,0,L|453:88,1,86.2500032901765,2|0,0:0|0:0,0:0:0:0:
493,242,71372,1,0,0:0:0:0:
338,253,71544,1,10,0:0:0:0:
338,253,71889,6,0,P|362:258|358:233,1,57.5,0|0,0:0|0:0,0:0:0:0:
262,156,72234,6,0,L|377:165,1,115,2|2,0:0|0:0,0:0:0:0:
244,141,72578,6,0,P|244:183|221:219,1,86.2500032901765,0|2,0:0|0:0,0:0:0:0:
78,172,72923,2,0,L|163:159,1,86.2500032901765,10|0,0:0|0:0,0:0:0:0:
276,194,73268,1,2,0:0:0:0:
276,194,73440,1,2,0:0:0:0:
435,128,73613,6,0,P|448:87|441:45,1,86.2500032901765,0|0,0:0|0:0,0:0:0:0:
417,148,73958,1,0,0:0:0:0:
505,251,74302,6,0,P|518:210|511:168,1,86.2500032901765,10|2,0:0|0:0,0:0:0:0:
487,272,74647,1,2,0:0:0:0:
487,272,74992,6,0,B|446:259|446:259|400:271,1,86.2500032901765,2|0,0:0|0:0,0:0:0:0:
482,304,75251,1,0,0:0:0:0:
477,336,75337,1,0,0:0:0:0:
386,276,75509,1,2,0:0:0:0:
286,384,75682,2,0,P|298:343|289:301,1,86.2500032901765,10|0,0:0|0:0,0:0:0:0:
208,243,76027,1,2,0:0:0:0:
208,243,76199,1,2,0:0:0:0:
62,295,76371,6,0,L|56:386,1,86.2500032901765,2|0,0:0|0:0,0:0:0:0:
148,194,76716,2,0,L|153:280,1,86.2500032901765,2|0,0:0|0:0,0:0:0:0:
119,176,76975,1,2,0:0:0:0:
91,159,77061,2,0,L|96:245,1,86.2500032901765,8|0,0:2|0:0,0:0:0:0:
163,99,77406,1,2,0:0:0:0:
512,384,77751,6,0,L|395:375,1,115,4|0,0:0|0:0,0:0:0:0:
