osu file format v14

[General]
AudioFilename: Enishi.mp3
AudioLeadIn: 0
PreviewTime: 11501
Countdown: 0
SampleSet: Soft
StackLeniency: 0.3
Mode: 0
LetterboxInBreaks: 0
WidescreenStoryboard: 0

[Editor]
Bookmarks: 510,11544,22578,28096,33613,55682,66716,77751
DistanceSpacing: 1.2
BeatDivisor: 4
GridSize: 4
TimelineZoom: 2.5

[Metadata]
Title:ENISHI (feat. Hatsune Miku)
TitleUnicode:ENISHI (feat. 初音ミク)
Artist:Ocelot
ArtistUnicode:Ocelot
Creator:DeRandom Otaku
Version:-Tochi's EX
Source:
Tags:Drumstep Vocaloid Dubstep ginsuke melancholia -Tochi Nothing special N0thingSpecial deppyforce deppy force Melancholia クロネコラウンジ 凛 Rin ぎんすけ Ginsuke
BeatmapID:1114045
BeatmapSetID:506140

[Difficulty]
HPDrainRate:6.5
CircleSize:4.2
OverallDifficulty:8.5
ApproachRate:9.4
SliderMultiplier:2
SliderTickRate:2

[Events]
//Background and Video events
0,0,"bg.jpg",0,0
//Break Periods
//Storyboard Layer 0 (Background)
//Storyboard Layer 1 (Fail)
//Storyboard Layer 2 (Pass)
//Storyboard Layer 3 (Foreground)
//Storyboard Sound Samples

[TimingPoints]
510,344.827586206897,4,2,10,30,1,0
510,-125,4,2,10,30,0,0
10165,-200,4,2,10,30,0,0
11544,-125,4,2,10,40,0,0
11889,-166.666666666667,4,2,10,40,0,0
12234,-100,4,2,10,40,0,0
13268,-125,4,2,10,40,0,0
13613,-166.666666666667,4,2,10,40,0,0
14303,-125,4,2,10,40,0,0
15682,-83.3333333333333,4,2,10,40,0,0
15854,-83.3333333333333,4,2,10,20,0,0
15941,-83.3333333333333,4,2,10,40,0,0
16113,-83.3333333333333,4,2,10,20,0,0
16199,-83.3333333333333,4,2,10,40,0,0
17061,-125,4,2,10,40,0,0
18441,-100,4,2,10,40,0,0
19820,-125,4,2,10,40,0,0
21199,-83.3333333333333,4,2,10,40,0,0
22578,-100,4,2,10,40,0,0
30510,-66.6666666666667,4,2,10,40,0,0
30682,-90.9090909090909,4,2,10,40,0,0
30854,-100,4,2,10,40,0,0
32234,-200,4,2,10,40,0,0
33527,-200,4,2,10,5,0,0
33613,-71.4285714285714,4,2,10,65,0,1
33872,-62.5,4,2,10,5,0,1
33958,-62.5,4,2,10,65,0,1
34303,-71.4285714285714,4,2,10,65,0,1
34992,-71.4285714285714,4,2,10,65,0,0
35165,-58.8235294117647,4,2,10,65,0,0
35596,-58.8235294117647,4,2,10,5,0,0
35682,-71.4285714285714,4,2,10,65,0,0
36372,-58.8235294117647,4,2,10,65,0,0
36630,-58.8235294117647,4,2,10,5,0,0
36716,-100,4,2,10,65,0,0
37751,-142.857142857143,4,2,10,65,0,0
37923,-71.4285714285715,4,2,10,65,0,0
38096,-90.909090909091,4,2,10,65,0,0
38268,-71.4285714285714,4,2,10,65,0,0
38441,-50,4,2,11,65,0,0
38527,-50,4,2,10,65,0,0
38958,-142.857142857143,4,2,10,65,0,0
39130,-62.5,4,2,10,65,0,1
39389,-62.5,4,2,10,5,0,1
39475,-71.4285714285714,4,2,10,65,0,1
39992,-100,4,2,10,65,0,1
40165,-71.4285714285714,4,2,10,65,0,1
40337,-100,4,2,10,65,0,1
40510,-71.4285714285714,4,2,10,65,0,0
40854,-55.5555555555556,4,2,10,65,0,0
41199,-71.4285714285714,4,2,10,65,0,0
41889,-55.5555555555556,4,2,10,65,0,0
42578,-55.5555555555556,4,2,11,65,0,0
42665,-55.5555555555556,4,2,10,65,0,0
43268,-166.666666666667,4,2,10,65,0,0
43872,-166.666666666667,4,2,10,5,0,0
43958,-125,4,2,10,65,0,0
44561,-125,4,2,10,5,0,0
44647,-62.5,4,2,10,65,0,1
44906,-62.5,4,2,10,5,0,1
44992,-62.5,4,2,10,65,0,1
45251,-62.5,4,2,10,5,0,1
45337,-71.4285714285714,4,2,10,65,0,1
46027,-55.5555555555556,4,2,10,65,0,0
46285,-55.5555555555556,4,2,10,5,0,0
46372,-71.4285714285714,4,2,10,65,0,0
46975,-71.4285714285714,4,2,10,5,0,0
47061,-55.5555555555556,4,2,10,65,0,0
47406,-62.5,4,2,10,65,0,0
47665,-62.5,4,2,10,5,0,0
47751,-100,4,2,10,65,0,0
49475,-62.5,4,2,10,65,0,0
49734,-62.5,4,2,10,5,0,0
49820,-71.4285714285714,4,2,10,65,0,0
50165,-166.666666666667,4,2,10,65,0,1
50854,-71.4285714285714,4,2,10,65,0,1
51544,-62.5,4,2,10,65,0,0
51803,-62.5,4,2,10,5,0,0
51889,-71.4285714285714,4,2,10,65,0,0
52492,-71.4285714285714,4,2,10,5,0,0
52578,-71.4285714285714,4,2,10,65,0,0
53613,-71.4285714285714,4,2,11,65,0,0
53699,-71.4285714285714,4,2,10,65,0,0
54992,-200,4,2,10,65,0,0
55596,-200,4,2,10,5,0,0
55682,-62.5,4,2,10,65,0,1
56544,-71.4285714285714,4,2,10,65,0,1
57061,-71.4285714285714,4,2,10,65,0,0
57665,-71.4285714285714,4,2,10,5,0,0
57751,-71.4285714285714,4,2,10,65,0,0
58441,-55.5555555555556,4,2,10,65,0,0
58699,-55.5555555555556,4,2,10,5,0,0
58785,-62.5,4,2,10,65,0,0
59044,-62.5,4,2,10,5,0,0
59130,-71.4285714285714,4,2,10,65,0,0
60423,-71.4285714285714,4,2,10,5,0,0
60510,-62.5,4,2,10,65,0,0
61199,-62.5,4,2,10,65,0,1
62234,-71.4285714285714,4,2,10,65,0,1
62578,-71.4285714285714,4,2,10,65,0,0
63182,-71.4285714285714,4,2,10,5,0,0
63268,-71.4285714285714,4,2,10,65,0,0
63958,-62.5,4,2,10,65,0,0
64216,-62.5,4,2,10,5,0,0
64303,-83.3333333333333,4,2,10,65,0,0
64992,-71.4285714285714,4,2,10,65,0,0
65941,-71.4285714285714,4,2,10,5,0,0
66027,-100,4,2,10,65,0,0
66630,-100,4,2,10,5,0,0
66716,-125,4,2,10,40,0,0
67061,-166.666666666667,4,2,10,40,0,0
67406,-100,4,2,10,40,0,0
68441,-125,4,2,10,40,0,0
68785,-166.666666666667,4,2,10,40,0,0
69475,-125,4,2,10,40,0,0
70854,-83.3333333333333,4,2,10,40,0,0
71027,-83.3333333333333,4,2,10,20,0,0
71113,-83.3333333333333,4,2,10,40,0,0
71285,-83.3333333333333,4,2,10,20,0,0
71372,-83.3333333333333,4,2,10,40,0,0
72234,-125,4,2,10,40,0,0
73613,-100,4,2,10,40,0,0
74992,-125,4,2,10,40,0,0
76372,-83.3333333333333,4,2,10,40,0,0

[Colours]
Combo1 : 159,255,64
Combo2 : 255,108,108
Combo3 : 255,43,43
Combo4 : 255,140,255

[HitObjects]
400,253,510,5,4,1:2:0:0:
398,268,682,1,0,0:0:0:0:
323,238,854,1,0,0:0:0:0:
335,317,1027,1,2,0:0:0:0:
398,268,1199,2,0,P|406:188|377:111,1,160,2|0,0:0|0:0,0:0:0:0:
335,317,1716,1,0,0:0:0:0:
408,349,1889,6,0,P|448:353|486:338,1,80,2|0,0:0|0:0,0:0:0:0:
323,238,2234,2,0,P|283:234|244:248,1,80,2|0,0:0|0:0,0:0:0:0:
191,324,2578,2,0,P|154:265|180:181,1,160,2|2,0:0|0:0,0:0:0:0:
178,183,3096,1,2,0:0:0:0:
323,238,3268,5,0,1:0:0:0:
338,240,3441,1,0,0:0:0:0:
308,315,3612,1,2,0:0:0:0:
387,303,3785,1,2,0:0:0:0:
338,240,3958,2,0,P|258:232|183:263,1,160,2|0,0:0|0:0,0:0:0:0:
387,303,4475,1,2,0:0:0:0:
318,344,4647,6,0,P|278:350|240:339,1,80,2|0,0:0|0:0,0:0:0:0:
179,299,4906,1,2,0:0:0:0:
179,299,4992,2,0,P|140:288|101:294,1,80,2|0,0:0|0:0,0:0:0:0:
275,190,5337,5,2,0:0:0:0:
248,265,5510,1,2,0:0:0:0:
201,120,5682,1,0,0:0:0:0:
174,195,5855,1,0,0:0:0:0:
349,258,6027,5,2,1:2:0:0:
349,258,6199,1,2,0:0:0:0:
272,234,6372,1,0,0:0:0:0:
193,248,6545,1,2,0:0:0:0:
145,311,6716,2,0,P|216:342|291:305,1,160,2|0,0:0|0:0,0:0:0:0:
286,309,7234,1,2,0:0:0:0:
217,194,7406,6,0,B|225:184|225:184|234:218|214:248,1,80,2|0,0:0|0:0,0:0:0:0:
197,265,7665,1,2,0:0:0:0:
177,278,7751,2,0,P|131:227|155:126,1,160,2|2,0:0|0:0,0:0:0:0:
204,91,8268,1,2,0:0:0:0:
316,165,8441,1,0,0:0:0:0:
284,91,8613,1,2,0:0:0:0:
256,214,8785,6,0,B|275:246|321:248|321:248|344:294|298:331,1,160,0|0,1:0|0:0,0:0:0:0:
219,305,9303,1,2,0:0:0:0:
316,165,9475,2,0,P|356:169|394:180,1,80,2|0,0:0|0:0,0:0:0:0:
306,323,9820,2,0,P|267:334|227:338,1,80,2|0,0:0|0:0,0:0:0:0:
79,247,10165,6,0,B|131:269|182:243|182:243|114:286|123:354|123:354|102:328|70:331,1,300,2|0,0:0|0:0,0:0:0:0:
251,338,11372,2,0,L|227:337,1,25,2|2,0:0|0:0,0:0:0:0:
127,159,11544,6,0,B|144:199|144:199|137:235,1,80,4|0,1:2|0:0,0:0:0:0:
335,378,11889,2,0,B|332:347|332:347|344:317,1,59.9999981689454,2|0,0:0|0:0,0:0:0:0:
246,62,12234,2,0,B|210:165|306:141|306:229|244:235|244:202,1,200,10|0,0:0|0:0,0:0:0:0:
327,92,12751,1,0,0:0:0:0:
148,196,12923,6,0,B|195:184|195:184|243:203,1,100,0|0,1:0|0:0,0:0:0:0:
484,269,13268,2,0,B|446:282|446:282|408:270,1,80,2|0,0:0|0:0,0:0:0:0:
199,342,13613,2,0,B|228:335|228:335|256:346,1,59.9999981689454,10|2,0:0|0:0,0:0:0:0:
322,310,13872,1,2,0:0:0:0:
339,298,13958,1,0,0:0:0:0:
98,370,14130,1,2,0:0:0:0:
339,298,14303,5,0,1:0:0:0:
144,198,14475,1,2,0:0:0:0:
153,232,14561,1,2,0:0:0:0:
135,284,14647,1,2,0:0:0:0:
53,232,14820,1,2,0:0:0:0:
308,248,14992,2,0,B|241:248|241:248|217:232|217:232|153:232,1,160,10|0,0:0|0:0,0:0:0:0:
226,275,15510,1,2,0:0:0:0:
260,78,15682,6,0,B|272:171|272:171|294:141,1,119.999996337891,0|0,1:0|0:0,0:0:0:0:
335,319,15941,2,0,B|323:226|323:226|308:248,1,119.999996337891,0|0,1:0|0:0,0:0:0:0:
224,240,16199,1,0,1:0:0:0:
377,156,16372,5,10,0:0:0:0:
167,118,16544,1,2,0:0:0:0:
114,266,16716,1,2,0:0:0:0:
324,228,16889,1,0,1:0:0:0:
221,43,17061,5,2,1:2:0:0:
211,194,17234,2,0,L|208:242,2,40,2|2|0,0:0|0:0|0:0,0:0:0:0:
221,43,17578,1,2,0:0:0:0:
331,283,17751,2,0,B|267:283|267:283|243:307|243:307|180:307,1,160,10|0,0:0|0:0,0:0:0:0:
217,118,18268,1,2,0:0:0:0:
307,365,18441,6,0,B|387:365|387:365|419:349|419:349|507:349,1,200,0|0,1:0|0:0,0:0:0:0:
420,261,18958,1,2,0:0:0:0:
288,363,19130,1,10,0:0:0:0:
509,205,19303,1,2,0:0:0:0:
509,205,19389,1,2,0:0:0:0:
509,205,19475,1,2,0:0:0:0:
503,349,19647,1,2,0:0:0:0:
274,283,19820,5,0,1:0:0:0:
419,198,19992,2,0,L|429:236,2,40,2|2|0,0:0|0:0|0:0,0:0:0:0:
196,242,20337,1,2,0:0:0:0:
271,40,20510,1,10,0:0:0:0:
285,119,20682,2,0,L|271:40,1,80,0|2,0:0|0:0,0:0:0:0:
200,152,21027,5,0,1:0:0:0:
312,250,21199,2,0,B|260:250|260:250|252:242|252:242|196:242,1,119.999996337891,0|0,1:0|0:0,0:0:0:0:
368,25,21544,2,0,B|424:25|424:25|432:33|432:33|484:33,1,119.999996337891,0|0,1:0|0:0,0:0:0:0:
457,113,21803,2,0,L|457:49,1,59.9999981689454,0|8,1:0|1:2,0:0:0:0:
335,136,22061,1,0,1:0:0:0:
431,294,22234,1,0,1:0:0:0:
257,64,22578,6,0,B|215:115|236:185|236:185|219:147|174:130,1,200,4|0,1:0|0:0,0:0:0:0:
400,134,23096,2,0,P|300:135|399:153,1,300,0|2,1:0|0:0,0:0:0:0:
350,140,23785,1,2,0:0:0:0:
255,345,23958,6,0,B|295:273|223:225|223:225|175:281,1,200,0|0,1:0|0:0,0:0:0:0:
78,46,24475,2,0,B|21:147|123:215|123:215|191:136,1,300,0|2,1:0|0:0,0:0:0:0:
176,123,25165,1,2,0:0:0:0:
61,342,25337,6,0,B|151:305|167:385|255:345,1,200,0|2,1:0|0:0,0:0:0:0:
323,203,25854,1,0,1:0:0:0:
176,123,26027,2,0,B|264:163|280:83|369:120,1,200,2|0,0:0|0:0,0:0:0:0:
92,74,26716,6,0,B|66:126|94:175|94:175|60:132|10:143,1,200,0|0,1:0|0:0,0:0:0:0:
177,122,27234,1,0,1:0:0:0:
278,98,27406,2,0,B|301:104|316:138|316:138|235:100|176:123,1,200,2|0,0:0|1:0,0:0:0:0:
27,236,28096,5,4,1:2:0:0:
19,228,28441,1,0,1:0:0:0:
27,221,28785,1,0,1:0:0:0:
34,228,29130,5,0,1:0:0:0:
315,138,29303,1,0,1:0:0:0:
142,375,29475,5,4,1:2:0:0:
134,367,29820,1,0,1:0:0:0:
142,360,30164,1,0,1:0:0:0:
149,367,30510,6,0,L|139:292,1,75.0000028610231,0|0,1:0|1:0,0:0:0:0:
313,340,30682,2,0,L|305:285,1,55.0000016784668,0|0,1:0|1:0,0:0:0:0:
471,314,30854,5,4,1:2:0:0:
231,356,31027,1,0,1:0:0:0:
175,123,31199,5,0,1:0:0:0:
466,148,31372,1,0,1:0:0:0:
346,330,31544,5,4,1:2:0:0:
313,340,31630,1,0,1:0:0:0:
244,309,31716,5,0,1:0:0:0:
217,274,31802,1,0,1:0:0:0:
234,200,31889,5,0,1:0:0:0:
257,161,31975,1,0,1:0:0:0:
330,129,32061,5,0,1:0:0:0:
377,130,32147,1,0,1:0:0:0:
438,190,32234,6,0,B|459:236|438:286|438:286|326:318|326:318|359:224|309:162,1,375,4|0,1:2|0:0,0:0:0:0:
170,203,33613,6,0,P|250:238|181:292,1,209.999993591309,4|0,1:2|0:0,0:0:0:0:
44,309,33958,2,0,B|-17:287|-17:287|27:261|73:286,1,160,2|0,1:2|0:0,0:0:0:0:
360,198,34303,6,0,P|395:194|427:207,1,69.9999978637696,8|0,1:0|0:0,0:0:0:0:
199,250,34475,2,0,P|164:253|132:240,1,69.9999978637696,0|0,1:0|0:0,0:0:0:0:
309,316,34647,2,0,P|315:350|304:383,1,69.9999978637696,2|0,1:2|0:0,0:0:0:0:
249,128,34820,2,0,P|243:94|254:61,1,69.9999978637696,8|0,1:0|0:0,0:0:0:0:
278,221,34992,5,0,1:0:0:0:
338,155,35165,2,0,P|185:224|340:287,1,425.000008106232,2|0,1:2|0:0,0:0:0:0:
439,172,35682,6,0,L|451:102,1,69.9999978637696,8|0,1:0|0:0,0:0:0:0:
370,299,35854,2,0,L|358:368,1,69.9999978637696,0|0,1:0|0:0,0:0:0:0:
294,178,36027,2,0,L|281:99,1,69.9999978637696,2|0,1:2|0:0,0:0:0:0:
204,298,36199,1,8,1:0:0:0:
198,325,36285,1,8,1:0:0:0:
192,352,36372,6,0,B|316:330|316:330|379:362|379:362|316:363,1,255.000004863739,8|0,1:0|0:0,0:0:0:0:
113,297,36716,5,2,1:2:0:0:
318,384,36889,1,0,1:0:0:0:
261,145,37061,5,8,1:0:0:0:
257,172,37147,1,0,1:0:0:0:
278,190,37234,5,0,1:0:0:0:
242,209,37320,1,0,1:0:0:0:
205,188,37406,6,0,L|260:179,1,50,0|0,1:0|0:0,0:0:0:0:
436,140,37578,1,8,1:0:0:0:
267,335,37751,5,4,1:2:0:0:
193,73,37923,1,0,1:0:0:0:
381,199,38096,5,2,1:2:0:0:
104,241,38268,1,0,1:0:0:0:
370,103,38441,5,12,1:2:0:0:
321,96,38527,1,0,1:0:0:0:
274,89,38613,1,0,1:0:0:0:
125,320,38785,5,8,1:0:0:0:
193,310,38872,1,8,1:0:0:0:
262,300,38958,2,0,L|257:257,1,34.9999989318848,0|0,1:0|0:0,0:0:0:0:
148,92,39130,6,0,B|79:110|65:180|65:180|129:195|148:253,1,240,4|0,1:2|0:0,0:0:0:0:
49,348,39475,2,0,L|52:313|55:278,1,69.9999978637696,2|0,1:2|0:0,0:0:0:0:
0,122,39647,1,0,1:0:0:0:
250,334,39820,6,0,P|254:299|257:265,1,69.9999978637696,8|0,1:0|0:0,0:0:0:0:
232,149,39992,2,0,P|229:124|227:99,1,50,0|0,1:0|0:0,0:0:0:0:
71,112,40165,2,0,P|75:147|78:182,1,69.9999978637696,2|0,1:2|0:0,0:0:0:0:
53,298,40337,2,0,P|50:323|49:348,1,50,8|0,1:0|0:0,0:0:0:0:
293,260,40510,6,0,L|154:246,1,139.999995727539,0|2,1:0|0:0,0:0:0:0:
232,149,40768,1,2,0:0:0:0:
218,279,40854,2,0,B|359:273|359:273|311:293,1,179.999994506836,2|0,1:2|1:0,0:0:0:0:
79,131,41199,6,0,L|96:204,1,69.9999978637696,8|0,1:0|0:0,0:0:0:0:
86,381,41372,2,0,L|101:312,1,69.9999978637696,0|0,1:0|0:0,0:0:0:0:
215,74,41544,5,8,1:0:0:0:
227,121,41630,1,8,1:0:0:0:
236,168,41716,1,8,1:0:0:0:
248,215,41802,1,8,1:0:0:0:
259,263,41889,6,0,B|139:237|139:237|142:307,1,179.999994506836,4|0,1:2|1:0,0:0:0:0:
215,74,42234,2,0,B|335:100|335:100|333:43,1,179.999994506836,2|0,1:2|1:0,0:0:0:0:
463,89,42492,5,0,1:0:0:0:
356,112,42578,2,0,P|326:172|392:261,1,179.999994506836,12|0,1:2|0:0,0:0:0:0:
501,269,42837,5,0,1:0:0:0:
430,327,42923,2,0,P|388:338|335:322,1,89.9999972534181,8|0,1:0|0:0,0:0:0:0:
249,183,43096,5,0,1:0:0:0:
196,303,43268,6,0,P|167:210|71:221,1,209.999993591309,2|0,1:2|0:0,0:0:0:0:
12,300,43958,6,0,B|55:282|70:224|70:224|59:348|155:365,1,280,2|0,1:2|0:0,0:0:0:0:
241,316,44647,6,0,B|418:333|418:333|344:367,1,240,4|0,1:2|0:0,0:0:0:0:
177,221,44992,2,0,B|375:190|375:190|340:149,1,240,2|0,1:2|0:0,0:0:0:0:
277,47,45337,2,0,L|266:133,1,69.9999978637696,8|0,1:0|0:0,0:0:0:0:
403,257,45510,2,0,L|394:187,1,69.9999978637696,0|0,1:0|0:0,0:0:0:0:
179,132,45682,5,2,1:2:0:0:
482,206,45854,1,8,1:0:0:0:
179,120,46027,6,0,B|130:121|88:176|88:176|119:255|240:252,1,269.999991760254,0|0,1:0|0:0,0:0:0:0:
345,215,46372,1,2,1:2:0:0:
105,357,46544,1,0,1:0:0:0:
248,158,46716,2,0,L|273:377,1,209.999993591309,8|0,1:0|0:0,0:0:0:0:
105,357,47061,6,0,L|126:172,1,179.999994506836,2|8,1:2|1:0,0:0:0:0:
61,62,47320,5,8,1:0:0:0:
13,157,47406,2,0,B|124:150|124:150|150:166|150:166|248:158,1,240,0|0,1:0|0:0,0:0:0:0:
312,94,47751,1,2,1:2:0:0:
17,187,47923,1,0,1:0:0:0:
294,249,48096,5,8,1:0:0:0:
321,253,48182,1,0,1:0:0:0:
339,232,48269,5,0,1:0:0:0:
358,268,48355,1,0,1:0:0:0:
337,305,48441,6,0,L|328:250,1,50,2|0,1:2|0:0,0:0:0:0:
297,73,48613,1,8,1:0:0:0:
216,257,48785,5,4,1:2:0:0:
17,187,48958,1,2,0:0:0:0:
114,294,49130,5,0,1:0:0:0:
347,181,49303,1,2,0:0:0:0:
149,49,49475,6,0,P|92:112|206:148,1,240,4|0,1:2|0:0,0:0:0:0:
39,193,49820,1,8,1:0:0:0:
28,190,49906,1,8,1:0:0:0:
17,187,49992,1,0,1:0:0:0:
297,184,50165,6,0,P|270:169|236:169,1,59.9999981689454,4|0,1:2|1:0,0:0:0:0:
204,303,50510,5,2,1:2:0:0:
321,87,50682,1,0,1:0:0:0:
98,82,50854,6,0,L|106:153,1,69.9999978637696,0|0,1:0|0:0,0:0:0:0:
297,184,51027,2,0,L|288:253,1,69.9999978637696,0|0,1:0|0:0,0:0:0:0:
179,220,51199,2,0,L|320:217,1,139.999995727539,2|8,1:2|1:0,0:0:0:0:
417,148,51458,1,0,1:0:0:0:
417,148,51544,6,0,P|338:192|374:319,1,240,0|0,1:0|0:0,0:0:0:0:
454,265,51889,5,2,1:2:0:0:
216,336,52061,1,0,1:0:0:0:
454,282,52234,2,0,L|242:261,1,209.999993591309,8|0,1:0|0:0,0:0:0:0:
138,171,52578,5,8,1:0:0:0:
207,165,52664,1,8,1:0:0:0:
277,159,52750,1,8,1:0:0:0:
347,154,52836,1,8,1:0:0:0:
417,148,52922,5,4,1:2:0:0:
353,369,53096,1,0,1:0:0:0:
275,72,53268,5,0,1:0:0:0:
245,346,53442,1,0,1:0:0:0:
245,346,53527,1,0,1:0:0:0:
245,346,53613,2,0,L|461:333,1,209.999993591309,12|0,1:2|1:0,0:0:0:0:
436,249,53958,1,8,1:0:0:0:
497,70,54130,1,0,1:0:0:0:
347,154,54303,6,0,B|220:124|220:124|263:206,1,209.999993591309,8|2,1:0|1:2,0:0:0:0:
157,200,54647,1,8,1:0:0:0:
444,131,54820,1,8,1:0:0:0:
438,172,54906,1,8,1:0:0:0:
436,249,54992,6,0,P|337:240|279:286,1,175,0|0,1:0|0:0,0:0:0:0:
215,336,55682,6,0,B|281:275|393:289|393:289|308:231|284:173|284:173|350:117|350:117|325:53,1,480,2|0,1:2|1:0,0:0:0:0:
185,228,56372,1,8,1:0:0:0:
185,228,56458,1,0,1:0:0:0:
185,228,56544,2,0,L|254:219,1,69.9999978637696,0|0,1:0|1:0,0:0:0:0:
428,197,56716,1,0,1:0:0:0:
171,92,56889,2,0,L|240:83,1,69.9999978637696,8|0,1:0|1:0,0:0:0:0:
409,50,57061,5,0,1:0:0:0:
466,312,57234,1,8,1:0:0:0:
337,247,57406,2,0,P|266:234|143:305,1,209.999993591309,0|0,1:0|0:0,0:0:0:0:
59,359,57751,5,8,1:0:0:0:
75,320,57837,1,0,1:0:0:0:
69,292,57923,1,0,1:0:0:0:
56,275,58010,1,0,1:0:0:0:
43,268,58096,2,0,L|116:261,1,69.9999978637696,0|0,1:0|0:0,0:0:0:0:
225,168,58268,1,2,1:2:0:0:
393,289,58441,6,0,L|124:257,1,269.999991760254,0|0,1:0|0:0,0:0:0:0:
89,86,58785,2,0,B|115:78|115:78|139:77|139:77|158:91|158:91|176:96|176:96|206:84|206:84|241:77|241:77|259:90|259:90|278:96|278:96|318:86,1,240,0|0,1:0|0:0,0:0:0:0:
448,164,59130,5,8,1:0:0:0:
464,216,59216,1,0,1:0:0:0:
443,266,59302,1,0,1:0:0:0:
393,289,59388,1,0,1:0:0:0:
341,274,59475,2,0,P|399:262|481:296,1,139.999995727539,0|8,1:2|1:0,0:0:0:0:
478,368,59734,1,8,1:0:0:0:
478,368,59820,5,0,1:0:0:0:
232,285,59992,1,8,1:0:0:0:
473,289,60165,2,0,B|484:263|484:263|489:229|489:229|484:193|484:193|473:159|473:159|457:127|457:127|439:106|439:106|417:91,1,209.999993591309,0|0,1:0|0:0,0:0:0:0:
318,121,60510,6,0,B|193:111|193:111|233:102,1,160,8|0,1:0|1:0,0:0:0:0:
244,373,60854,2,0,B|369:363|369:363|329:354,1,160,0|0,1:0|1:0,0:0:0:0:
69,154,61199,6,0,P|14:247|172:262,1,320,4|0,1:2|1:0,0:0:0:0:
223,42,61716,1,0,1:0:0:0:
362,199,61889,1,8,1:0:0:0:
315,208,61975,1,0,1:0:0:0:
263,186,62061,1,0,1:0:0:0:
249,193,62147,1,0,1:0:0:0:
262,202,62234,6,0,L|335:197,1,69.9999978637696,0|0,1:0|0:0,0:0:0:0:
503,225,62406,1,8,1:0:0:0:
270,108,62578,5,0,1:0:0:0:
499,241,62751,1,8,1:0:0:0:
162,191,62923,2,0,B|183:333|183:333|232:258,1,209.999993591309,0|0,1:0|0:0,0:0:0:0:
279,218,63268,5,8,1:0:0:0:
53,284,63441,1,0,1:0:0:0:
290,316,63613,5,0,1:0:0:0:
40,258,63785,1,0,1:0:0:0:
268,120,63958,6,0,B|296:298|296:298|316:238,1,240,0|0,1:0|0:0,0:0:0:0:
171,156,64303,2,0,P|163:104|199:43,1,119.999996337891,0|0,1:0|0:0,0:0:0:0:
470,133,64647,5,8,1:0:0:0:
431,149,64733,1,0,1:0:0:0:
403,143,64819,1,0,1:0:0:0:
386,130,64906,1,0,1:0:0:0:
379,117,64992,2,0,L|372:190,1,69.9999978637696,0|0,1:0|0:0,0:0:0:0:
290,316,65165,1,8,1:0:0:0:
358,322,65251,1,8,1:0:0:0:
427,329,65337,5,0,1:0:0:0:
161,338,65510,1,8,1:0:0:0:
182,142,65682,2,0,P|269:120|261:210,1,209.999993591309,0|0,1:0|0:0,0:0:0:0:
161,338,66027,6,0,B|165:276|88:203|88:203|177:277|262:210,1,350,6|0,1:2|0:0,0:0:0:0:
182,142,66716,6,0,L|175:62,1,80,4|0,1:2|0:0,0:0:0:0:
46,320,67061,2,0,L|40:384,1,59.9999981689454,2|0,0:0|0:0,0:0:0:0:
344,293,67406,2,0,L|146:271,1,200,10|0,0:0|0:0,0:0:0:0:
46,320,67923,1,0,0:0:0:0:
324,189,68096,6,0,L|224:178,1,100,0|0,1:0|0:0,0:0:0:0:
46,320,68441,2,0,L|125:311,1,80,2|0,0:0|0:0,0:0:0:0:
124,131,68785,2,0,L|135:193,1,59.9999981689454,10|2,0:0|0:0,0:0:0:0:
193,243,69044,1,2,0:0:0:0:
210,255,69130,1,0,0:0:0:0:
96,124,69303,1,2,0:0:0:0:
324,173,69475,5,0,1:0:0:0:
125,276,69647,1,2,0:0:0:0:
116,242,69733,1,2,0:0:0:0:
134,190,69819,1,2,0:0:0:0:
18,242,69992,1,2,0:0:0:0:
193,243,70165,2,0,B|257:243|257:243|281:259|281:259|348:259,1,160,10|0,0:0|0:0,0:0:0:0:
275,216,70682,1,2,0:0:0:0:
205,354,70854,6,0,P|272:371|321:339,1,119.999996337891,0|0,1:0|0:0,0:0:0:0:
348,259,71113,2,0,B|337:213|337:213|323:202|323:202|312:144,1,119.999996337891,0|0,1:0|0:0,0:0:0:0:
400,152,71372,1,0,1:0:0:0:
192,242,71544,5,10,0:0:0:0:
429,278,71716,1,2,0:0:0:0:
395,129,71889,1,2,0:0:0:0:
158,163,72061,1,0,1:0:0:0:
225,321,72234,5,2,1:2:0:0:
273,186,72406,2,0,L|288:141,2,40,2|2|0,0:0|0:0|0:0,0:0:0:0:
225,321,72751,1,2,0:0:0:0:
125,159,72923,2,0,L|285:148,1,160,10|0,0:0|0:0,0:0:0:0:
307,276,73441,1,2,0:0:0:0:
327,53,73613,6,0,B|239:29|215:85|127:53,1,200,0|0,1:0|0:0,0:0:0:0:
285,148,74130,1,2,0:0:0:0:
136,32,74303,1,10,0:0:0:0:
229,244,74475,1,2,0:0:0:0:
229,244,74561,1,2,0:0:0:0:
229,244,74647,1,2,0:0:0:0:
294,65,74820,1,2,0:0:0:0:
119,207,74992,5,0,1:0:0:0:
340,241,75165,2,0,L|393:249,2,40,2|2|0,0:0|0:0|0:0,0:0:0:0:
242,143,75510,1,2,0:0:0:0:
218,335,75682,1,10,0:0:0:0:
297,346,75854,2,0,L|217:334,1,80,0|2,0:0|0:0,0:0:0:0:
27,274,76199,5,0,1:0:0:0:
229,244,76372,2,0,B|177:253|177:253|168:246|168:246|113:256,1,119.999996337891,0|0,1:0|0:0,0:0:0:0:
370,311,76716,2,0,B|425:320|425:320|434:314|434:314|485:323,1,119.999996337891,0|0,1:0|0:0,0:0:0:0:
303,380,76975,2,0,L|291:321,1,59.9999981689454,0|8,1:0|1:2,0:0:0:0:
476,218,77234,1,0,1:0:0:0:
435,357,77406,1,0,1:0:0:0:
249,27,77751,5,4,1:0:0:0:
