osu file format v12

[General]
AudioFilename: [Ending 2] High School DxD NEW.mp3
AudioLeadIn: 0
PreviewTime: 2475
Countdown: 0
SampleSet: Soft
StackLeniency: 0.7
Mode: 0
LetterboxInBreaks: 1
WidescreenStoryboard: 1

[Editor]
DistanceSpacing: 1
BeatDivisor: 4
GridSize: 8

[Metadata]
Title:Lovely Devil (TV Size)
TitleUnicode:らぶりぃ♥でびる
Artist:Occult Kenkyuubu Girls
ArtistUnicode:Occult Kenkyuubu Girls
Creator:FlowHomie
Version:Normal
Source:Highschool Dxd New
Tags:FUNimation TNK Comedy Demons Ecchi Romance School Shounen Harem Demons Angels
BeatmapID:291515
BeatmapSetID:112044

[Difficulty]
HPDrainRate:2
CircleSize:3
OverallDifficulty:3
ApproachRate:5
SliderMultiplier:1.2
SliderTickRate:2

[Events]
//Background and Video events
0,0,"highschool_dxd_new___cast_wallpaper__1920x1080__by_jayzap96-d6cmxib.jpg",0,0
Video,1668,"Lovely Devil.avi"
//Break Periods
2,28675,29456
2,46129,47820
//Storyboard Layer 0 (Background)
//Storyboard Layer 1 (Fail)
//Storyboard Layer 2 (Pass)
//Storyboard Layer 3 (Foreground)
//Storyboard Sound Samples
//Background Colour Transformations
3,100,163,162,255

[TimingPoints]
1929,363.636363636364,4,2,1,100,1,0
2110,-100,4,2,1,100,0,1
2201,-100,4,2,1,100,0,0
2474,363.636363636364,4,2,1,100,1,1
13838,-100,4,1,1,50,0,0
14020,-100,4,2,1,100,0,0
15293,-100,4,1,1,50,0,0
15475,-100,4,2,1,100,0,0
16747,-100,4,1,1,50,0,0
16929,-100,4,2,1,100,0,0
18202,-100,4,1,1,50,0,0
18384,-100,4,2,1,100,0,0
19656,-100,4,1,1,50,0,0
19838,-100,4,2,1,100,0,0
20747,-100,4,2,1,100,0,0
21111,-100,4,1,1,50,0,0
21293,-100,4,2,1,100,0,0
22565,-100,4,1,1,50,0,0
22747,-100,4,2,1,100,0,0
24020,-100,4,1,1,50,0,0
24202,-100,4,2,1,100,0,0
25475,-100,4,2,1,75,0,0
29565,-100,4,1,1,60,0,0
31019,-100,4,1,1,60,0,0
35928,-100,4,1,0,60,0,0
36383,-100,4,1,1,60,0,0
37386,-100,4,2,1,70,0,0
42929,-100,4,1,1,50,0,0
49019,-100,4,2,1,100,0,0
61383,-100,4,2,1,5,0,0
61929,-100,4,1,1,50,0,1
63474,-100,4,1,0,70,0,1
64747,-100,4,1,1,70,0,1
66474,-100,4,1,0,70,0,1
67656,-100,4,1,1,70,0,1
73474,-100,4,1,1,70,0,0
73565,-100,4,1,1,70,0,1
73747,-100,4,1,0,70,0,1
73838,-100,4,1,1,70,0,1
75201,-100,4,1,0,70,0,1
76383,-100,4,1,1,70,0,1
78110,-100,4,1,0,70,0,1
79292,-100,4,1,1,70,0,1
81292,-100,4,1,1,80,0,1
82565,-100,4,1,1,70,0,1
88746,-100,4,1,1,70,0,0
88838,-100,4,1,1,50,0,1
88928,-100,4,1,1,50,0,0

[Colours]
Combo1 : 128,0,255
Combo2 : 128,255,128
Combo3 : 255,0,128
Combo4 : 255,128,0

[HitObjects]
184,224,1929,2,0,L|144:240,2,30,0|0|4,0:0|0:0|3:2,0:0:0:0:
256,104,2475,6,0,P|288:88|328:96,1,60,0|2,0:0|0:0,0:0:0:0:
392,104,3020,2,0,P|408:184|384:240,1,120,2|2,0:0|0:0,0:0:0:0:
312,256,3747,2,0,P|240:264|200:232,2,120,2|2|2,0:0|0:0|0:0,0:0:0:0:
384,208,4656,1,0,0:0:0:0:
184,120,5384,5,2,0:0:0:0:
184,120,5565,1,0,0:0:0:0:
256,56,5929,1,2,0:0:0:0:
328,120,6293,1,2,0:0:0:0:
256,184,6656,1,2,0:0:0:0:
376,184,7020,2,0,P|344:248|296:264,1,120,2|2,0:0|0:0,0:0:0:0:
181,263,7747,2,0,P|125:255|109:231,2,60,2|0|2,0:0|0:0|0:0,0:0:0:0:
240,200,8293,5,6,0:0:0:0:
112,72,8838,1,2,0:0:0:0:
232,72,9202,1,2,0:0:0:0:
316,156,9565,1,2,0:0:0:0:
200,192,9929,1,2,0:0:0:0:
256,296,10293,2,0,L|256:360,1,60,2|0,0:0|0:0,0:0:0:0:
256,192,11202,12,4,13202,0:0:0:0:
80,256,13565,5,4,0:0:0:0:
192,120,13929,5,0,0:0:0:0:
312,120,14293,2,0,P|344:184|272:256,1,180,0|2,0:0|0:0,0:0:0:0:
158,255,15202,2,0,L|86:303,1,60
129,170,15747,1,0,0:0:0:0:
213,85,16111,1,2,0:0:0:0:
288,144,16475,6,0,P|320:176|320:216,2,60
248,312,17202,2,0,B|176:320|184:320,1,60
144,256,17565,1,2,0:0:0:0:
216,200,17747,2,0,L|160:160,1,60
72,160,18111,1,0,0:0:0:0:
88,72,18293,2,0,P|192:64|256:128,1,180
328,112,19020,1,2,0:0:0:0:
416,112,19384,2,0,L|424:184,2,60
256,56,20111,5,0,0:0:0:0:
168,64,20293,2,0,P|104:80|64:120,1,120,0|2,0:0|0:0,0:0:0:0:
152,160,20838,2,0,P|176:208|248:200,1,120
296,296,21565,1,0,0:0:0:0:
368,232,21929,1,2,0:0:0:0:
384,136,22293,2,0,L|328:104,1,60
264,72,22656,1,0,0:0:0:0:
144,64,23020,6,0,P|64:72|48:120,1,120,0|2,0:0|0:0,0:0:0:0:
152,168,23747,2,0,P|224:184|272:216,1,120
262,328,24475,5,6,0:0:0:0:
346,243,24838,1,6,0:0:0:0:
261,158,25202,1,6,0:0:0:0:
160,80,25565,6,0,P|120:120|112:184,1,120,6|0,0:0|0:0,0:0:0:0:
144,256,26111,1,2,0:0:0:0:
256,288,26475,1,2,0:0:0:0:
336,320,26656,1,0,0:0:0:0:
408,224,27020,6,0,P|456:160|440:104,1,120,2|0,0:0|0:0,0:0:0:0:
368,144,27565,1,0,0:0:0:0:
288,80,27929,2,2,L|224:104,1,60
256,184,28475,1,6,0:0:0:0:
256,272,30656,5,4,0:0:0:0:
256,272,31020,1,4,0:0:0:0:
128,192,31384,5,4,0:0:0:0:
200,128,31747,2,0,L|256:104,1,60
344,136,32293,2,0,P|384:152|400:184,1,60
360,256,32838,1,0,0:0:0:0:
256,312,33202,1,0,0:0:0:0:
160,256,33565,1,0,0:0:0:0:
256,192,34111,6,0,L|256:112,1,60,0|0,0:0|0:0,0:0:0:0:
160,112,34656,2,0,P|192:72|224:72,1,60
352,112,35202,2,0,P|320:72|288:72,1,60
352,184,35747,6,0,P|352:256|208:328,1,240
192,240,36838,2,0,P|144:208|128:184,2,60,0|0|4,0:0|0:0|0:0,0:0:0:0:
264,176,37565,6,0,L|312:128,1,60,0|2,0:0|0:0,0:0:0:0:
224,88,38111,2,0,P|168:96|152:112,3,60,0|2|0|2,0:0|0:0|0:0|0:0,0:0:0:0:
120,184,39020,1,2,0:0:0:0:
184,256,39384,1,2,0:0:0:0:
256,320,39929,6,0,L|328:280,1,60,0|2,0:0|0:0,0:0:0:0:
352,208,40475,1,2,0:0:0:0:
288,136,40838,1,2,0:0:0:0:
192,160,41202,1,2,0:0:0:0:
104,192,41565,1,2,0:0:0:0:
128,288,41929,2,0,P|208:312|248:280,2,120,6|6|6,0:0|0:0|0:0,0:0:0:0:
184,224,43020,5,4,0:0:0:0:
184,128,43384,2,0,L|264:96,1,60
328,64,43929,1,0,0:0:0:0:
408,184,44475,5,4,0:0:0:0:
344,256,44838,2,0,L|272:296,1,60
208,240,45384,2,0,L|160:184,1,60
256,152,45929,1,4,0:0:0:0:
184,192,49020,5,2,0:0:0:0:
280,192,49383,1,2,0:0:0:0:
328,192,49565,1,0,0:0:0:0:
304,312,50110,5,2,0:0:0:0:
256,312,50292,1,0,0:0:0:0:
160,192,50837,1,2,0:0:0:0:
112,192,51020,1,0,0:0:0:0:
256,64,51747,6,0,P|304:88|312:112,1,60,0|2,0:0|0:0,0:0:0:0:
376,160,52292,1,2,0:0:0:0:
408,192,52474,1,0,0:0:0:0:
296,280,53020,6,0,L|232:304,1,60,2|0,0:0|0:0,0:0:0:0:
192,216,53747,2,0,L|144:176,1,60,2|0,0:0|0:0,0:0:0:0:
208,104,54292,2,0,L|280:80,2,60,2|0|6,0:0|0:0|0:0,0:0:0:0:
136,168,55020,5,0,0:0:0:0:
160,208,55201,1,2,0:0:0:0:
256,248,55565,1,2,0:0:0:0:
304,248,55747,1,0,0:0:0:0:
392,192,56110,5,0,0:0:0:0:
368,152,56292,1,2,0:0:0:0:
328,64,56656,1,2,0:0:0:0:
280,64,56838,1,0,0:0:0:0:
192,64,57201,2,0,L|144:120,2,60,0|2|0,0:0|0:0|0:0,0:0:0:0:
256,136,57929,5,0,0:0:0:0:
296,168,58110,1,2,0:0:0:0:
376,224,58474,1,2,0:0:0:0:
344,264,58656,1,0,0:0:0:0:
304,288,58838,2,0,L|240:320,1,60,2|0,0:0|0:0,0:0:0:0:
256,192,59201,12,0,61383,0:0:0:0:
256,184,61929,5,4,0:0:0:0:
328,120,62474,1,0,0:0:0:0:
400,184,62838,1,0,0:0:0:0:
308,296,63383,2,0,P|244:320|196:288,4,120,0|0|0|0|4,0:0|0:0|0:0|0:0|0:0,0:0:0:0:
416,200,65383,5,0,0:0:0:0:
456,112,65747,2,0,L|408:64,1,60
308,88,66292,2,0,P|244:64|196:96,4,120,0|0|0|0|4,0:0|0:0|0:0|0:0|0:0,0:0:0:0:
368,160,68110,6,0,L|336:224,1,60
296,280,68474,1,0,0:0:0:0:
208,256,68656,1,0,0:0:0:0:
184,160,69019,2,0,P|136:152|96:72,1,120
168,56,69565,1,0,0:0:0:0:
248,40,69747,1,0,0:0:0:0:
328,56,69929,1,0,0:0:0:0:
256,152,70292,5,0,0:0:0:0:
368,192,70656,1,4,0:0:0:0:
368,208,71383,1,4,0:0:0:0:
160,280,72110,5,4,0:0:0:0:
160,184,72474,1,4,0:0:0:0:
160,88,72838,1,4,0:0:0:0:
256,88,73201,1,4,0:0:0:0:
344,136,73565,6,0,P|400:152|432:224,1,120,12|0,0:0|0:0,0:0:0:0:
392,272,74110,1,0,0:0:0:0:
328,344,74474,1,8,0:0:0:0:
272,272,74838,1,0,0:0:0:0:
216,272,75019,2,0,P|160:264|120:208,4,120,8|0|8|0|12,0:0|0:0|0:0|0:0|0:0,0:0:0:0:
224,136,76838,5,0,0:0:0:0:
320,128,77201,1,8,0:0:0:0:
278,213,77565,1,0,0:0:0:0:
304,304,77929,2,8,P|360:296|400:240,4,120,8|0|8|0|12,0:0|0:0|0:0|0:0|0:0,0:0:0:0:
200,272,79747,6,8,L|128:232,1,60
64,192,80292,1,0,0:0:0:0:
144,144,80656,2,0,L|216:112,2,60,8|0|8,0:0|0:0|0:0,0:0:0:0:
256,88,81383,5,4,0:0:0:0:
360,192,81747,1,4,0:0:0:0:
256,288,82110,1,4,0:0:0:0:
152,192,82474,1,12,0:0:0:0:
200,128,82838,5,0,0:0:0:0:
312,128,83201,1,8,0:0:0:0:
312,256,83565,1,0,0:0:0:0:
192,256,83929,5,8,0:0:0:0:
376,192,84656,2,0,P|368:160|328:136,3,60,8|0|8|0,0:0|0:0|0:0|0:0,0:0:0:0:
256,112,85565,1,0,0:0:0:0:
168,160,85929,1,0,0:0:0:0:
256,192,86292,6,0,P|320:192|392:232,1,120
288,280,87019,2,0,L|224:280,2,60
228,184,87747,2,0,L|288:184,2,60
288,88,88474,2,4,L|224:88,2,60
