osu file format v12

[General]
AudioFilename: [Ending 2] High School DxD NEW.mp3
AudioLeadIn: 0
PreviewTime: 2475
Countdown: 0
SampleSet: Normal
StackLeniency: 0.7
Mode: 0
LetterboxInBreaks: 1
WidescreenStoryboard: 1

[Editor]
DistanceSpacing: 1
BeatDivisor: 4
GridSize: 8

[Metadata]
Title:Lovely Devil (TV Size)
TitleUnicode:らぶりぃ♥でびる
Artist:Occult Kenkyuubu Girls
ArtistUnicode:Occult Kenkyuubu Girls
Creator:FlowHomie
Version:Insane
Source:Highschool DxD NEW
Tags:FUNimation TNK Comedy Demons Ecchi Romance School Shounen Harem Demons Angels
BeatmapID:291609
BeatmapSetID:112044

[Difficulty]
HPDrainRate:7
CircleSize:4
OverallDifficulty:8
ApproachRate:8
SliderMultiplier:2.2
SliderTickRate:2

[Events]
//Background and Video events
0,0,"highschool_dxd_new___cast_wallpaper__1920x1080__by_jayzap96-d6cmxib.jpg",0,0
Video,1564,"Lovely Devil.avi"
//Break Periods
//Storyboard Layer 0 (Background)
//Storyboard Layer 1 (Fail)
//Storyboard Layer 2 (Pass)
//Storyboard Layer 3 (Foreground)
//Storyboard Sound Samples
//Background Colour Transformations
3,100,163,162,255

[TimingPoints]
1929.54986062828,363.636363636364,4,2,1,100,1,0
2111,-100,4,2,1,100,0,1
2202,-100,4,2,1,100,0,0
2475,363.636363636364,4,2,1,100,1,1
13747,-100,4,2,1,60,0,0
14020,-100,4,2,1,80,0,0
15293,-100,4,1,1,45,0,0
15475,-100,4,2,1,80,0,0
16747,-100,4,2,1,50,0,0
16929,-100,4,2,1,80,0,0
17293,-100,4,2,1,80,0,0
18200,-100,4,1,1,50,0,0
18384,-100,4,2,1,80,0,0
19656,-100,4,2,1,50,0,0
19838,-100,4,2,1,80,0,0
21111,-100,4,2,1,50,0,0
21293,-100,4,2,1,80,0,0
22565,-100,4,2,1,50,0,0
22747,-100,4,2,1,80,0,0
24020,-100,4,1,1,50,0,0
24202,-100,4,2,1,80,0,0
25475,-100,4,2,1,70,0,0
27293,-100,4,2,3,70,0,0
27384,-100,4,2,1,70,0,0
28656,-100,4,2,3,70,0,0
28747,-100,4,2,1,70,0,0
30565,-100,4,1,1,56,0,0
31111,-100,4,1,1,60,0,0
31565,-100,4,1,0,60,0,0
31656,-100,4,1,1,60,0,0
33020,-100,4,1,0,60,0,0
33111,-100,4,1,1,60,0,0
33384,-100,4,1,0,60,0,0
33475,-100,4,1,1,60,0,0
37386,-100,4,2,1,70,0,0
42929,-100,4,1,1,60,0,0
44656,-100,4,1,0,60,0,0
44747,-100,4,1,1,60,0,0
46293,-100,4,2,1,60,0,0
49020,-100,4,2,1,80,0,0
59202,-100,4,1,1,50,0,0
61929,-100,4,1,1,50,0,1
73201,-100,4,1,1,55,0,0
73565,-100,4,1,1,55,0,1
73747,-100,4,1,0,70,0,1
73838,-100,4,1,1,70,0,1
76656,-100,4,1,0,70,0,1
76747,-100,4,1,1,70,0,1
79565,-100,4,1,0,70,0,1
79656,-100,4,1,1,70,0,1
81292,-100,4,1,1,80,0,1
82565,-100,4,1,1,70,0,1
88747,-100,4,1,1,70,0,0
88838,-100,4,1,1,50,0,1
88929,-100,4,1,1,50,0,0

[Colours]
Combo1 : 128,0,255
Combo2 : 128,255,128
Combo3 : 255,0,128
Combo4 : 255,128,0

[HitObjects]
224,272,1929,1,0,0:0:0:0:
224,272,2020,1,0,0:0:0:0:
224,272,2111,1,4,3:2:0:0:
408,192,2475,5,0,0:0:0:0:
344,104,2656,1,2,0:0:0:0:
240,136,2838,2,0,P|236:82|240:0,1,110,0|2,0:0|0:0,0:0:0:0:
152,152,3202,2,0,P|156:206|152:288,1,110,0|2,0:0|0:0,0:0:0:0:
154,284,3475,1,0,0:0:0:0:
154,305,3565,1,0,0:0:0:0:
338,311,3747,6,0,B|302:306|302:306|263:244,1,110,2|0,0:0|0:0,0:0:0:0:
276,124,4111,2,0,B|312:129|312:129|352:192,1,110,2|0,0:0|0:0,0:0:0:0:
192,176,4475,2,0,B|156:171|156:171|117:109,1,110,2|0,0:0|0:0,0:0:0:0:
276,124,4838,1,2,0:0:0:0:
276,124,4929,1,0,0:0:0:0:
276,124,5020,1,0,0:0:0:0:
360,56,5202,1,2,0:0:0:0:
424,144,5384,6,0,P|386:207|323:220,1,110,0|2,0:0|0:0,0:0:0:0:
360,56,5747,1,0,0:0:0:0:
354,219,5929,1,0,0:0:0:0:
208,184,6111,1,0,0:0:0:0:
197,289,6293,2,0,P|109:330|76:303,1,110,2|0,0:0|0:0,0:0:0:0:
128,128,6656,2,0,P|207:182|200:225,1,110,2|0,0:0|0:0,0:0:0:0:
16,272,7020,2,0,P|24:176|64:160,1,110,2|0,0:0|0:0,0:0:0:0:
120,232,7384,1,2,0:0:0:0:
176,128,7565,1,0,0:0:0:0:
280,64,7747,5,2,0:0:0:0:
328,80,7838,1,0,0:0:0:0:
344,120,7929,1,0,0:0:0:0:
320,200,8111,1,2,0:0:0:0:
272,216,8202,1,0,0:0:0:0:
232,200,8293,1,4,0:0:0:0:
271,138,8475,5,2,0:0:0:0:
176,128,8656,1,0,0:0:0:0:
134,234,8838,2,0,P|136:288|88:344,1,110,2|0,0:0|0:0,0:0:0:0:
32,200,9202,2,0,P|30:146|78:90,1,110,2|0,0:0|0:0,0:0:0:0:
176,40,9565,1,2,0:0:0:0:
60,100,9747,1,0,0:0:0:0:
176,160,9929,1,2,0:0:0:0:
256,104,10111,2,0,P|320:96|352:128,1,110,0|2,0:0|0:0,0:0:0:0:
432,272,10475,5,0,0:0:0:0:
256,304,10656,1,2,0:0:0:0:
350,124,10838,1,0,0:0:0:0:
176,224,11020,1,2,0:0:0:0:
176,224,11202,1,4,0:0:0:0:
256,192,11293,12,4,13202,0:0:0:0:
256,192,13565,1,4,0:0:0:0:
112,192,13929,5,0,1:0:0:0:
112,192,14020,1,0,0:0:0:0:
112,192,14111,2,0,B|144:136|144:136|208:136,1,110,0|2,0:0|0:0,0:0:0:0:
320,56,14475,2,0,B|320:101|320:101|264:133,1,110,0|2,0:0|0:0,0:0:0:0:
352,224,14838,2,0,P|280:232|240:264,2,110,0|2|0,0:0|0:0|0:0,0:0:0:0:
320,305,15384,2,0,L|256:80,1,220,0|2,0:0|0:0,0:0:0:0:
320,304,16111,1,2,0:0:0:0:
248,96,16475,2,0,P|304:72|368:112,1,110,2|0,0:0|0:0,0:0:0:0:
304,200,16838,6,0,P|248:224|144:112,1,220,0|2,1:0|0:0,0:0:0:0:
224,80,17384,1,0,0:0:0:0:
304,112,17565,2,0,P|347:73|436:81,1,110,2|0,0:0|0:0,0:0:0:0:
360,200,17929,1,2,0:0:0:0:
360,200,18111,2,0,P|316:238|227:230,1,110,0|0,0:0|0:0,0:0:0:0:
144,176,18656,5,2,0:0:0:0:
312,64,18838,1,0,0:0:0:0:
328,248,19020,1,2,0:0:0:0:
192,272,19384,2,0,L|136:240,2,55,2|0|0,0:0|0:0|0:0,0:0:0:0:
288,176,19747,1,0,1:0:0:0:
288,176,19929,6,0,P|322:216|322:270,1,110,0|2,0:0|0:0,0:0:0:0:
248,232,20293,2,0,P|207:266|153:266,1,110,0|2,0:0|0:0,0:0:0:0:
216,168,20656,2,0,P|181:127|181:73,1,110,0|2,0:0|0:0,0:0:0:0:
304,96,21020,1,0,0:0:0:0:
136,232,21202,1,0,1:0:0:0:
256,48,21565,1,2,0:0:0:0:
376,232,21929,1,2,0:0:0:0:
360,160,22293,5,2,0:0:0:0:
336,136,22384,1,0,0:0:0:0:
304,136,22475,1,2,0:0:0:0:
168,144,22656,1,0,1:0:0:0:
192,336,22838,2,0,P|185:288|230:229,2,110,0|2|0,0:0|0:0|0:0,0:0:0:0:
16,248,23384,1,2,0:0:0:0:
112,208,23565,2,0,P|128:167|112:87,1,110
32,64,23929,1,0,0:0:0:0:
112,208,24111,1,0,0:0:0:0:
256,56,24475,5,6,0:0:0:0:
440,296,24838,1,6,0:0:0:0:
440,56,25202,1,6,0:0:0:0:
248,296,25565,5,4,0:0:0:0:
168,96,25929,1,2,0:0:0:0:
168,96,26020,1,0,0:0:0:0:
168,96,26111,2,0,P|128:160|64:168,1,110,0|2,0:0|0:0,0:0:0:0:
182,228,26475,2,0,P|129:214|97:171,1,110,0|2,0:0|0:0,0:0:0:0:
144,320,26838,1,0,0:0:0:0:
336,344,27020,6,0,B|384:288|384:288|384:224|384:224|448:160,1,220,2|0,0:0|0:0,0:0:0:0:
457,150,27475,1,0,0:0:0:0:
472,134,27565,1,0,0:0:0:0:
288,224,27747,1,2,0:0:0:0:
184,168,27929,1,0,0:0:0:0:
248,80,28111,2,0,B|320:72|320:72|344:24,1,110,2|0,0:0|0:0,0:0:0:0:
288,160,28475,1,4,0:0:0:0:
288,160,28838,6,0,P|352:136|376:88,1,110
288,224,29202,2,0,P|312:288|360:312,1,110
224,224,29565,2,0,P|160:248|136:296,1,110
224,160,29929,2,0,P|200:96|56:56,1,220,4|0,0:0|0:0,0:0:0:0:
65,52,30475,1,0,0:0:0:0:
72,192,30656,5,4,0:0:0:0:
96,192,31020,1,4,0:0:0:0:
256,192,31384,2,0,B|256:128|256:128|408:64,1,220
399,94,31838,1,0,0:0:0:0:
399,121,31929,1,0,0:0:0:0:
399,231,32111,1,0,0:0:0:0:
312,312,32293,2,0,P|232:320|176:360,1,110
144,240,32656,1,0,0:0:0:0:
240,192,32838,6,0,B|296:288|416:144|464:272,2,220,0|0|0,0:0|0:0|0:0,0:0:0:0:
136,96,33929,5,0,0:0:0:0:
136,96,34020,1,0,0:0:0:0:
136,96,34111,2,0,P|80:56|72:0,1,110
240,32,34475,2,0,P|296:72|304:128,1,110
248,224,34838,2,0,B|232:280|232:280|160:280,1,110
72,280,35202,2,0,B|72:216|72:216|16:192,1,110
232,104,35747,1,0,0:0:0:0:
256,336,36111,5,0,0:0:0:0:
192,128,36293,1,0,0:0:0:0:
408,192,36475,1,0,0:0:0:0:
240,336,36838,5,0,0:0:0:0:
192,112,37020,1,0,0:0:0:0:
424,192,37202,1,4,0:0:0:0:
168,192,37565,5,2,0:0:0:0:
168,192,37656,1,0,0:0:0:0:
168,192,37747,1,0,0:0:0:0:
168,192,37929,2,0,P|152:136|108:104,1,110,2|0,0:0|0:0,0:0:0:0:
256,136,38293,2,0,L|256:24,1,110,2|0,0:0|0:0,0:0:0:0:
344,192,38656,2,0,P|360:136|403:104,1,110,2|0,0:0|0:0,0:0:0:0:
456,200,39020,1,2,0:0:0:0:
280,336,39384,1,2,0:0:0:0:
160,152,39747,5,2,0:0:0:0:
160,152,39838,1,0,0:0:0:0:
160,152,39929,2,0,B|160:96|160:96|96:56,1,110,0|2,0:0|0:0,0:0:0:0:
40,184,40293,2,0,B|40:240|40:240|104:280,1,110,0|2,0:0|0:0,0:0:0:0:
192,264,40656,1,0,0:0:0:0:
376,312,40838,1,2,0:0:0:0:
272,336,41020,2,0,P|288:264|264:208,1,110,0|2,0:0|0:0,0:0:0:0:
200,128,41384,2,0,P|184:200|208:256,1,110,0|2,0:0|0:0,0:0:0:0:
128,88,41929,5,6,0:0:0:0:
384,88,42293,1,6,0:0:0:0:
384,288,42656,1,6,0:0:0:0:
256,192,42838,1,0,0:0:0:0:
144,288,43020,1,4,0:0:0:0:
336,176,43384,6,0,P|408:168|456:112,2,110
256,104,43929,2,0,P|192:144|160:168,1,110
164,164,44202,1,0,0:0:0:0:
164,164,44293,1,0,0:0:0:0:
384,256,44475,6,0,P|392:192|320:48,1,220,4|0,0:0|0:0,0:0:0:0:
240,120,45020,1,0,0:0:0:0:
288,264,45202,1,0,0:0:0:0:
192,216,45384,1,0,0:0:0:0:
336,168,45565,1,0,0:0:0:0:
184,328,45929,1,4,0:0:0:0:
272,176,46293,6,0,P|360:160|384:120,1,110
272,80,46656,2,0,P|184:96|160:136,1,110
88,216,47020,2,0,P|176:200|200:160,1,110
272,176,47384,1,4,0:0:0:0:
376,296,47747,5,0,0:0:0:0:
376,296,47838,1,0,0:0:0:0:
376,296,47929,2,0,P|296:304|240:320,1,110
176,224,48293,2,0,P|229:212|284:208,1,110
248,104,48656,1,0,0:0:0:0:
283,208,48838,1,0,0:0:0:0:
112,192,49020,5,4,0:0:0:0:
288,56,49383,1,0,0:0:0:0:
400,56,49565,1,2,0:0:0:0:
224,328,50111,5,0,0:0:0:0:
112,328,50293,1,2,0:0:0:0:
80,96,50838,5,0,0:0:0:0:
192,96,51020,1,2,0:0:0:0:
144,224,51383,6,0,P|200:232|224:288,3,110,2|0|2|0,0:0|0:0|0:0|0:0,0:0:0:0:
360,64,52292,5,0,0:0:0:0:
424,152,52474,1,2,0:0:0:0:
152,320,53020,5,0,0:0:0:0:
88,232,53201,1,2,0:0:0:0:
360,320,53747,5,0,0:0:0:0:
424,232,53928,1,2,0:0:0:0:
287,108,54293,6,0,P|315:154|368:159,2,110,2|0|2,0:0|0:0|0:0,0:0:0:0:
160,104,55020,5,2,0:0:0:0:
256,192,55201,1,0,0:0:0:0:
160,288,55565,5,0,0:0:0:0:
256,192,55746,1,2,0:0:0:0:
352,288,56111,5,2,0:0:0:0:
256,192,56292,1,0,0:0:0:0:
352,96,56656,5,0,0:0:0:0:
256,192,56837,1,2,0:0:0:0:
256,192,57201,5,2,0:0:0:0:
256,192,57383,1,0,0:0:0:0:
256,192,57565,1,2,0:0:0:0:
176,272,57929,6,0,P|127:250|109:199,1,110,2|0,0:0|0:0,0:0:0:0:
336,272,58474,6,0,P|400:224|392:168,1,110,0|2,0:0|0:0,0:0:0:0:
320,104,58838,5,0,0:0:0:0:
192,104,59020,1,2,0:0:0:0:
256,192,59111,12,0,60475,0:0:0:0:
357,165,60838,6,0,P|316:109|235:100,1,110
235,293,61202,2,0,P|303:285|352:219,1,110
175,127,61565,2,0,P|147:190|179:265,1,110
256,192,61929,5,4,0:0:0:0:
5,154,62292,2,0,P|42:115|96:112,1,110
208,96,62656,2,0,P|264:112|320:96,1,110
349,196,63019,2,0,P|309:132|325:76,1,110
216,160,63383,2,0,L|152:184,2,55
280,248,63747,6,0,P|240:312|232:352,1,110
98,257,64110,2,0,L|128:304,2,55
152,160,64474,1,0,0:0:0:0:
200,128,64565,1,0,0:0:0:0:
256,128,64656,1,0,0:0:0:0:
344,192,64838,1,4,0:0:0:0:
208,256,65201,6,0,P|272:224|312:248,1,110
328,139,65565,2,0,P|296:195|304:243,1,110
208,304,65929,2,0,P|160:256|144:176,1,110
216,136,66292,2,0,L|232:80,2,55
320,200,66656,6,0,P|318:253|282:293,1,110
176,304,67019,2,0,L|224:336,2,55
144,200,67383,1,0,0:0:0:0:
160,152,67474,1,0,0:0:0:0:
208,120,67565,1,0,0:0:0:0:
320,320,67747,1,4,0:0:0:0:
376,184,68110,6,0,P|368:112|392:64,1,110
280,200,68474,2,0,P|256:320|232:336,1,110
384,256,68838,1,0,0:0:0:0:
176,216,69019,2,0,P|128:204|86:160,2,110
248,136,69565,1,0,0:0:0:0:
328,216,69747,1,0,0:0:0:0:
400,136,69929,1,0,0:0:0:0:
256,64,70292,6,0,P|176:104|144:136,1,110
128,200,70656,1,4,0:0:0:0:
344,224,71019,2,0,P|360:304|328:360,1,110
248,280,71383,1,0,0:0:0:0:
288,64,71747,6,0,P|328:96|352:168,1,110
344,224,72110,1,4,0:0:0:0:
80,320,72474,1,4,0:0:0:0:
112,128,72838,1,4,0:0:0:0:
400,192,73201,1,0,0:0:0:0:
368,168,73292,1,0,0:0:0:0:
336,144,73383,1,0,0:0:0:0:
304,120,73474,1,0,0:0:0:0:
272,96,73565,6,0,B|184:128|184:128|72:40,1,220,12|8,0:0|0:0,0:0:0:0:
144,240,74110,2,0,P|104:312|104:376,1,110,0|8,0:0|0:0,0:0:0:0:
240,280,74474,2,0,P|271:235|283:181,1,110,0|8,0:0|0:0,0:0:0:0:
192,112,74838,1,0,0:0:0:0:
416,208,75019,2,0,B|416:264|416:264|360:304,1,110,8|0,0:0|0:0,0:0:0:0:
272,248,75383,2,0,B|272:192|272:192|320:152,2,110,8|0|8,0:0|0:0|0:0,0:0:0:0:
384,320,75929,1,0,0:0:0:0:
272,248,76110,2,0,P|312:320|312:360,1,110,8|0,0:0|0:0,0:0:0:0:
512,344,76474,6,0,B|464:224|464:224|360:200,1,220,8|8,0:0|0:0,0:0:0:0:
234,196,77019,2,0,P|277:228|296:280,1,110,0|8,0:0|0:0,0:0:0:0:
152,256,77383,2,0,P|112:219|99:166,1,110,0|8,0:0|0:0,0:0:0:0:
168,80,77747,1,0,0:0:0:0:
272,120,77929,1,8,0:0:0:0:
184,184,78110,2,0,B|136:216|136:216|112:272,1,110,0|8,0:0|0:0,0:0:0:0:
272,248,78474,2,0,B|320:216|320:216|344:160,1,110,0|8,0:0|0:0,0:0:0:0:
296,64,78838,1,0,0:0:0:0:
416,112,79019,2,0,P|438:182|386:221,1,110,8|0,0:0|0:0,0:0:0:0:
512,128,79383,6,0,B|496:224|352:80|312:256,1,220,8|8,0:0|0:0,0:0:0:0:
248,128,79929,2,0,P|224:64|168:32,1,110,0|8,0:0|0:0,0:0:0:0:
144,176,80292,2,0,P|168:240|224:272,1,110,0|8,0:0|0:0,0:0:0:0:
296,208,80656,1,0,0:0:0:0:
360,120,80838,1,8,0:0:0:0:
296,208,81019,1,0,0:0:0:0:
256,56,81383,5,4,0:0:0:0:
56,192,81747,1,4,0:0:0:0:
256,328,82110,1,4,0:0:0:0:
456,192,82474,1,4,0:0:0:0:
136,88,82838,6,0,P|192:80|240:48,1,110
144,168,83201,2,0,P|200:175|254:158,1,110
120,240,83565,2,0,P|171:262|229:261,1,110
408,72,83929,5,0,0:0:0:0:
360,288,84292,1,0,0:0:0:0:
264,88,84656,6,0,B|224:128|224:128|264:216,1,110
344,184,85019,2,0,B|328:247|328:247|272:263,1,110
160,144,85565,1,0,0:0:0:0:
208,256,85747,1,0,0:0:0:0:
160,144,85929,1,0,0:0:0:0:
416,204,86292,2,0,P|356:289|327:290,1,110
328,192,86656,2,0,P|341:139|384:107,1,110
224,184,87019,5,0,0:0:0:0:
184,40,87201,1,0,0:0:0:0:
96,136,87383,1,0,0:0:0:0:
352,264,87747,5,0,0:0:0:0:
184,224,87929,1,0,0:0:0:0:
296,112,88110,1,4,0:0:0:0:
32,232,88474,5,4,0:0:0:0:
160,344,88656,1,4,0:0:0:0:
216,192,88838,1,4,0:0:0:0:
