osu file format v12

[General]
AudioFilename: [Ending 2] High School DxD NEW.mp3
AudioLeadIn: 0
PreviewTime: 1929
Countdown: 0
SampleSet: Soft
StackLeniency: 0.7
Mode: 0
LetterboxInBreaks: 1
WidescreenStoryboard: 0

[Editor]
DistanceSpacing: 0.9
BeatDivisor: 4
GridSize: 8

[Metadata]
Title:Lovely Devil (TV Size)
TitleUnicode:らぶりぃ♥でびる
Artist:Occult Kenkyuubu Girls
ArtistUnicode:Occult Kenkyuubu Girls
Creator:FlowHomie
Version:Hard
Source:Highschool Dxd New
Tags:FUNimation TNK Comedy Demons Ecchi Romance School Shounen Harem Demons Angels
BeatmapID:291200
BeatmapSetID:112044

[Difficulty]
HPDrainRate:6
CircleSize:4
OverallDifficulty:8
ApproachRate:7
SliderMultiplier:1.6
SliderTickRate:2

[Events]
//Background and Video events
0,0,"highschool_dxd_new___cast_wallpaper__1920x1080__by_jayzap96-d6cmxib.jpg",0,0
Video,1668,"Lovely Devil.avi"
//Break Periods
2,46129,48120
//Storyboard Layer 0 (Background)
//Storyboard Layer 1 (Fail)
//Storyboard Layer 2 (Pass)
//Storyboard Layer 3 (Foreground)
//Storyboard Sound Samples
//Background Colour Transformations
3,100,163,162,255

[TimingPoints]
1929,363.636363636364,4,2,1,100,1,0
2111,-100,4,2,1,100,0,1
2201,-100,4,2,1,100,0,0
2474,363.636363636364,4,2,1,100,1,1
13020,-100,4,1,1,56,0,1
13838,-100,4,1,1,50,0,0
14020,-100,4,2,1,100,0,0
15293,-100,4,1,1,50,0,0
15475,-100,4,2,1,100,0,0
16747,-100,4,1,1,50,0,0
16929,-100,4,2,1,100,0,0
18202,-100,4,1,1,50,0,0
18384,-100,4,2,1,100,0,0
19656,-100,4,1,1,50,0,0
19838,-100,4,2,1,100,0,0
21111,-100,4,1,1,50,0,0
21293,-100,4,2,1,100,0,0
22565,-100,4,1,1,50,0,0
22747,-100,4,2,1,100,0,0
24020,-100,4,1,1,50,0,0
24202,-100,4,2,1,75,0,0
25475,-100,4,1,1,50,0,0
25747,-100,4,1,0,50,0,0
25838,-100,4,1,1,50,0,0
28293,-100,4,1,0,50,0,0
28384,-100,4,1,1,50,0,0
31020,-100,4,1,1,60,0,0
31565,-100,4,1,0,60,0,0
31656,-100,4,1,1,60,0,0
34475,-100,4,1,0,60,0,0
34565,-100,4,1,1,60,0,0
37386,-100,4,2,1,70,0,0
42929,-100,4,1,1,50,0,0
44656,-100,4,1,0,50,0,0
44747,-100,4,1,1,50,0,0
49019,-100,4,2,1,100,0,0
53656,-100,4,2,1,80,0,0
54838,-100,4,2,1,100,0,0
60474,-100,4,1,1,50,0,0
61928,-100,4,1,1,70,0,1
63201,-100,4,1,0,70,0,1
63292,-100,4,1,1,70,0,1
63929,-100,4,1,0,70,0,1
64019,-100,4,1,1,70,0,1
66110,-100,4,1,0,70,0,1
66201,-100,4,1,1,70,0,1
66838,-100,4,1,0,70,0,1
66929,-100,4,1,1,70,0,1
72656,-100,4,1,0,70,0,1
72747,-100,4,1,1,70,0,1
73383,-100,4,1,1,70,0,0
73565,-100,4,1,1,70,0,1
73747,-100,4,1,0,70,0,1
73838,-100,4,1,1,70,0,1
75201,-100,4,1,0,70,0,1
75292,-100,4,1,1,70,0,1
75929,-100,4,1,0,70,0,1
76019,-100,4,1,1,70,0,1
76656,-100,4,1,0,70,0,1
76747,-100,4,1,1,70,0,1
78110,-100,4,1,0,70,0,1
78201,-100,4,1,1,70,0,1
78838,-100,4,1,0,70,0,1
78929,-100,4,1,1,70,0,1
81292,-100,4,1,1,80,0,1
82565,-100,4,1,1,70,0,1
84110,-100,4,1,0,70,0,1
84201,-100,4,1,1,70,0,1
86838,-100,4,1,0,70,0,1
86929,-100,4,1,1,70,0,1
88746,-100,4,1,1,70,0,0
88838,-100,4,1,1,50,0,1

[Colours]
Combo1 : 128,0,255
Combo2 : 128,255,128
Combo3 : 255,0,128
Combo4 : 255,128,0

[HitObjects]
256,192,1929,1,0,0:0:0:0:
256,192,2020,1,0,0:0:0:0:
256,192,2111,1,4,3:2:0:0:
384,192,2475,6,0,L|328:256,1,80,0|2,0:0|0:0,0:0:0:0:
136,192,3020,2,0,L|264:304,1,160,2|2,0:0|0:0,0:0:0:0:
264,184,3747,2,0,L|392:296,1,160,2|2,0:0|0:0,0:0:0:0:
312,80,4475,1,2,0:0:0:0:
232,80,4656,1,0,0:0:0:0:
152,80,4838,2,0,L|72:80,2,80,2|0|2,0:0|0:0|0:0,0:0:0:0:
152,160,5384,6,0,L|152:256,1,80,4|2,0:0|0:0,0:0:0:0:
256,296,5929,1,2,0:0:0:0:
256,168,6293,1,2,0:0:0:0:
384,192,6656,1,2,0:0:0:0:
384,64,7020,6,0,P|328:64|304:40,2,80,2|0|2,0:0|0:0|0:0,0:0:0:0:
288,136,7747,1,2,0:0:0:0:
344,176,7929,1,0,0:0:0:0:
288,224,8111,1,2,0:0:0:0:
216,224,8293,6,0,P|176:200|176:152,1,80,4|2,0:0|0:0,0:0:0:0:
256,96,8838,2,0,P|344:112|352:200,1,160,2|2,0:0|0:0,0:0:0:0:
256,184,9565,2,0,P|208:184|160:288,1,160,2|2,0:0|0:0,0:0:0:0:
304,304,10293,1,2,0:0:0:0:
368,272,10475,1,0,0:0:0:0:
256,192,11202,12,4,13202,0:0:0:0:
256,192,13565,1,4,0:0:0:0:
253,106,13929,2,0,L|101:170,1,160,4|0,0:0|0:0,0:0:0:0:
105,240,14475,1,0,0:0:0:0:
105,311,14656,1,2,0:0:0:0:
172,285,14838,2,0,L|276:237,1,80
309,220,15202,1,0,0:0:0:0:
309,147,15384,1,0,0:0:0:0:
207,45,15747,1,0,0:0:0:0:
105,146,16111,1,2,0:0:0:0:
312,240,16475,5,0,0:0:0:0:
312,240,16656,1,0,0:0:0:0:
312,240,16838,2,0,P|328:200|248:128,1,160,0|0,0:0|0:0,0:0:0:0:
182,127,17384,2,0,P|134:151|126:183,1,80,0|2,0:0|0:0,0:0:0:0:
126,245,17747,2,0,P|158:277|198:277,2,80
126,172,18293,6,0,P|158:92|222:44,1,160
256,112,18838,1,0,0:0:0:0:
296,176,19020,1,2,0:0:0:0:
296,296,19384,2,0,L|296:224,2,40
256,192,19747,6,0,P|320:192|384:272,1,160
320,328,20293,2,0,P|272:336|240:312,1,80,0|2,0:0|0:0,0:0:0:0:
208,256,20656,1,0,0:0:0:0:
291,261,20838,1,0,0:0:0:0:
363,229,21020,1,0,0:0:0:0:
363,156,21202,2,0,P|315:92|219:124,1,160
88,144,21929,1,2,0:0:0:0:
144,352,22475,5,0,0:0:0:0:
96,296,22656,1,0,0:0:0:0:
170,187,23020,1,0,0:0:0:0:
220,136,23202,1,0,0:0:0:0:
292,136,23384,1,2,0:0:0:0:
342,186,23565,1,0,0:0:0:0:
287,238,23747,2,0,P|343:262|415:198,1,160
368,136,24475,6,0,B|296:88|216:88|216:88,1,160,4|0,0:0|0:0,0:0:0:0:
160,192,25202,1,4,0:0:0:0:
288,192,25565,6,0,B|352:192|368:240|376:304,1,160,4|0,0:0|0:0,0:0:0:0:
303,304,26111,2,0,L|247:248,1,80,0|0,0:0|0:0,0:0:0:0:
195,196,26475,2,0,P|211:140|227:124,1,80
360,192,27020,1,0,0:0:0:0:
376,64,27384,6,0,P|328:40|288:56,1,80
237,72,27747,2,0,P|189:120|189:152,1,80,0|0,0:0|0:0,0:0:0:0:
238,179,28111,2,0,P|318:211|326:299,1,160,0|4,0:0|0:0,0:0:0:0:
256,192,28656,12,4,29929,0:0:0:0:
256,272,30656,5,4,0:0:0:0:
256,192,31020,1,4,0:0:0:0:
400,192,31384,6,0,B|328:160|328:80|336:48,1,160,4|0,0:0|0:0,0:0:0:0:
261,58,31929,1,0,0:0:0:0:
210,108,32111,1,0,0:0:0:0:
260,158,32293,2,0,P|275:200|276:238,1,80
200,208,32656,1,0,0:0:0:0:
149,157,32838,5,0,0:0:0:0:
256,48,33202,1,0,0:0:0:0:
360,160,33565,1,0,0:0:0:0:
256,256,33929,1,0,0:0:0:0:
256,328,34111,1,0,0:0:0:0:
183,328,34293,6,0,P|111:296|87:224,1,160,0|0,0:0|0:0,0:0:0:0:
87,151,34838,2,0,P|127:127|183:159,1,80
209,184,35202,1,0,0:0:0:0:
259,234,35384,1,0,0:0:0:0:
360,132,35747,1,0,0:0:0:0:
224,128,36111,5,0,0:0:0:0:
256,63,36293,1,0,0:0:0:0:
320,30,36475,1,0,0:0:0:0:
320,173,36838,2,0,P|320:237|296:245,2,80,0|0|4,0:0|0:0|0:0,0:0:0:0:
256,88,37565,6,0,P|208:96|184:136,1,80,2|0,0:0|0:0,0:0:0:0:
216,185,37929,2,0,P|255:182|282:154,1,80,2|0,0:0|0:0,0:0:0:0:
290,252,38293,2,0,P|226:268|138:220,1,160,2|2,0:0|0:0,0:0:0:0:
222,132,39020,2,0,P|286:116|374:164,1,160,2|2,0:0|0:0,0:0:0:0:
432,288,39747,1,2,0:0:0:0:
381,237,39929,1,0,0:0:0:0:
330,287,40111,6,0,P|258:311|162:263,1,160,2|2,0:0|0:0,0:0:0:0:
181,211,40656,2,0,P|213:179|261:171,1,80,0|2,0:0|0:0,0:0:0:0:
318,170,41020,1,0,0:0:0:0:
368,220,41202,1,2,0:0:0:0:
368,76,41565,1,2,0:0:0:0:
223,76,41929,5,6,0:0:0:0:
48,192,42293,1,6,0:0:0:0:
224,320,42656,1,6,0:0:0:0:
296,320,42838,6,0,P|344:272|344:240,1,80,0|4,0:0|0:0,0:0:0:0:
345,118,43384,2,0,P|289:102|257:118,1,80
224,169,43747,2,0,P|280:185|312:169,1,80
72,184,44475,6,0,P|96:240|208:304,1,160
246,297,45020,2,0,P|278:265|278:233,1,80
226,181,45384,1,0,0:0:0:0:
154,181,45565,1,0,0:0:0:0:
246,297,45929,1,4,0:0:0:0:
200,120,49020,6,0,P|248:72|312:128,1,160,2|2,0:0|0:0,0:0:0:0:
256,192,49565,1,0,0:0:0:0:
136,240,50110,6,0,P|144:288|200:304,1,80,2|0,0:0|0:0,0:0:0:0:
344,79,50838,2,0,P|373:105|376:144,1,80,2|0,0:0|0:0,0:0:0:0:
120,192,51747,6,0,P|152:232|208:232,1,80,0|2,0:0|0:0,0:0:0:0:
333,145,52292,2,0,P|370:158|392:192,1,80,2|0,0:0|0:0,0:0:0:0:
200,88,53020,6,0,P|160:136|184:176,1,80,2|0,0:0|0:0,0:0:0:0:
312,296,53747,2,0,P|352:248|328:208,1,80,6|0,0:0|0:0,0:0:0:0:
176,240,54292,5,6,0:0:0:0:
216,296,54474,1,0,0:0:0:0:
256,240,54656,1,6,0:0:0:0:
328,136,55020,6,0,P|280:128|232:152,1,80,0|2,0:0|0:0,0:0:0:0:
184,248,55565,2,0,P|232:256|280:232,1,80,2|0,0:0|0:0,0:0:0:0:
144,88,56110,6,0,P|200:96|240:136,1,80,2|0,0:0|0:0,0:0:0:0:
368,296,56656,2,0,P|312:288|272:248,1,80,0|2,0:0|0:0,0:0:0:0:
293,97,57201,6,0,P|256:80|216:104,2,80,2|0|2,0:0|0:0|0:0,0:0:0:0:
232,256,57929,2,0,P|160:224|160:216,1,80,2|0,0:0|0:0,0:0:0:0:
280,128,58474,2,0,P|352:160|352:168,1,80,2|0,0:0|0:0,0:0:0:0:
304,200,58838,2,0,P|232:168|232:160,1,80,2|0,0:0|0:0,0:0:0:0:
256,192,59201,12,4,60474,0:0:0:0:
120,72,60838,6,0,L|120:152,1,80
200,152,61201,2,0,L|200:232,1,80
280,232,61565,2,0,L|280:320,1,80
384,112,61929,5,4,0:0:0:0:
232,96,62292,2,0,P|184:112|160:152,1,80
160,208,62656,2,0,P|208:192|232:152,1,80
297,170,63019,2,0,L|425:74,1,160
425,218,63747,2,0,L|297:314,1,160
152,314,64474,2,0,L|88:250,1,80
146,206,64838,5,4,0:0:0:0:
368,88,65201,1,0,0:0:0:0:
352,160,65383,1,0,0:0:0:0:
312,224,65565,1,0,0:0:0:0:
248,256,65747,1,0,0:0:0:0:
178,237,65929,2,0,L|50:141,1,160
152,38,66657,2,0,L|280:134,1,160
381,235,67384,2,0,L|445:171,1,80
386,127,67747,5,4,0:0:0:0:
144,88,68110,1,0,0:0:0:0:
160,158,68292,1,0,0:0:0:0:
195,220,68474,1,0,0:0:0:0:
257,255,68656,1,0,0:0:0:0:
320,48,69019,6,0,P|360:88|352:128,2,80,0|0|0,0:0|0:0|0:0,0:0:0:0:
251,71,69565,1,0,0:0:0:0:
200,121,69747,1,0,0:0:0:0:
250,171,69929,1,0,0:0:0:0:
384,168,70292,5,0,0:0:0:0:
369,238,70474,1,0,0:0:0:0:
318,288,70656,1,4,0:0:0:0:
174,288,71019,2,0,P|118:248|118:216,2,80,0|0|4,0:0|0:0|0:0,0:0:0:0:
272,184,71747,5,0,0:0:0:0:
221,133,71929,1,0,0:0:0:0:
271,82,72110,1,4,0:0:0:0:
415,82,72474,2,4,P|471:130|455:218,1,160
328,264,73201,5,4,0:0:0:0:
255,264,73383,1,4,0:0:0:0:
184,250,73565,6,0,P|144:234|120:122,1,160,8|0,0:0|0:0,0:0:0:0:
120,56,74110,2,0,P|160:72|192:120,1,80,0|8,0:0|0:0,0:0:0:0:
224,160,74474,1,0,0:0:0:0:
192,224,74656,1,0,0:0:0:0:
141,173,74838,1,0,0:0:0:0:
90,223,75019,2,0,L|210:351,1,160,8|0,0:0|0:0,0:0:0:0:
315,340,75747,2,0,L|425:224,1,160,8|0,0:0|0:0,0:0:0:0:
256,288,76292,1,0,0:0:0:0:
176,160,76474,6,0,P|240:152|352:168,1,160,12|0,0:0|0:0,0:0:0:0:
385,213,77019,1,0,0:0:0:0:
450,243,77201,2,0,P|407:280|362:283,1,80,8|0,0:0|0:0,0:0:0:0:
313,284,77565,1,0,0:0:0:0:
80,208,77929,2,0,L|200:80,1,160,8|0,0:0|0:0,0:0:0:0:
319,93,78657,2,0,L|429:210,1,160,8|0,0:0|0:0,0:0:0:0:
256,176,79202,1,0,0:0:0:0:
256,176,79383,5,8,0:0:0:0:
416,144,79747,2,0,L|488:184,1,80,0|0,0:0|0:0,0:0:0:0:
440,248,80110,2,0,L|360:200,1,80,8|0,0:0|0:0,0:0:0:0:
184,240,80656,2,0,P|192:176|224:168,2,80,0|8|0,0:0|0:0|0:0,0:0:0:0:
256,136,81383,5,4,0:0:0:0:
376,192,81747,1,4,0:0:0:0:
256,240,82110,1,4,0:0:0:0:
104,192,82474,2,0,L|184:120,1,80
224,192,82838,2,0,L|160:256,1,80
168,328,83201,1,0,0:0:0:0:
224,192,83565,2,0,L|272:120,1,80
200,80,83929,6,0,P|256:48|344:88,1,160
296,232,84656,1,0,0:0:0:0:
216,152,84838,1,0,0:0:0:0:
216,232,85019,1,0,0:0:0:0:
296,152,85201,1,4,0:0:0:0:
416,152,85565,6,0,P|448:104|440:80,1,80
371,86,85929,1,0,0:0:0:0:
232,64,86292,5,0,0:0:0:0:
165,91,86474,1,0,0:0:0:0:
112,136,86656,2,0,P|64:200|112:272,1,160
168,264,87201,2,0,P|216:248|232:224,1,80
288,48,87747,6,0,P|304:96|280:112,2,80,0|0|0,0:0|0:0|0:0,0:0:0:0:
224,112,88474,2,0,P|206:97|222:49,2,80,4|4|4,0:0|0:0|0:0,0:0:0:0:
