osu file format v12

[General]
AudioFilename: Obsidia - Crazy.mp3
AudioLeadIn: 0
PreviewTime: 45258
Countdown: 0
SampleSet: Soft
StackLeniency: 0.7
Mode: 2
LetterboxInBreaks: 1

[Editor]
DistanceSpacing: 1
BeatDivisor: 4
GridSize: 8

[Metadata]
Title:Crazy
TitleUnicode:Crazy
Artist:Obsidia
ArtistUnicode:Obsidia
Creator:Drafura
Version:Etoile
Source:
Tags:
BeatmapID:241869
BeatmapSetID:88841

[Difficulty]
HPDrainRate:7
CircleSize:4
OverallDifficulty:9
ApproachRate:9
SliderMultiplier:2
SliderTickRate:1

[Events]
//Background and Video events
0,0,"BG - Obsidia - Crazy.jpg",0,0
//Break Periods
//Storyboard Layer 0 (Background)
//Storyboard Layer 1 (Fail)
//Storyboard Layer 2 (Pass)
//Storyboard Layer 3 (Foreground)
//Storyboard Sound Samples
//Background Colour Transformations
3,100,163,162,255

[TimingPoints]
11376,352.941176470588,4,2,0,50,1,0
11476,-66.6666666666667,4,2,0,50,0,0
17023,-133.333333333333,4,2,0,50,0,0
17728,-100,4,2,0,50,0,0
19140,-66.6666666666667,4,2,0,50,0,0
19493,-100,4,2,0,50,0,0
19846,-66.6666666666667,4,2,0,50,0,0
22317,-100,4,2,0,50,0,0
27611,-66.6666666666667,4,2,0,50,0,0
30787,-100,4,2,0,50,0,0
33964,-66.6666666666667,4,2,0,50,0,0
45258,-100,4,2,0,50,0,1
48258,-66.6666666666667,4,2,0,50,0,1
48434,-100,4,2,0,50,0,1
52846,-66.6666666666667,4,2,0,50,0,1
54081,-100,4,2,0,50,0,1
59552,-66.6666666666667,4,2,0,50,0,1
59728,-100,4,2,0,50,0,1
60964,-66.6666666666667,4,2,0,50,0,1
61140,-100,4,2,0,50,0,1
67846,-100,4,2,0,50,0,0
70846,-66.6666666666667,4,2,0,50,0,0
71552,-100,4,2,0,50,0,0
73846,-66.6666666666667,4,2,0,50,0,0
74375,-100,4,2,0,50,0,0
79493,-66.6666666666667,4,2,0,50,0,0
80023,-100,4,2,0,50,0,0
85140,-57.1428571428571,4,2,0,50,0,0
88670,-100,4,2,0,50,0,0
90434,-100,4,2,0,50,0,1
93434,-66.6666666666667,4,2,0,50,0,1
93787,-100,4,2,0,50,0,1
97493,-66.6666666666667,4,2,0,50,0,1
99258,-100,4,2,0,50,0,1
104728,-66.6666666666667,4,2,0,50,0,1
104905,-100,4,2,0,50,0,1
113023,-100,4,2,0,50,0,0

[Colours]
Combo1 : 234,194,77
Combo2 : 118,220,197
Combo3 : 5,170,233
Combo4 : 136,243,124

[HitObjects]
256,192,11376,1,0,0:0:0:0:
104,192,11728,1,0,0:0:0:0:
136,128,11905,1,0,0:0:0:0:
376,192,12258,1,0,0:0:0:0:
408,128,12434,1,0,0:0:0:0:
136,256,12787,1,0,0:0:0:0:
376,256,13140,1,0,0:0:0:0:
200,256,13493,1,0,0:0:0:0:
440,256,13846,1,0,0:0:0:0:
256,192,14199,5,0,0:0:0:0:
408,192,14551,1,0,0:0:0:0:
440,128,14728,1,0,0:0:0:0:
104,192,15081,1,0,0:0:0:0:
136,128,15257,1,0,0:0:0:0:
376,256,15610,1,0,0:0:0:0:
136,256,15963,1,0,0:0:0:0:
472,256,16316,1,0,0:0:0:0:
288,256,16669,1,0,0:0:0:0:
88,192,17023,6,0,L|240:192,1,150.000005722046
160,128,17552,1,0,0:0:0:0:
80,64,17728,2,0,L|280:128,1,200
88,256,18434,6,0,L|288:256,1,200
192,192,18964,1,0,0:0:0:0:
96,128,19140,2,0,L|400:256,1,300.000011444092
432,192,19846,6,0,L|128:288,1,300.000011444092
256,192,20375,1,0,0:0:0:0:
368,128,20552,2,0,L|64:192,1,300.000011444092
432,64,21258,6,0,L|128:160,1,300.000011444092
240,192,21787,1,0,0:0:0:0:
336,256,21963,2,0,L|32:384,1,300.000011444092
296,376,22493,1,0,0:0:0:0:
32,256,22670,6,0,L|232:384,1,200
112,192,23375,2,0,L|312:304,1,200
176,128,24081,2,0,L|376:224,1,200
240,64,24786,2,0,L|440:144,1,200
0,96,25493,6,0,L|200:160,1,200
32,160,26199,2,0,L|232:208,1,200
64,224,26905,2,0,L|264:256,1,200
344,312,27611,2,0,L|40:184,1,300.000011444092
480,288,28317,6,0,L|176:192,1,300.000011444092
400,224,29022,2,0,L|96:160,1,300.000011444092
304,160,29728,2,0,L|0:128,2,300.000011444092
488,160,30787,1,0,0:0:0:0:
64,288,31140,6,0,L|264:288,1,200
128,224,31845,2,0,L|328:192,1,200
192,160,32552,2,0,L|392:96,1,200
256,96,33257,2,0,L|56:0,1,200
496,16,33965,6,0,L|344:16|496:16,1,300.000011444092
296,192,34670,1,0,0:0:0:0:
216,192,34846,1,0,0:0:0:0:
360,192,35199,1,0,0:0:0:0:
152,192,35375,5,0,0:0:0:0:
56,256,35728,1,0,0:0:0:0:
152,256,35905,1,0,0:0:0:0:
360,256,36081,1,0,0:0:0:0:
264,256,36258,1,0,0:0:0:0:
360,320,36434,1,0,0:0:0:0:
16,16,36787,6,0,L|168:16|16:16,1,300.000011444092
216,192,37492,1,0,0:0:0:0:
296,192,37668,1,0,0:0:0:0:
152,192,38021,1,0,0:0:0:0:
360,192,38197,5,0,0:0:0:0:
456,256,38550,1,0,0:0:0:0:
360,256,38727,1,0,0:0:0:0:
152,256,38903,1,0,0:0:0:0:
248,256,39080,1,0,0:0:0:0:
152,320,39256,1,0,0:0:0:0:
400,40,39611,6,0,L|400:192,1,150.000005722046
304,40,39964,2,0,L|304:192,1,150.000005722046
112,40,40317,2,0,L|112:192,1,150.000005722046
208,40,40670,2,0,L|208:192,1,150.000005722046
112,256,41023,6,0,L|264:256,1,150.000005722046
112,320,41376,2,0,L|264:320,1,150.000005722046
400,256,41728,2,0,L|248:256,1,150.000005722046
400,320,42081,2,0,L|248:320,1,150.000005722046
112,192,42434,5,0,0:0:0:0:
400,192,42611,1,0,0:0:0:0:
112,160,42787,1,0,0:0:0:0:
400,160,42964,1,0,0:0:0:0:
112,128,43140,1,0,0:0:0:0:
400,128,43317,1,0,0:0:0:0:
112,96,43493,1,0,0:0:0:0:
400,96,43670,1,0,0:0:0:0:
112,32,43846,5,0,0:0:0:0:
176,32,43934,1,0,0:0:0:0:
240,32,44023,1,0,0:0:0:0:
304,32,44111,1,0,0:0:0:0:
368,32,44199,1,0,0:0:0:0:
432,32,44287,1,0,0:0:0:0:
272,96,44375,1,0,0:0:0:0:
432,96,44464,1,0,0:0:0:0:
272,160,44552,2,0,L|120:160|272:160,1,300.000011444092
432,160,45081,1,0,0:0:0:0:
160,224,45258,5,0,0:0:0:0:
56,288,45611,1,0,0:0:0:0:
320,288,45787,1,0,0:0:0:0:
56,224,45964,1,0,0:0:0:0:
320,224,46317,1,0,0:0:0:0:
88,160,46670,6,0,L|192:160,1,100
424,160,47023,2,0,L|320:160,1,100
24,160,47375,2,0,L|128:160,1,100
488,160,47728,2,0,L|384:160,1,100
24,32,48081,5,0,0:0:0:0:
24,96,48258,2,0,L|176:96,1,150.000005722046
176,32,48611,1,0,0:0:0:0:
416,32,48787,1,0,0:0:0:0:
176,96,49140,1,0,0:0:0:0:
352,160,49493,5,0,0:0:0:0:
416,160,49581,1,0,0:0:0:0:
352,224,49670,1,0,0:0:0:0:
160,160,49846,1,0,0:0:0:0:
272,96,50023,1,0,0:0:0:0:
336,96,50111,1,0,0:0:0:0:
272,160,50199,1,0,0:0:0:0:
432,96,50375,1,0,0:0:0:0:
272,32,50552,1,0,0:0:0:0:
432,32,50728,1,0,0:0:0:0:
80,32,50905,5,0,0:0:0:0:
360,32,51258,1,0,0:0:0:0:
200,32,51434,1,0,0:0:0:0:
360,96,51611,1,0,0:0:0:0:
200,96,51964,1,0,0:0:0:0:
32,96,52317,6,0,L|136:96,1,100
288,96,52670,1,0,0:0:0:0:
32,160,52846,2,0,L|184:224,1,150.000005722046
360,160,53199,1,0,0:0:0:0:
32,224,53375,2,0,L|184:224,1,150.000005722046
424,224,53728,5,0,0:0:0:0:
488,352,53905,2,0,L|336:352,1,150.000005722046
104,352,54258,1,0,0:0:0:0:
224,352,54434,1,0,0:0:0:0:
424,288,54787,1,0,0:0:0:0:
88,288,55140,5,0,0:0:0:0:
152,288,55228,1,0,0:0:0:0:
88,224,55317,1,0,0:0:0:0:
336,224,55493,1,0,0:0:0:0:
240,224,55670,1,0,0:0:0:0:
88,160,55758,1,0,0:0:0:0:
88,96,55846,1,0,0:0:0:0:
272,32,56022,1,0,0:0:0:0:
88,32,56199,1,0,0:0:0:0:
336,32,56375,1,0,0:0:0:0:
24,32,56552,5,0,0:0:0:0:
152,96,56905,1,0,0:0:0:0:
440,96,57258,1,0,0:0:0:0:
24,96,57611,1,0,0:0:0:0:
440,160,57964,5,0,0:0:0:0:
160,160,58140,1,0,0:0:0:0:
304,160,58317,1,0,0:0:0:0:
72,224,58670,2,0,L|176:224,1,100
440,224,59023,2,0,L|336:224,1,100
440,304,59375,5,0,0:0:0:0:
48,224,59552,2,0,L|200:224,2,150.000005722046
288,224,60081,1,0,0:0:0:0:
288,160,60434,1,0,0:0:0:0:
48,160,60787,5,0,0:0:0:0:
128,160,60875,1,0,0:0:0:0:
208,96,60964,2,0,L|56:96,1,150.000005722046
368,96,61493,1,0,0:0:0:0:
464,96,61670,1,0,0:0:0:0:
224,96,61846,1,0,0:0:0:0:
128,96,62023,1,0,0:0:0:0:
464,160,62199,5,0,0:0:0:0:
48,160,62552,1,0,0:0:0:0:
48,224,62728,1,0,0:0:0:0:
288,224,62905,1,0,0:0:0:0:
288,352,63258,1,0,0:0:0:0:
48,288,63611,5,0,0:0:0:0:
208,288,63787,1,0,0:0:0:0:
48,352,63964,1,0,0:0:0:0:
208,224,64317,1,0,0:0:0:0:
368,224,64493,1,0,0:0:0:0:
208,160,64670,1,0,0:0:0:0:
368,160,64846,1,0,0:0:0:0:
256,224,65023,5,0,0:0:0:0:
256,160,65199,1,0,0:0:0:0:
16,160,65375,1,0,0:0:0:0:
256,96,65552,1,0,0:0:0:0:
368,96,65728,1,0,0:0:0:0:
480,96,66081,1,0,0:0:0:0:
16,96,66434,5,0,0:0:0:0:
80,96,66523,1,0,0:0:0:0:
16,32,66611,1,0,0:0:0:0:
160,96,66787,1,0,0:0:0:0:
232,96,67140,1,0,0:0:0:0:
480,32,67317,1,0,0:0:0:0:
232,32,67493,1,0,0:0:0:0:
32,160,67846,5,0,0:0:0:0:
152,160,68199,2,0,L|152:264,1,100
360,160,68552,2,0,L|360:272,1,100
480,160,68905,1,0,0:0:0:0:
32,224,69258,5,0,0:0:0:0:
480,224,69611,1,0,0:0:0:0:
256,192,69964,12,0,70670,0:0:0:0:
224,160,70846,6,0,L|72:160,1,150.000005722046
320,160,71199,1,0,0:0:0:0:
224,96,71375,2,0,L|376:96,1,150.000005722046
128,96,71728,1,0,0:0:0:0:
448,96,72081,5,0,0:0:0:0:
128,32,72434,1,0,0:0:0:0:
256,192,72787,12,0,73493,0:0:0:0:
352,192,73846,6,0,L|352:344,1,150.000005722046
168,192,74199,2,0,L|320:192,1,150.000005722046
488,192,74552,1,0,0:0:0:0:
72,192,74905,5,0,0:0:0:0:
488,128,75258,1,0,0:0:0:0:
256,192,75611,12,0,76317,0:0:0:0:
256,256,76493,6,0,L|256:360,1,100
64,192,76846,1,0,0:0:0:0:
256,192,77023,1,0,0:0:0:0:
64,128,77199,1,0,0:0:0:0:
256,128,77375,1,0,0:0:0:0:
48,128,77728,5,0,0:0:0:0:
464,128,78081,1,0,0:0:0:0:
256,192,78434,12,0,79140,0:0:0:0:
48,160,79493,6,0,L|200:160,1,150.000005722046
464,160,79846,2,0,L|312:160,1,150.000005722046
48,96,80199,1,0,0:0:0:0:
368,96,80552,5,0,0:0:0:0:
48,32,80905,1,0,0:0:0:0:
256,192,81258,12,0,81964,0:0:0:0:
48,224,82140,6,0,L|48:328,1,100
288,224,82493,1,0,0:0:0:0:
112,224,82669,2,0,L|112:328,1,100
352,224,83022,1,0,0:0:0:0:
48,160,83375,5,0,0:0:0:0:
464,160,83728,1,0,0:0:0:0:
256,192,84081,12,0,84787,0:0:0:0:
200,224,85140,6,0,L|24:224,1,175.00000166893
312,224,85493,2,0,L|488:224,2,175.00000166893
96,160,86199,5,0,0:0:0:0:
416,160,86552,1,0,0:0:0:0:
256,192,86905,12,0,87611,0:0:0:0:
80,224,87787,6,0,L|256:224,2,175.00000166893
320,224,88317,2,0,L|496:224,2,175.00000166893
80,160,89022,5,0,0:0:0:0:
432,160,89375,1,0,0:0:0:0:
432,96,89728,1,0,0:0:0:0:
256,96,89817,1,0,0:0:0:0:
80,96,89905,1,0,0:0:0:0:
16,24,90081,1,0,0:0:0:0:
496,24,90434,5,0,0:0:0:0:
256,160,90787,1,0,0:0:0:0:
256,224,90963,1,0,0:0:0:0:
496,224,91140,1,0,0:0:0:0:
80,224,91493,1,0,0:0:0:0:
104,144,91846,6,0,L|208:144,1,100
440,144,92199,2,0,L|336:144,1,100
104,80,92551,2,0,L|0:80,1,100
240,80,92904,2,0,L|344:80,1,100
496,80,93257,5,0,0:0:0:0:
344,144,93434,2,0,L|192:144,2,150.000005722046
104,144,93963,1,0,0:0:0:0:
344,208,94316,1,0,0:0:0:0:
104,208,94669,5,0,0:0:0:0:
184,208,94757,1,0,0:0:0:0:
264,208,94846,1,0,0:0:0:0:
144,272,95022,1,0,0:0:0:0:
224,336,95199,1,0,0:0:0:0:
416,336,95287,1,0,0:0:0:0:
224,272,95375,1,0,0:0:0:0:
144,336,95551,1,0,0:0:0:0:
304,336,95728,1,0,0:0:0:0:
112,336,95904,1,0,0:0:0:0:
304,272,96081,5,0,0:0:0:0:
64,160,96434,1,0,0:0:0:0:
64,224,96610,1,0,0:0:0:0:
304,208,96787,1,0,0:0:0:0:
64,96,97140,1,0,0:0:0:0:
64,224,97493,6,0,L|216:224,1,150.000005722046
152,160,97846,1,0,0:0:0:0:
448,224,98022,2,0,L|296:224,1,150.000005722046
360,160,98375,1,0,0:0:0:0:
64,288,98551,2,0,L|216:288,1,150.000005722046
152,96,98904,5,0,0:0:0:0:
240,32,99081,2,0,L|88:32,1,150.000005722046
328,32,99434,1,0,0:0:0:0:
216,96,99610,1,0,0:0:0:0:
472,96,99963,1,0,0:0:0:0:
376,96,100316,5,0,0:0:0:0:
184,96,100404,1,0,0:0:0:0:
376,160,100493,1,0,0:0:0:0:
280,160,100669,1,0,0:0:0:0:
200,224,100846,1,0,0:0:0:0:
280,224,100934,1,0,0:0:0:0:
360,224,101022,1,0,0:0:0:0:
120,224,101198,1,0,0:0:0:0:
280,288,101375,1,0,0:0:0:0:
440,224,101551,1,0,0:0:0:0:
120,288,101728,5,0,0:0:0:0:
280,352,102081,1,0,0:0:0:0:
440,288,102434,1,0,0:0:0:0:
24,288,102787,1,0,0:0:0:0:
488,288,103140,5,0,0:0:0:0:
200,288,103316,1,0,0:0:0:0:
440,288,103493,1,0,0:0:0:0:
200,224,103846,2,0,L|304:224,1,100
104,224,104199,2,0,L|208:224,1,100
304,160,104551,5,0,0:0:0:0:
200,160,104728,2,0,L|48:160,1,150.000005722046
384,160,105081,1,0,0:0:0:0:
280,160,105257,1,0,0:0:0:0:
472,96,105610,1,0,0:0:0:0:
280,224,105963,5,0,0:0:0:0:
216,224,106051,1,0,0:0:0:0:
280,288,106140,1,0,0:0:0:0:
472,288,106316,1,0,0:0:0:0:
416,352,106669,1,0,0:0:0:0:
256,352,106846,1,0,0:0:0:0:
96,352,107022,1,0,0:0:0:0:
40,288,107199,1,0,0:0:0:0:
472,224,107375,5,0,0:0:0:0:
256,288,107728,1,0,0:0:0:0:
96,288,107904,1,0,0:0:0:0:
416,288,108081,1,0,0:0:0:0:
256,224,108434,1,0,0:0:0:0:
96,160,108787,5,0,0:0:0:0:
256,160,108963,1,0,0:0:0:0:
96,96,109140,1,0,0:0:0:0:
416,160,109493,1,0,0:0:0:0:
256,96,109669,1,0,0:0:0:0:
416,32,109846,1,0,0:0:0:0:
448,32,110022,1,0,0:0:0:0:
256,32,110199,5,0,0:0:0:0:
224,32,110375,1,0,0:0:0:0:
96,32,110551,1,0,0:0:0:0:
256,288,110728,1,0,0:0:0:0:
416,288,110904,1,0,0:0:0:0:
96,344,111257,1,0,0:0:0:0:
416,224,111610,5,0,0:0:0:0:
256,224,111699,1,0,0:0:0:0:
96,224,111787,1,0,0:0:0:0:
40,160,111963,1,0,0:0:0:0:
288,160,112316,1,0,0:0:0:0:
384,160,112493,1,0,0:0:0:0:
480,160,112669,1,0,0:0:0:0:
40,96,113023,5,0,0:0:0:0:
