osu file format v9

[General]
AudioFilename: akaipop.mp3
AudioLeadIn: 0
PreviewTime: 43519
Countdown: 0
SampleSet: Soft
StackLeniency: 0.5
Mode: 0
LetterboxInBreaks: 1

[Editor]
Bookmarks: 5849,30470,43162,74275,86391,98698
DistanceSpacing: 0.9
BeatDivisor: 2
GridSize: 8

[Metadata]
Title:Akazukin-chan Goyoujin (i-pop ver.)
Artist:OToGi 8
Creator:justnobody
Version:Easy
Source:Ookami-san to Shichinin no Nakama-tachi
Tags:CHAS vincerio lazy

[Difficulty]
HPDrainRate:2
CircleSize:3
OverallDifficulty:3
ApproachRate:4
SliderMultiplier:1
SliderTickRate:1

[Events]
//Background and Video events
0,0,"bg.jpg"
//Break Periods
2,71023,72965
2,123715,128349
//Storyboard Layer 0 (Background)
//Storyboard Layer 1 (Fail)
//Storyboard Layer 2 (Pass)
//Storyboard Layer 3 (Foreground)
//Storyboard Sound Samples
//Background Colour Transformations
3,100,163,162,255

[TimingPoints]
439,384.615384615385,4,2,0,85,1,0
43515,-100,4,2,0,85,0,1
70823,-100,4,2,0,85,0,0
108131,-100,4,1,0,85,0,0
111208,-100,4,2,0,85,0,1
123515,-100,4,2,0,85,0,0

[Colours]
Combo1 : 157,242,121
Combo2 : 255,51,51
Combo3 : 216,81,255
Combo4 : 83,83,255

[HitObjects]
464,320,6208,1,4
376,304,6592,2,0,B|256:272|232:304,1,150
88,312,7746,1,2
88,224,8131,2,0,B|208:192|232:224,1,150
376,232,9285,1,2
432,160,9669,6,0,B|504:96|424:32,1,150
288,40,10823,1,2
200,40,11208,2,0,C|184:56|216:96|200:112,3,100,0|2|0|2
112,136,12746,5,0
88,224,13131,2,0,B|80:272|88:328,3,100,0|2|0|2
176,328,14669,2,0,B|208:360|272:360|336:360|368:328,1,200
408,248,15823,2,0,B|464:8|280:8|336:248,1,400
80,152,18515,5,2
136,80,18900,2,0,B|264:112|280:88,1,150,4|0
424,72,20054,1,2
432,160,20439,2,0,B|464:288|432:304,1,150
296,312,21592,1,2
208,320,21977,6,0,B|184:376|144:312|104:376|80:320,1,150
80,176,23131,1,2
168,176,23515,2,0,B|184:160|152:96|168:80,3,100,0|2|0|2
256,72,25054,5,0
344,80,25439,2,0,B|360:96|328:160|344:176,3,100,0|2|0|2
432,184,26977,2,0,B|432:248|376:304|296:304,1,200
256,192,28323,12,0,30054
56,72,31015,6,0,B|216:152|56:256,1,250
112,328,32362,1,8
168,256,32746,6,0,B|232:216|288:216|360:256,1,200
408,328,33900,1,8
448,248,34285,6,0,B|512:224|512:120|440:88,1,200
360,56,35439,1,8
272,64,35823,1,0
96,56,36592,5,2
176,96,36977,1,8
96,128,37362,2,0,B|16:160|96:184,1,100,0|8
96,272,38131,2,0,B|16:304|96:328,1,100,0|8
184,328,38900,6,0,B|232:304|280:328,1,100,0|8
368,328,39669,2,0,B|424:328|456:272,1,100,0|8
256,192,40439,12,0,42746
104,264,43515,6,0,B|72:216|128:168|72:112|104:64,1,200,4|0
200,40,44669,1,2
296,56,45054,2,0,B|336:16|440:56,2,150
280,144,46592,6,0,B|232:184|280:232,1,100
368,232,47362,2,0,B|408:280|368:328,1,100
280,328,48131,2,4,B|128:328,1,150
104,192,49285,5,0
104,104,49669,2,0,B|152:64|200:112,3,100,0|2|0|2
200,192,51208,2,0,B|248:232|296:192,3,100,0|2|0|2
288,104,52746,6,0,B|336:64|384:112,3,100,0|2|0|2
416,184,54285,1,4
328,192,54669,2,0,B|288:216|320:280|280:312|256:312,1,150
144,304,55631,6,0,B|40:304|40:160,1,200,0|0
64,72,56785,1,2
200,48,57362,2,0,B|128:112|200:176,2,150
264,112,58900,6,0,B|304:56|344:112,2,100,0|0|2
312,192,60054,1,2
272,272,60439,2,4,B|256:336|144:336,1,150
96,264,61400,6,0,B|136:192|96:120,1,150
160,56,62362,2,0,B|256:24|256:24|352:56,1,200,2|2
416,112,63515,1,0
352,176,63900,2,0,B|256:208|256:208|160:176,1,200,2|2
80,128,65054,5,0
80,216,65439,2,2,B|40:264|80:304,2,100,2|0|2
168,216,66592,1,0
256,216,66977,2,0,B|360:216,2,100,2|0|2
256,192,67939,8,2,70823
56,288,74285,6,0,B|120:328|120:328|184:288,2,150,0|0|0
56,200,75823,1,0
96,72,76400,1,0
136,200,76977,1,4
216,160,77362,6,0,B|296:192|160:240|240:280,1,150
360,320,78515,1,2
448,320,78900,2,0,B|488:280|448:232,1,100,0|2
360,216,79669,2,0,B|312:168|360:120,1,100,0|2
432,80,80439,5,0
352,40,80823,2,0,B|288:40|256:72,1,100
176,40,81592,2,0,B|104:56|88:80,1,100
72,168,82362,5,8
104,248,82746,2,0,B|144:304|184:248,1,100,0|8
216,168,83515,1,0
256,248,83900,2,0,B|328:296|376:296|440:248,1,200,0|4
376,184,85054,2,0,B|352:176|328:184,3,50
136,216,86592,6,0,B|80:168|80:144|136:96,1,150
248,96,87746,1,2
336,96,88131,2,0,B|368:56|408:96|448:56|480:96,1,150
472,232,89285,1,2
384,232,89669,5,0
248,232,90246,2,0,B|248:320|152:320,1,150,0|8
136,232,91208,2,0,B|80:192|136:152,4,100,0|8|0|8|0
136,320,93131,5,2
224,296,93515,1,0
304,256,93900,1,2
376,200,94285,1,0
376,112,94669,6,0,B|352:72|288:72,1,100,2|0
296,160,95439,2,0,B|216:160|200:120,1,100,2|0
256,192,96015,12,0,97746
80,56,98900,5,4
256,56,99669,2,0,B|232:104|256:152,2,100,0|8|0
432,56,101208,2,0,B|464:104|432:152,2,100,0|8|0
256,56,102746,2,0,B|152:56,2,100,0|8|0
256,232,104285,6,0,B|296:272|256:320,2,100,0|8|0
168,232,105438,1,8
88,192,105823,1,0
88,104,106208,1,8
168,64,106592,1,0
256,56,106977,5,8
344,56,107362,1,0
432,56,107746,1,8
432,56,107939,1,0
432,144,108323,5,0
432,144,108515,1,0
344,144,108900,1,0
344,144,109092,1,0
296,224,109477,2,0,L|240:320|200:296|160:320|117:293,1,250
96,120,111208,6,0,B|170:95|248:120,2,150,4|0|2
96,208,112746,1,0
232,208,113323,1,0
312,318,113900,1,8
400,312,114285,6,0,B|432:288|464:232,1,100,0|0
376,208,115054,2,0,B|408:184|440:128,1,100,0|0
432,40,115823,2,0,B|368:96|296:40,1,150,4|4
160,64,116977,1,8
136,152,117362,6,0,B|128:216|112:256,2,100,4|0|0
224,168,118515,1,8
312,176,118900,2,0,B|350:163|384:192|424:176,2,100
312,88,120054,1,8
224,104,120438,2,0,B|185:91|160:112|120:96,2,100
296,48,121592,5,8
384,48,121977,1,0
400,136,122362,1,0
384,224,122746,1,2
384,224,122938,1,0
296,224,123323,1,0
296,224,123515,1,4
256,167,129669,5,0
256,80,130054,2,0,B|280:40|352:40,1,100,8|0
368,128,130823,2,0,B|416:144|416:208,1,100,8|0
336,240,131592,2,0,B|320:288|256:288,1,100,8|0
248,200,132362,5,8
336,184,132746,2,0,B|336:120|280:112,1,100,0|8
256,24,133515,2,0,B|200:32|184:96,1,100,0|8
280,112,134285,2,0,B|256:160|200:168,1,100,0|8
112,184,135054,6,0,B|112:288,1,100
200,304,135823,2,0,B|248:296|352:320|400:312,1,200,4|0
400,224,136977,6,0,B|352:224,3,50,2|0|0|2
216,224,138131,1,0
216,136,138515,2,0,B|264:136,3,50,2|0|0|2
400,136,139669,1,0
64,272,141400,6,0,B|128:328|200:272,1,150,0|0
256,208,142362,1,0
328,264,142746,1,8
328,264,142939,1,8
400,208,143323,2,0,B|408:104|360:32|256:88,1,250
176,48,144669,5,0
168,136,145054,2,8,B|64:216|168:304,1,200,4|0
256,296,146208,1,0
256,208,146592,2,0,B|256:64|344:48,1,200,4|0
424,80,147746,5,8
456,168,148131,2,0,B|480:232|408:224,1,100
320,224,148900,1,8
320,224,149092,1,8
272,312,149477,1,0
136,312,150054,5,0
136,224,150438,1,8
136,224,150631,1,8
256,192,151015,8,0,153131
