osu file format v14

[General]
AudioFilename: OSTER project - WICKeD CRSS.mp3
AudioLeadIn: 2000
PreviewTime: 47230
Countdown: 1
SampleSet: Normal
StackLeniency: 0.7
Mode: 0
LetterboxInBreaks: 0
WidescreenStoryboard: 0

[Editor]
Bookmarks: 25873,33873,47230,55229,59229,64560,65893,67226,77893,79226,83226,95226
DistanceSpacing: 0.9
BeatDivisor: 4
GridSize: 4
TimelineZoom: 2.1

[Metadata]
Title:WICKeD CROSS
TitleUnicode:WICKeD CRφSS
Artist:OSTER project
ArtistUnicode:OSTER project
Creator:Crimmi
Version:SPECIAL
Source:REFLEC BEAT groovin'!!
Tags:Azulae MYSTICAL STRIKE Vampire Phantom Beast Radar Maya Takamura ふたなりP Futanari-P
BeatmapID:773955
BeatmapSetID:351185

[Difficulty]
HPDrainRate:9
CircleSize:4
OverallDifficulty:9
ApproachRate:9
SliderMultiplier:1.7
SliderTickRate:2

[Events]
//Background and Video events
0,0,"dark_red_night_blood_moon_artwork_burn_black_hair_nanfe_1366x768.jpg",0,0
//Break Periods
//Storyboard Layer 0 (Background)
//Storyboard Layer 1 (Fail)
//Storyboard Layer 2 (Pass)
//Storyboard Layer 3 (Foreground)
//Storyboard Sound Samples

[TimingPoints]
540,333.333333333333,4,1,1,100,1,0
25873,-100,4,2,0,100,0,0
33873,-100,4,1,1,100,0,0
47230,333.333333333333,3,1,1,100,1,0
47230,-100,3,2,0,100,0,0
55229,-100,3,1,1,100,0,0
59229,-100,3,2,0,100,0,0
64560,333.333333333333,4,1,1,100,1,0
65893,-100,4,2,0,100,0,0
67226,-100,4,1,1,100,0,0
77893,-100,4,2,0,100,0,0
79226,-100,4,1,1,100,0,0
83226,-100,4,1,1,100,0,1
95226,-100,4,1,1,100,0,0
99059,-100,4,3,0,100,0,0
100893,-100,4,1,0,100,0,0

[Colours]
Combo1 : 192,192,192
Combo2 : 128,0,0
Combo3 : 255,255,255

[HitObjects]
456,344,540,6,0,B|472:264|472:264|456:168,1,170,4|0,0:0|0:0,0:0:0:0:
424,24,1206,1,8,0:0:0:0:
296,112,1539,1,0,0:0:0:0:
216,112,1706,1,0,0:0:0:0:
256,176,1873,2,0,P|192:184|144:88,1,170
216,112,2373,1,0,0:0:0:0:
296,112,2539,2,0,P|328:160|256:256,1,170,8|0,0:0|0:0,0:0:0:0:
208,288,3039,1,0,0:0:0:0:
176,216,3206,6,0,P|136:256|176:360,1,170
204,344,3623,1,0,0:0:0:0:
240,332,3706,1,0,0:0:0:0:
280,332,3789,1,0,0:0:0:0:
316,348,3873,6,0,P|352:275|300:204,1,170,8|0,0:0|0:0,0:0:0:0:
276,280,4373,1,0,0:0:0:0:
256,204,4539,6,0,P|212:232|200:280,1,85
328,224,4873,2,0,P|328:176|288:140,1,85
276,280,5206,2,0,P|312:304|368:288,1,85,8|0,0:0|0:0,0:0:0:0:
416,256,5539,1,0,0:0:0:0:
476,208,5706,1,0,0:0:0:0:
492,284,5873,6,0,P|456:328|348:296,1,170,4|0,0:0|0:0,0:0:0:0:
384,284,6289,1,0,0:0:0:0:
416,256,6373,1,0,0:0:0:0:
448,232,6456,1,0,0:0:0:0:
476,208,6539,2,0,P|424:176|340:248,1,170,8|0,0:0|0:0,0:0:0:0:
300,296,7039,1,0,0:0:0:0:
230,263,7206,6,0,P|224:305|240:344,1,85
300,296,7539,2,0,L|392:320,2,85,0|0|8,0:0|0:0|0:0,0:0:0:0:
272,144,8039,1,0,0:0:0:0:
360,208,8206,1,0,0:0:0:0:
208,232,8373,1,0,0:0:0:0:
360,208,8539,5,4,0:0:0:0:
424,288,8706,1,0,0:0:0:0:
472,188,8873,1,8,0:0:0:0:
300,296,9039,1,0,0:0:0:0:
152,208,9206,5,0,0:0:0:0:
88,288,9373,1,0,0:0:0:0:
40,188,9540,1,8,0:0:0:0:
208,296,9706,1,0,0:0:0:0:
256,140,9873,5,0,0:0:0:0:
300,296,10039,1,0,0:0:0:0:
416,172,10206,1,8,0:0:0:0:
320,204,10373,1,0,0:0:0:0:
392,265,10539,5,0,0:0:0:0:
348,109,10705,1,0,0:0:0:0:
232,233,10872,1,8,0:0:0:0:
320,204,11039,1,0,0:0:0:0:
256,192,11206,12,0,12206,0:0:0:0:
256,376,12539,6,0,L|256:272,1,85,4|0,0:0|0:0,0:0:0:0:
216,224,12873,2,0,P|253:213|304:229,1,85,8|0,0:0|0:0,0:0:0:0:
143,256,13206,6,0,P|137:214|151:175,1,85,4|0,0:0|0:0,0:0:0:0:
360,174,13539,2,0,P|374:214|368:256,1,85,4|0,0:0|0:0,0:0:0:0:
255,115,13873,6,0,L|256:232,1,85
296,264,14206,2,0,P|260:276|208:256,2,85,8|0|4,0:0|0:0|0:0,0:0:0:0:
328,336,14706,1,0,0:0:0:0:
264,192,14873,1,4,0:0:0:0:
408,308,15039,1,0,0:0:0:0:
340,164,15206,6,0,L|424:132,1,85,4|0,0:0|0:0,0:0:0:0:
492,164,15539,2,0,P|496:112|468:72,2,85,8|0|4,0:0|0:0|0:0,0:0:0:0:
508,240,16039,2,0,L|400:232,1,85,0|4,0:0|0:0,0:0:0:0:
384,228,16289,1,0,0:0:0:0:
344,224,16373,1,0,0:0:0:0:
268,216,16539,5,0,0:0:0:0:
100,200,16706,1,0,0:0:0:0:
100,200,16789,1,0,0:0:0:0:
100,200,16873,1,8,0:0:0:0:
196,104,17039,1,0,0:0:0:0:
176,312,17206,5,8,0:0:0:0:
210,336,17289,1,0,0:0:0:0:
250,349,17372,1,0,0:0:0:0:
293,348,17455,1,0,0:0:0:0:
332,334,17539,1,8,0:0:0:0:
366,308,17622,1,0,0:0:0:0:
389,273,17705,1,0,0:0:0:0:
400,232,17789,1,0,0:0:0:0:
412,196,17873,6,0,L|396:104,1,85,4|0,0:0|0:0,0:0:0:0:
320,104,18206,1,8,0:0:0:0:
364,40,18373,1,0,0:0:0:0:
288,36,18539,2,0,P|248:72|248:128,1,85
320,104,18873,2,0,L|132:96,1,170,8|0,0:0|0:0,0:0:0:0:
88,52,19373,2,0,P|72:100|88:148,1,85,8|8,0:0|0:0,0:0:0:0:
40,200,19706,1,0,0:0:0:0:
116,204,19873,2,0,L|96:264,3,42.5
136,264,20206,2,0,L|120:308,3,42.5,8|0|0|0,0:0|0:0|0:0|0:0,0:0:0:0:
108,340,20539,6,0,P|172:360|212:340,1,85
160,284,20873,6,0,P|168:240|148:204,1,85,8|0,0:0|0:0,0:0:0:0:
92,260,21206,2,0,P|52:280|28:336,2,85,0|0|8,0:0|0:0|0:0,0:0:0:0:
76,184,21706,1,0,0:0:0:0:
56,112,21873,5,0,0:0:0:0:
200,168,22039,1,0,0:0:0:0:
160,68,22206,1,8,0:0:0:0:
108,212,22373,1,0,0:0:0:0:
200,168,22539,6,0,L|220:240,2,56.6666666666667,4|0|0,0:0|0:0|0:0,0:0:0:0:
264,92,22873,2,0,L|280:168,2,56.6666666666667,8|0|0,0:0|0:0|0:0,0:0:0:0:
344,72,23206,2,0,L|340:-8,2,56.6666666666667
428,96,23539,6,0,L|416:160,2,56.6666666666667,8|0|0,0:0|0:0|0:0,0:0:0:0:
492,168,23873,2,0,L|476:228,2,56.6666666666667
448,300,24206,2,0,L|376:272,2,56.6666666666667,8|0|0,0:0|0:0|0:0,0:0:0:0:
256,192,24539,12,0,25539,0:0:0:0:
48,52,25873,5,4,0:0:0:0:
24,124,26039,1,0,0:0:0:0:
100,108,26206,2,0,P|96:152|60:192,1,85,2|0,0:0|0:0,0:0:0:0:
32,252,26539,2,0,L|120:288,1,85
184,312,26873,1,2,0:0:0:0:
256,340,27039,1,0,0:0:0:0:
184,312,27206,6,0,P|216:276|256:264,1,85
256,340,27539,2,0,L|352:340,1,85,2|0,0:0|0:0,0:0:0:0:
420,340,27873,1,0,0:0:0:0:
408,320,28039,1,0,0:0:0:0:
480,264,28206,1,2,0:0:0:0:
472,248,28373,1,0,0:0:0:0:
392,236,28539,6,0,P|340:268|328:304,1,85
352,364,28873,2,0,P|304:364|268:332,1,85,2|0,0:0|0:0,0:0:0:0:
252,272,29206,5,0,0:0:0:0:
196,324,29373,1,0,0:0:0:0:
252,272,29539,2,0,P|212:248|160:256,1,85,2|0,0:0|0:0,0:0:0:0:
120,304,29873,2,0,L|28:304,2,85,0|0|2,0:0|0:0|0:0,0:0:0:0:
170,247,30373,2,0,P|194:282|196:324,1,85
100,228,30706,2,0,P|128:184|180:176,1,85,0|2,0:0|0:0,0:0:0:0:
232,196,31039,1,0,0:0:0:0:
220,120,31206,6,0,P|268:128|296:240,1,170,0|2,0:0|0:0,0:0:0:0:
232,196,31706,1,0,0:0:0:0:
160,168,31873,2,0,P|144:108|228:44,1,170,0|2,0:0|0:0,0:0:0:0:
220,120,32373,1,0,0:0:0:0:
232,196,32539,2,0,P|192:240|152:240,2,85,0|0|2,0:0|0:0|0:0,0:0:0:0:
220,120,33039,1,0,0:0:0:0:
292,148,33206,2,0,P|292:88|196:44,1,170,0|2,0:0|0:0,0:0:0:0:
220,120,33706,1,0,0:0:0:0:
292,148,33873,6,0,L|320:100,2,42.5,4|0|0,0:0|0:0|0:0,0:0:0:0:
292,224,34206,2,0,L|328:172,2,42.5,8|0|0,0:0|0:0|0:0,0:0:0:0:
224,188,34539,1,4,0:0:0:0:
213,228,34622,1,0,0:0:0:0:
225,268,34705,1,0,0:0:0:0:
257,296,34789,1,0,0:0:0:0:
298,302,34872,1,8,0:0:0:0:
336,285,34955,1,0,0:0:0:0:
360,251,35039,1,0,0:0:0:0:
364,212,35123,1,0,0:0:0:0:
360,176,35206,6,0,L|464:204,1,85
504,152,35539,2,0,P|516:200|492:256,1,85,8|0,0:0|0:0,0:0:0:0:
444,280,35873,1,0,0:0:0:0:
496,336,36039,1,0,0:0:0:0:
496,336,36123,1,0,0:0:0:0:
496,336,36206,2,0,P|444:360|408:348,1,85,8|0,0:0|0:0,0:0:0:0:
344,368,36539,6,0,L|324:280,1,85,4|0,0:0|0:0,0:0:0:0:
304,212,36873,1,8,0:0:0:0:
252,268,37039,1,0,0:0:0:0:
304,212,37206,2,0,L|280:108,1,85
260,56,37539,1,8,0:0:0:0:
212,116,37706,1,0,0:0:0:0:
179,47,37873,6,0,P|221:40|260:56,1,85
212,116,38206,2,0,L|160:204,1,85,8|0,0:0|0:0,0:0:0:0:
124,252,38539,1,0,0:0:0:0:
192,288,38706,1,0,0:0:0:0:
256,328,38873,1,8,0:0:0:0:
320,288,39039,1,0,0:0:0:0:
388,252,39206,6,0,P|396:284|376:344,1,85
312,240,39539,2,0,P|328:200|384:176,1,85,8|0,0:0|0:0,0:0:0:0:
440,192,39873,1,0,0:0:0:0:
416,120,40039,1,0,0:0:0:0:
392,48,40206,1,8,0:0:0:0:
376,124,40373,1,0,0:0:0:0:
360,200,40539,5,0,0:0:0:0:
336,128,40706,1,0,0:0:0:0:
308,56,40873,1,8,0:0:0:0:
300,132,41039,1,0,0:0:0:0:
284,208,41206,6,0,P|240:184|224:140,1,85
216,116,41456,1,0,0:0:0:0:
204,80,41539,1,8,0:0:0:0:
136,116,41706,1,0,0:0:0:0:
68,152,41873,6,0,L|92:204,2,56.6666666666667
120,144,42206,2,0,L|104:212,2,56.6666666666667,8|0|0,0:0|0:0|0:0,0:0:0:0:
164,168,42539,2,0,L|112:232,2,56.6666666666667
188,216,42873,2,0,L|116:228,2,56.6666666666667,2|0|0,0:0|0:0|0:0,0:0:0:0:
264,208,43206,6,0,P|256:256|200:292,1,113.333333333333
188,216,43539,2,0,L|272:120,1,113.333333333333,8|0,0:0|0:0,0:0:0:0:
336,120,43873,2,0,P|330:92|312:72,2,56.6666666666667
348,200,44206,2,0,L|408:188,2,56.6666666666667,2|0|0,0:0|0:0|0:0,0:0:0:0:
272,172,44539,6,0,L|208:160,2,56.6666666666667
272,252,44873,2,0,L|228:292,2,56.6666666666667,8|0|0,0:0|0:0|0:0,0:0:0:0:
348,280,45206,2,0,L|348:344,2,56.6666666666667
420,248,45539,2,0,L|460:312,2,56.6666666666667,2|0|0,0:0|0:0|0:0,0:0:0:0:
256,192,45873,12,0,46873,0:0:0:0:
180,80,47230,6,0,P|256:40|328:88,1,170,4|0,0:0|0:0,0:0:0:0:
252,124,47730,1,0,0:0:0:0:
324,160,47896,1,2,0:0:0:0:
256,204,48063,1,0,0:0:0:0:
180,168,48230,6,0,P|172:212|192:264,1,85
329,242,48563,2,0,P|335:200|323:159,1,85
216,276,48896,2,0,P|264:284|316:268,1,85,2|0,0:0|0:0,0:0:0:0:
340,344,49230,2,0,P|280:360|168:340,1,170
132,280,49730,1,0,0:0:0:0:
96,348,49896,1,2,0:0:0:0:
52,284,50063,1,0,0:0:0:0:
132,280,50230,6,0,L|88:200,1,85
156,248,50563,2,0,L|140:160,1,85
184,224,50896,2,0,L|196:128,1,85,2|0,0:0|0:0,0:0:0:0:
268,164,51229,6,0,P|272:128|156:76,1,170
196,140,51729,1,0,0:0:0:0:
268,164,51896,1,2,0:0:0:0:
340,188,52063,1,0,0:0:0:0:
388,128,52229,2,0,P|416:208|344:268,1,170
340,188,52729,1,0,0:0:0:0:
292,248,52896,1,2,0:0:0:0:
240,304,53063,1,0,0:0:0:0:
292,248,53229,6,0,P|320:304|256:384,1,170
240,304,53729,2,0,P|200:332|184:368,2,85,0|2|0,0:0|0:0|0:0,0:0:0:0:
220,232,54229,2,0,P|176:248|144:284,1,85
136,281,54563,2,0,L|160:200,1,85
184,128,54896,1,2,0:0:0:0:
208,56,55063,1,0,0:0:0:0:
260,112,55229,6,0,P|308:152|408:124,1,170,4|0,0:0|0:0,0:0:0:0:
336,76,55729,2,0,L|312:252,1,170,2|0,0:0|0:0,0:0:0:0:
300,320,56229,1,0,0:0:0:0:
180,236,56396,1,0,0:0:0:0:
296,228,56563,1,8,0:0:0:0:
188,332,56729,1,0,0:0:0:0:
300,320,56896,2,8,B|344:304|344:304|392:252,1,85,8|0,0:0|0:0,0:0:0:0:
436,312,57229,6,0,P|448:264|352:204,1,170,4|0,0:0|0:0,0:0:0:0:
369,275,57729,2,0,L|336:88,1,170,2|0,0:0|0:0,0:0:0:0:
320,28,58229,1,0,0:0:0:0:
256,108,58396,1,0,0:0:0:0:
344,64,58563,1,8,0:0:0:0:
256,108,58729,1,0,0:0:0:0:
352,104,58896,1,8,0:0:0:0:
256,108,59063,1,0,0:0:0:0:
312,184,59229,6,0,P|264:204|164:132,1,170,4|0,0:0|0:0,0:0:0:0:
256,108,59729,2,0,L|200:292,1,170,2|0,0:0|0:0,0:0:0:0:
180,340,60229,2,0,P|216:344|260:324,2,85
206,270,60729,2,0,P|172:264|120:296,2,85,2|0|0,0:0|0:0|0:0,0:0:0:0:
256,328,61229,6,0,P|280:296|272:236,1,85
228,196,61563,2,0,P|276:176|320:192,2,85,2|0|2,0:0|0:0|0:0,0:0:0:0:
360,252,62229,2,0,P|388:200|332:104,2,170,0|0|2,0:0|0:0|0:0,0:0:0:0:
256,192,63229,12,0,64229,0:0:0:0:
160,192,64560,5,0,0:0:0:0:
256,104,64726,1,0,0:0:0:0:
352,192,64893,1,8,0:0:0:0:
256,272,65060,1,0,0:0:0:0:
144,192,65226,5,0,0:0:0:0:
256,88,65393,1,0,0:0:0:0:
368,192,65560,1,8,0:0:0:0:
256,288,65726,1,0,0:0:0:0:
256,192,65893,5,4,0:0:0:0:
240,192,66060,1,0,0:0:0:0:
256,176,66226,1,2,0:0:0:0:
272,192,66393,1,0,0:0:0:0:
256,216,66560,2,0,L|256:320,1,85
300,364,66893,2,0,P|260:380|212:364,1,85,2|0,0:0|0:0,0:0:0:0:
144,376,67226,6,0,P|148:332|200:296,1,85,4|0,0:0|0:0,0:0:0:0:
256,301,67560,2,0,P|240:256|204:232,1,85,8|0,0:0|0:0,0:0:0:0:
136,236,67893,2,0,L|100:264,2,42.5
88,176,68226,2,0,P|128:156|172:168,1,85,8|0,0:0|0:0,0:0:0:0:
212,224,68560,2,0,P|240:188|228:128,1,85
196,88,68893,2,0,L|316:108,1,85,8|0,0:0|0:0,0:0:0:0:
356,116,69226,1,0,0:0:0:0:
356,116,69310,1,0,0:0:0:0:
356,116,69393,1,0,0:0:0:0:
416,68,69560,2,0,P|432:116|420:160,1,85,8|0,0:0|0:0,0:0:0:0:
480,204,69893,6,0,L|292:204,1,170,0|8,0:0|0:0,0:0:0:0:
164,204,70393,1,0,0:0:0:0:
236,264,70560,1,0,0:0:0:0:
236,264,70643,1,0,0:0:0:0:
236,264,70726,1,0,0:0:0:0:
236,136,70893,1,8,0:0:0:0:
96,264,71060,1,0,0:0:0:0:
95,136,71226,6,0,P|103:116|116:99,2,42.5,2|0|0,0:0|0:0|0:0,0:0:0:0:
184,56,71560,2,0,P|216:48|240:44,2,42.5,8|0|0,0:0|0:0|0:0,0:0:0:0:
304,48,71893,2,0,P|320:60|368:60,2,42.5,2|0|0,0:0|0:0|0:0,0:0:0:0:
424,60,72226,2,0,L|476:52,2,42.5,8|0|0,0:0|0:0|0:0,0:0:0:0:
476,132,72559,6,0,L|380:148,1,85,4|0,0:0|0:0,0:0:0:0:
256,168,72893,1,8,0:0:0:0:
340,224,73059,1,0,0:0:0:0:
320,88,73226,2,0,P|248:64|208:76,1,85
163,112,73559,2,0,P|152:152|156:194,1,85,8|0,0:0|0:0,0:0:0:0:
220,252,73893,2,0,P|264:260|308:244,2,85,0|0|8,0:0|0:0|0:0,0:0:0:0:
144,272,74393,1,0,0:0:0:0:
200,324,74559,6,0,P|156:348|112:340,1,85
144,272,74893,2,0,L|136:184,1,85,8|0,0:0|0:0,0:0:0:0:
128,112,75226,5,0,0:0:0:0:
152,120,75393,1,0,0:0:0:0:
188,52,75559,1,8,0:0:0:0:
208,60,75726,1,0,0:0:0:0:
236,140,75893,2,0,L|220:184,2,42.5
148,208,76226,2,0,P|180:248|216:256,1,85,8|0,0:0|0:0,0:0:0:0:
288,244,76559,6,0,P|280:288|272:300,3,42.5
264,320,76893,2,0,L|208:336,3,42.5,8|0|0|0,0:0|0:0|0:0|0:0,0:0:0:0:
184,340,77226,1,0,0:0:0:0:
148,344,77309,1,0,0:0:0:0:
112,332,77393,1,0,0:0:0:0:
88,304,77476,1,0,0:0:0:0:
84,268,77559,2,0,L|168:232,1,85,8|0,0:0|0:0,0:0:0:0:
232,204,77893,5,4,0:0:0:0:
408,152,78059,1,0,0:0:0:0:
352,256,78226,1,2,0:0:0:0:
292,96,78393,1,0,0:0:0:0:
208,212,78559,5,0,0:0:0:0:
424,144,78726,1,0,0:0:0:0:
364,280,78893,2,0,L|328:188,1,85,2|0,0:0|0:0,0:0:0:0:
252,196,79226,6,0,L|192:192,2,56.6666666666667,4|0|0,0:0|0:0|0:0,0:0:0:0:
288,124,79559,2,0,L|236:68,2,56.6666666666667,8|0|0,0:0|0:0|0:0,0:0:0:0:
400,192,79893,6,0,L|460:188,2,56.6666666666667,4|0|0,0:0|0:0|0:0,0:0:0:0:
364,120,80226,2,0,L|416:64,2,56.6666666666667,8|0|0,0:0|0:0|0:0,0:0:0:0:
328,156,80559,5,0,0:0:0:0:
300,184,80643,1,0,0:0:0:0:
272,208,80726,1,0,0:0:0:0:
212,256,80893,1,8,0:0:0:0:
88,352,81059,1,0,0:0:0:0:
92,232,81226,1,0,0:0:0:0:
24,288,81393,6,2,P|4:244|76:144,1,170,0|2,0:0|0:0,0:0:0:0:
92,232,81893,2,2,P|128:204|144:132,1,113.333333333333
140,92,82226,2,0,L|216:120,2,56.6666666666667
252,56,82559,2,0,P|272:120|184:192,1,170,4|8,0:0|0:0,0:0:0:0:
172,200,82976,1,0,0:0:0:0:
136,208,83059,1,0,0:0:0:0:
72,164,83226,6,0,P|60:228|88:268,1,85,4|0,0:0|0:0,0:0:0:0:
132,284,83559,2,0,P|184:272|204:248,1,85,8|0,0:0|0:0,0:0:0:0:
232,176,83893,2,0,P|268:208|248:320,2,170,4|4|4,0:0|0:0|0:0,0:0:0:0:
168,132,84726,1,0,0:0:0:0:
168,132,84809,1,0,0:0:0:0:
168,132,84893,2,0,L|64:72,1,85,8|0,0:0|0:0,0:0:0:0:
28,52,85226,6,4,P|88:84|72:176,1,170,4|12,0:0|0:0,0:0:0:0:
48,200,85643,1,0,0:0:0:0:
20,228,85726,1,0,0:0:0:0:
20,304,85893,2,0,L|204:304,1,170,4|8,0:0|0:0,0:0:0:0:
240,244,86393,1,0,0:0:0:0:
272,312,86559,2,4,P|312:276|272:176,1,170,4|12,0:0|0:0,0:0:0:0:
244,160,86976,1,0,0:0:0:0:
208,172,87059,1,0,0:0:0:0:
140,204,87226,5,4,0:0:0:0:
88,88,87393,1,0,0:0:0:0:
88,88,87476,1,0,0:0:0:0:
88,88,87559,1,8,0:0:0:0:
12,188,87726,1,0,0:0:0:0:
64,288,87893,5,8,0:0:0:0:
94,317,87976,1,0,0:0:0:0:
132,335,88059,1,0,0:0:0:0:
174,340,88142,1,0,0:0:0:0:
215,330,88226,1,8,0:0:0:0:
251,308,88309,1,0,0:0:0:0:
280,276,88392,1,0,0:0:0:0:
296,240,88476,1,0,0:0:0:0:
292,204,88559,6,0,L|404:216,1,85,4|0,0:0|0:0,0:0:0:0:
404,284,88893,2,0,P|448:252|448:196,1,85,8|0,0:0|0:0,0:0:0:0:
380,212,89226,2,0,L|412:132,1,85
436,60,89559,1,8,0:0:0:0:
436,60,89643,1,0,0:0:0:0:
436,60,89726,1,0,0:0:0:0:
360,68,89893,6,0,B|312:76|312:76|252:64,1,85
216,20,90226,2,0,P|200:64|208:112,1,85,8|0,0:0|0:0,0:0:0:0:
252,160,90559,1,0,0:0:0:0:
214,178,90642,1,0,0:0:0:0:
172,174,90725,1,0,0:0:0:0:
140,147,90808,1,0,0:0:0:0:
127,107,90892,1,8,0:0:0:0:
104,140,90976,1,0,0:0:0:0:
72,160,91059,1,0,0:0:0:0:
40,168,91143,1,0,0:0:0:0:
4,156,91226,6,0,L|0:244,1,85
4,316,91559,2,0,P|48:300|72:260,1,85,8|0,0:0|0:0,0:0:0:0:
124,216,91893,1,0,0:0:0:0:
144,252,91976,1,0,0:0:0:0:
140,294,92059,1,0,0:0:0:0:
128,325,92142,1,0,0:0:0:0:
168,315,92226,1,8,0:0:0:0:
209,325,92309,1,0,0:0:0:0:
241,353,92392,1,0,0:0:0:0:
280,284,92559,6,0,L|372:300,1,85
468,240,92893,2,0,L|376:224,1,85,8|0,0:0|0:0,0:0:0:0:
308,208,93226,6,0,L|240:192,2,56.6666666666667,4|0|0,0:0|0:0|0:0,0:0:0:0:
380,156,93559,2,0,L|388:92,2,56.6666666666667,8|0|0,0:0|0:0|0:0,0:0:0:0:
440,228,93893,6,0,L|504:236,2,56.6666666666667,4|0|0,0:0|0:0|0:0,0:0:0:0:
368,268,94226,2,0,L|360:332,2,56.6666666666667,8|0|0,0:0|0:0|0:0,0:0:0:0:
304,208,94559,2,0,L|248:264,2,56.6666666666667,4|0|0,0:0|0:0|0:0,0:0:0:0:
308,128,94893,2,0,L|236:124,2,56.6666666666667,8|0|0,0:0|0:0|0:0,0:0:0:0:
256,192,95226,12,0,97559,0:0:0:0:
256,352,97893,5,4,0:0:0:0:
488,192,99059,5,8,0:0:0:0:
256,24,99559,1,4,0:0:0:0:
28,188,100226,1,8,0:0:0:0:
256,192,100893,12,4,104893,0:0:0:0:
